osu file format v14

[General]
AudioFilename: audio.mp3
AudioLeadIn: 0
PreviewTime: 49819
Countdown: 0
SampleSet: Normal
StackLeniency: 0.9
Mode: 0
LetterboxInBreaks: 0
WidescreenStoryboard: 0

[Editor]
Bookmarks: 43063
DistanceSpacing: 0.6
BeatDivisor: 4
GridSize: 8
TimelineZoom: 2.4

[Metadata]
Title:Old Ghosts /New Regrets
TitleUnicode:Old Ghosts /New Regrets
Artist:Parkway Drive
ArtistUnicode:Parkway Drive
Creator:Irate
Version:Extra
Source:
Tags:
BeatmapID:1021755
BeatmapSetID:478394

[Difficulty]
HPDrainRate:7.2
CircleSize:4
OverallDifficulty:7.5
ApproachRate:9.3
SliderMultiplier:1.6
SliderTickRate:2

[Events]
//Background and Video events
0,0,"pwdbg.jpg",0,0
//Break Periods
//Storyboard Layer 0 (Background)
//Storyboard Layer 1 (Fail)
//Storyboard Layer 2 (Pass)
//Storyboard Layer 3 (Foreground)
//Storyboard Sound Samples

[TimingPoints]
100,272.727272727273,4,1,0,100,1,0
15918,-50,4,1,0,100,0,0
17554,-50,4,1,0,100,0,0
20554,-100,4,1,0,100,0,0
29009,270.27027027027,4,1,0,100,1,0
32792,-50,4,1,0,100,0,0
33063,-100,4,1,0,100,0,0
39819,-66.6666666666667,4,1,0,100,0,0
40090,-100,4,1,0,100,0,0
41441,-50,4,1,0,100,0,0
67386,272.727272727273,4,1,0,100,1,0
154658,315.789473684211,4,1,0,100,1,0

[HitObjects]
352,80,100,6,0,P|352:160|304:224,1,160
96,64,918,1,0,0:0:0:0:
416,320,1463,1,0,0:0:0:0:
96,304,2009,1,0,0:0:0:0:
416,80,2554,1,0,0:0:0:0:
128,288,3100,1,0,0:0:0:0:
128,80,3372,2,0,B|133:117|163:119|163:138|180:157|144:144,1,80
288,192,3645,2,0,P|336:176|336:144,1,80
368,64,3918,1,0,0:0:0:0:
390,97,3986,1,0,0:0:0:0:
406,134,4054,1,0,0:0:0:0:
404,173,4122,1,0,0:0:0:0:
304,192,4190,1,0,0:0:0:0:
96,80,4463,5,0,0:0:0:0:
128,80,5554,1,0,0:0:0:0:
160,80,6645,1,0,0:0:0:0:
384,80,7736,1,0,0:0:0:0:
373,118,7804,1,0,0:0:0:0:
344,145,7872,1,0,0:0:0:0:
307,160,7940,1,0,0:0:0:0:
269,172,8009,1,0,0:0:0:0:
232,187,8077,1,0,0:0:0:0:
205,216,8145,1,0,0:0:0:0:
193,254,8213,1,0,0:0:0:0:
80,64,8827,5,0,0:0:0:0:
304,80,9100,1,0,0:0:0:0:
112,256,9372,2,0,B|144:224|144:208|144:192|144:192|160:208|160:224|176:256|176:288|208:272,1,160
384,64,9918,1,0,0:0:0:0:
64,192,10190,1,0,0:0:0:0:
288,96,10463,2,0,B|320:128|336:128|352:128|352:128|336:144|320:144|288:160|256:160|272:192,1,160
64,64,11009,1,0,0:0:0:0:
176,272,11281,1,0,0:0:0:0:
240,96,11554,2,0,B|320:80|352:128|352:192,1,160
112,64,12100,5,0,0:0:0:0:
149,76,12168,1,0,0:0:0:0:
189,81,12236,1,0,0:0:0:0:
229,75,12304,1,0,0:0:0:0:
267,66,12372,1,0,0:0:0:0:
280,100,12440,1,0,0:0:0:0:
270,139,12509,1,0,0:0:0:0:
250,173,12577,1,0,0:0:0:0:
225,204,12645,1,0,0:0:0:0:
199,235,12713,1,0,0:0:0:0:
183,270,12781,1,0,0:0:0:0:
221,280,12850,1,0,0:0:0:0:
254,299,12918,1,0,0:0:0:0:
368,88,13190,6,0,B|352:168|368:184|336:216|304:232,1,160
201,228,13736,2,0,B|176:216|144:184|160:168|144:88,1,160
416,48,14281,5,0,0:0:0:0:
80,48,14554,1,0,0:0:0:0:
368,80,14827,1,0,0:0:0:0:
144,80,15100,1,0,0:0:0:0:
400,144,15372,1,0,0:0:0:0:
96,144,15645,1,0,0:0:0:0:
176,256,15918,2,0,B|246:206|266:194|296:199|317:203|344:214|319:157|331:125|349:109|278:114|223:91|208:64,1,320
80,96,16463,5,0,0:0:0:0:
108,67,16531,1,0,0:0:0:0:
146,57,16600,1,0,0:0:0:0:
184,66,16668,1,0,0:0:0:0:
217,89,16736,1,0,0:0:0:0:
237,123,16804,1,0,0:0:0:0:
255,159,16872,1,0,0:0:0:0:
278,191,16940,1,0,0:0:0:0:
309,217,17009,1,0,0:0:0:0:
345,234,17077,1,0,0:0:0:0:
384,239,17145,1,0,0:0:0:0:
419,219,17213,1,0,0:0:0:0:
449,193,17281,1,0,0:0:0:0:
304,48,17554,6,0,B|352:96|400:96|400:96|368:128|368:128|360:176|360:176|312:152|280:176|280:176|312:200|312:200,1,320
256,128,18100,2,0,B|288:192|288:192|256:224|224:192|208:176|176:176|176:176|144:192|144:192|128:208|128:208|140:252|132:268|128:288,1,320
128,112,18645,2,0,B|176:96|160:48|192:48|240:64|240:64|204:71|192:96|192:96|240:112|240:112|192:160|192:160|208:192,1,320
304,304,19190,2,0,B|288:256|288:256|304:240|320:224|336:240|368:256|368:256|352:224|352:224|384:192|384:192|320:192|320:192|320:192|304:192|304:192|320:208|304:208|272:208,1,320
307,178,19736,2,0,B|304:176|320:176|304:192|304:192|320:192|320:192|320:192|384:192|384:192|352:160|352:160|368:128|368:128|336:144|320:160|304:144|288:128|288:128|304:80,1,320
248,168,20281,2,0,P|152:192|184:160,1,320
212,217,20827,5,0,0:0:0:0:
256,208,20895,1,0,0:0:0:0:
288,192,20963,1,0,0:0:0:0:
304,160,21031,1,0,0:0:0:0:
288,128,21100,1,0,0:0:0:0:
272,96,21168,1,0,0:0:0:0:
272,64,21236,1,0,0:0:0:0:
240,80,21304,1,0,0:0:0:0:
208,112,21372,1,0,0:0:0:0:
192,144,21440,1,0,0:0:0:0:
192,192,21509,1,0,0:0:0:0:
208,224,21577,1,0,0:0:0:0:
224,248,21645,1,0,0:0:0:0:
304,328,21918,5,0,0:0:0:0:
368,80,22190,5,0,0:0:0:0:
152,320,22463,2,0,L|152:144,1,160
400,320,23009,1,0,0:0:0:0:
144,56,23281,2,0,P|88:120|72:192,1,160
432,48,23827,1,0,0:0:0:0:
144,56,24100,2,0,P|200:120|216:192,1,160
384,240,24645,1,0,0:0:0:0:
336,224,24918,1,0,0:0:0:0:
136,104,25190,5,0,0:0:0:0:
160,64,25327,1,0,0:0:0:0:
176,112,25463,2,0,P|216:120|240:160,1,80
400,320,25736,1,0,0:0:0:0:
416,288,25872,1,0,0:0:0:0:
368,288,26009,1,0,0:0:0:0:
448,88,26281,5,0,0:0:0:0:
424,128,26418,1,0,0:0:0:0:
408,88,26554,2,0,P|384:56|345:49,1,80
104,264,26827,1,0,0:0:0:0:
144,272,26963,1,0,0:0:0:0:
112,320,27100,1,0,0:0:0:0:
320,96,27372,2,0,L|256:152,2,80
324,213,27781,2,0,L|384:160,1,80
256,192,28054,12,0,28872,0:0:0:0:
120,80,29009,6,0,B|176:144|264:144|304:96|248:208|256:240|176:216|120:256,1,320
112,176,29684,1,0,0:0:0:0:
192,304,29819,2,0,P|288:272|328:216,1,160
232,216,30225,1,0,0:0:0:0:
320,336,30360,2,0,P|384:280|400:208,1,160
344,136,30765,1,0,0:0:0:0:
304,208,30900,2,0,B|248:248|216:232|184:152,1,160
256,152,31711,5,0,0:0:0:0:
136,56,31846,2,0,L|112:104,1,40
128,240,31981,1,0,0:0:0:0:
176,128,32117,1,0,0:0:0:0:
280,224,32252,1,0,0:0:0:0:
304,104,32387,1,0,0:0:0:0:
176,192,32522,1,0,0:0:0:0:
192,56,32657,1,0,0:0:0:0:
336,216,32792,2,0,P|264:280|360:232,1,320
176,304,33333,6,0,B|144:224|224:168|312:288|392:192|400:144,1,320
264,304,34144,1,0,0:0:0:0:
312,144,34414,1,0,0:0:0:0:
316,152,34684,2,0,L|252:336,1,160
328,296,35225,2,0,L|232:128,1,160
72,64,35765,1,0,0:0:0:0:
160,120,36036,5,0,0:0:0:0:
168,120,36103,1,0,0:0:0:0:
176,120,36171,1,0,0:0:0:0:
352,120,36306,2,0,L|296:120,2,40
160,264,36576,2,0,L|216:264,2,40
352,264,36846,1,0,0:0:0:0:
344,264,36913,1,0,0:0:0:0:
336,264,36981,1,0,0:0:0:0:
296,176,37117,6,0,B|272:96|232:96|216:192,1,160
216,195,37657,2,0,B|232:288|272:288|296:208,1,160
352,176,38198,2,0,B|304:120|264:176|208:112,1,160
263,72,38738,2,0,B|257:153|325:142|320:216,1,160
240,208,39279,1,0,0:0:0:0:
328,96,39549,1,0,0:0:0:0:
136,168,39819,2,0,B|224:88|264:88|336:160|288:256,1,240.000009155274
368,184,40360,5,0,0:0:0:0:
304,224,40495,2,0,L|280:176,1,40
216,192,40630,1,0,0:0:0:0:
136,192,40766,1,0,0:0:0:0:
200,56,40901,1,0,0:0:0:0:
200,136,41036,1,0,0:0:0:0:
200,208,41171,1,0,0:0:0:0:
200,272,41306,1,0,0:0:0:0:
359,152,41441,2,0,P|287:69|336:168,1,320
96,56,41981,6,0,P|272:104|408:64,1,320
395,97,42522,2,0,P|245:145|96:96,1,320
80,144,43063,2,0,P|256:192|392:152,1,320
80,224,43603,2,0,P|136:96|248:200,1,320
432,224,44144,2,0,P|376:96|264:200,1,320
160,176,44684,5,0,0:0:0:0:
168,176,44752,1,0,0:0:0:0:
176,176,44819,1,0,0:0:0:0:
352,176,44954,1,0,0:0:0:0:
344,176,45022,1,0,0:0:0:0:
336,176,45089,1,0,0:0:0:0:
96,176,45225,5,0,0:0:0:0:
104,176,45293,1,0,0:0:0:0:
112,176,45360,1,0,0:0:0:0:
416,176,45495,1,0,0:0:0:0:
408,176,45563,1,0,0:0:0:0:
400,176,45630,1,0,0:0:0:0:
104,72,45765,6,0,L|432:72,1,320
112,248,46306,1,0,0:0:0:0:
384,248,46576,2,0,L|304:248|304:248,4,80
192,248,47117,1,0,0:0:0:0:
168,224,47185,1,0,0:0:0:0:
152,184,47253,1,0,0:0:0:0:
152,144,47320,1,0,0:0:0:0:
168,104,47388,1,0,0:0:0:0:
400,88,47657,6,0,P|232:88|232:224,1,320
312,144,48468,1,0,0:0:0:0:
144,224,48738,2,0,P|64:224|64:232,4,80
88,256,49279,1,0,0:0:0:0:
128,288,49347,1,0,0:0:0:0:
160,304,49414,1,0,0:0:0:0:
200,304,49482,1,0,0:0:0:0:
232,296,49549,1,0,0:0:0:0:
