osu file format v14

[General]
AudioFilename: Dedicated.mp3
AudioLeadIn: 0
PreviewTime: -1
Countdown: 0
SampleSet: None
StackLeniency: 0.7
Mode: 1
LetterboxInBreaks: 0
WidescreenStoryboard: 0

[Editor]
Bookmarks: 24624,43290,56624,78290,99290
DistanceSpacing: 2
BeatDivisor: 4
GridSize: 32
TimelineZoom: 2.5

[Metadata]
Title:Dedicated
TitleUnicode:Dedicated
Artist:Parkway Drive
ArtistUnicode:Parkway Drive
Creator:Grimbow
Version:Oni
Source:IRE
Tags:
BeatmapID:1494320
BeatmapSetID:706756

[Difficulty]
HPDrainRate:5
CircleSize:2
OverallDifficulty:5
ApproachRate:5
SliderMultiplier:1.6599999666214
SliderTickRate:1

[Events]
//Background and Video events
0,0,"unbire.jpg",0,0
//Break Periods
2,142157,146090
//Storyboard Layer 0 (Background)
//Storyboard Layer 1 (Fail)
//Storyboard Layer 2 (Pass)
//Storyboard Layer 3 (Foreground)
//Storyboard Sound Samples

[TimingPoints]
13957.5111731844,333.333333333333,4,1,0,100,1,0
43624,-133.333333333333,4,1,0,100,0,0
45957,-100,4,1,0,100,0,0
56624,-100,4,1,0,100,0,1
76624,-80,4,1,0,100,0,1
77957,-100,4,1,0,100,0,0
109957,-100,4,1,0,100,0,1
129790,-100,4,1,0,100,0,0
129957,-80,4,1,0,100,0,0
131290,-100,4,1,0,100,0,0
151276,333.333333333333,4,1,0,100,1,0
151892,375,4,1,0,100,1,0
152470,428.571428571429,4,1,0,100,1,0
153074,461.538461538462,4,1,0,100,1,0
153658,476.190476190476,4,1,0,100,1,0
168902,-66.6666666666667,4,1,0,100,0,0

[HitObjects]
256,192,13957,5,4,0:0:0:0:
256,192,14290,1,0,0:0:0:0:
256,192,14457,1,0,0:0:0:0:
256,192,14624,1,8,0:0:0:0:
256,192,14707,1,0,0:0:0:0:
256,192,14790,1,0,0:0:0:0:
256,192,14957,1,0,0:0:0:0:
256,192,15124,1,0,0:0:0:0:
256,192,15290,1,4,0:0:0:0:
256,192,15624,1,0,0:0:0:0:
256,192,15790,1,0,0:0:0:0:
256,192,15957,1,8,0:0:0:0:
256,192,16040,1,0,0:0:0:0:
256,192,16124,1,0,0:0:0:0:
256,192,16290,1,0,0:0:0:0:
256,192,16457,1,0,0:0:0:0:
256,192,16624,1,12,0:0:0:0:
256,192,16957,1,0,0:0:0:0:
256,192,17124,1,0,0:0:0:0:
256,192,17290,1,8,0:0:0:0:
256,192,17374,1,0,0:0:0:0:
256,192,17457,1,0,0:0:0:0:
256,192,17624,1,0,0:0:0:0:
256,192,17790,1,0,0:0:0:0:
256,192,17957,1,0,0:0:0:0:
256,192,18124,1,8,0:0:0:0:
256,192,18290,1,8,0:0:0:0:
256,192,18457,1,0,0:0:0:0:
256,192,18624,1,8,0:0:0:0:
256,192,18790,1,0,0:0:0:0:
256,192,18957,1,8,0:0:0:0:
256,192,19124,1,8,0:0:0:0:
256,192,19290,1,4,0:0:0:0:
256,192,19624,1,0,0:0:0:0:
256,192,19790,1,0,0:0:0:0:
256,192,19957,1,8,0:0:0:0:
256,192,20040,1,0,0:0:0:0:
256,192,20124,1,0,0:0:0:0:
256,192,20290,1,0,0:0:0:0:
256,192,20457,1,0,0:0:0:0:
256,192,20624,1,4,0:0:0:0:
256,192,20957,1,0,0:0:0:0:
256,192,21124,1,0,0:0:0:0:
256,192,21290,1,8,0:0:0:0:
256,192,21374,1,0,0:0:0:0:
256,192,21457,1,0,0:0:0:0:
256,192,21624,1,0,0:0:0:0:
256,192,21790,1,0,0:0:0:0:
256,192,21957,1,4,0:0:0:0:
256,192,22290,1,0,0:0:0:0:
256,192,22457,1,0,0:0:0:0:
256,192,22624,1,8,0:0:0:0:
256,192,22707,1,0,0:0:0:0:
256,192,22790,1,0,0:0:0:0:
256,192,22957,1,0,0:0:0:0:
256,192,23124,1,0,0:0:0:0:
256,192,23290,1,0,0:0:0:0:
256,192,23374,1,0,0:0:0:0:
256,192,23457,1,0,0:0:0:0:
256,192,23624,1,0,0:0:0:0:
256,192,23707,1,0,0:0:0:0:
256,192,23790,1,0,0:0:0:0:
256,192,23957,1,8,0:0:0:0:
256,192,24040,1,0,0:0:0:0:
256,192,24124,1,0,0:0:0:0:
256,192,24290,1,0,0:0:0:0:
256,192,24374,1,0,0:0:0:0:
256,192,24457,1,0,0:0:0:0:
256,192,24624,1,4,0:0:0:0:
256,192,24957,1,0,0:0:0:0:
256,192,25124,1,0,0:0:0:0:
256,192,25290,1,8,0:0:0:0:
256,192,25374,1,0,0:0:0:0:
256,192,25457,1,0,0:0:0:0:
256,192,25624,1,0,0:0:0:0:
256,192,25790,1,0,0:0:0:0:
256,192,25957,1,4,0:0:0:0:
256,192,26290,1,0,0:0:0:0:
256,192,26457,1,0,0:0:0:0:
256,192,26624,1,8,0:0:0:0:
256,192,26707,1,0,0:0:0:0:
256,192,26790,1,0,0:0:0:0:
256,192,26957,1,0,0:0:0:0:
256,192,27124,1,0,0:0:0:0:
256,192,27290,1,12,0:0:0:0:
256,192,27624,1,0,0:0:0:0:
256,192,27790,1,0,0:0:0:0:
256,192,27957,1,8,0:0:0:0:
256,192,28040,1,0,0:0:0:0:
256,192,28124,1,0,0:0:0:0:
256,192,28290,1,0,0:0:0:0:
256,192,28457,1,0,0:0:0:0:
256,192,28624,1,0,0:0:0:0:
256,192,28790,1,0,0:0:0:0:
256,192,28957,1,8,0:0:0:0:
256,192,29124,1,8,0:0:0:0:
256,192,29290,1,8,0:0:0:0:
256,192,29457,1,0,0:0:0:0:
256,192,29624,1,8,0:0:0:0:
256,192,29790,1,8,0:0:0:0:
256,192,29957,1,4,0:0:0:0:
256,192,30290,1,0,0:0:0:0:
256,192,30457,1,0,0:0:0:0:
256,192,30624,1,8,0:0:0:0:
256,192,30707,1,0,0:0:0:0:
256,192,30790,1,0,0:0:0:0:
256,192,30957,1,0,0:0:0:0:
256,192,31124,1,0,0:0:0:0:
256,192,31290,1,4,0:0:0:0:
256,192,31624,1,0,0:0:0:0:
256,192,31790,1,0,0:0:0:0:
256,192,31957,1,8,0:0:0:0:
256,192,32040,1,0,0:0:0:0:
256,192,32124,1,0,0:0:0:0:
256,192,32290,1,0,0:0:0:0:
256,192,32457,1,0,0:0:0:0:
256,192,32624,1,4,0:0:0:0:
256,192,32957,1,0,0:0:0:0:
256,192,33124,1,0,0:0:0:0:
256,192,33290,1,8,0:0:0:0:
256,192,33374,1,0,0:0:0:0:
256,192,33457,1,0,0:0:0:0:
256,192,33624,1,0,0:0:0:0:
256,192,33790,1,0,0:0:0:0:
256,192,33957,1,0,0:0:0:0:
256,192,34040,1,0,0:0:0:0:
256,192,34124,1,0,0:0:0:0:
256,192,34290,1,0,0:0:0:0:
256,192,34374,1,0,0:0:0:0:
256,192,34457,1,0,0:0:0:0:
256,192,34624,1,8,0:0:0:0:
256,192,34707,1,0,0:0:0:0:
256,192,34790,1,0,0:0:0:0:
256,192,34874,1,0,0:0:0:0:
256,192,34957,1,8,0:0:0:0:
256,192,35040,1,8,0:0:0:0:
256,192,35124,1,8,0:0:0:0:
256,192,35207,1,8,0:0:0:0:
256,192,35290,1,4,0:0:0:0:
256,192,35624,1,0,0:0:0:0:
256,192,35790,1,0,0:0:0:0:
256,192,35957,1,8,0:0:0:0:
256,192,36040,1,0,0:0:0:0:
256,192,36124,1,0,0:0:0:0:
256,192,36290,1,0,0:0:0:0:
256,192,36457,1,0,0:0:0:0:
256,192,36624,1,4,0:0:0:0:
256,192,36957,1,0,0:0:0:0:
256,192,37124,1,0,0:0:0:0:
256,192,37290,1,8,0:0:0:0:
256,192,37374,1,0,0:0:0:0:
256,192,37457,1,0,0:0:0:0:
256,192,37624,1,0,0:0:0:0:
256,192,37790,1,0,0:0:0:0:
256,192,37957,1,12,0:0:0:0:
256,192,38290,1,0,0:0:0:0:
256,192,38457,1,0,0:0:0:0:
256,192,38624,1,8,0:0:0:0:
256,192,38707,1,0,0:0:0:0:
256,192,38790,1,0,0:0:0:0:
256,192,38957,1,0,0:0:0:0:
256,192,39124,1,0,0:0:0:0:
256,192,39290,1,0,0:0:0:0:
256,192,39457,1,8,0:0:0:0:
256,192,39624,1,8,0:0:0:0:
256,192,39790,1,0,0:0:0:0:
256,192,39957,1,8,0:0:0:0:
256,192,40124,1,0,0:0:0:0:
256,192,40290,1,8,0:0:0:0:
256,192,40457,1,8,0:0:0:0:
256,192,40624,1,4,0:0:0:0:
256,192,40957,1,0,0:0:0:0:
256,192,41124,1,0,0:0:0:0:
256,192,41290,1,8,0:0:0:0:
256,192,41374,1,0,0:0:0:0:
256,192,41457,1,0,0:0:0:0:
256,192,41624,1,0,0:0:0:0:
256,192,41790,1,0,0:0:0:0:
256,192,41957,1,4,0:0:0:0:
256,192,42290,1,0,0:0:0:0:
256,192,42457,1,0,0:0:0:0:
256,192,42624,1,8,0:0:0:0:
256,192,42707,1,0,0:0:0:0:
256,192,42790,1,0,0:0:0:0:
256,192,42957,1,0,0:0:0:0:
256,192,43124,1,0,0:0:0:0:
256,192,43290,1,12,0:0:0:0:
256,192,43624,1,4,0:0:0:0:
256,192,43957,1,8,0:0:0:0:
256,192,44290,1,0,0:0:0:0:
256,192,44457,1,0,0:0:0:0:
256,192,44624,1,4,0:0:0:0:
256,192,44790,1,0,0:0:0:0:
256,192,44957,1,0,0:0:0:0:
256,192,45124,1,0,0:0:0:0:
256,192,45290,1,8,0:0:0:0:
256,192,45957,1,4,0:0:0:0:
256,192,46124,1,0,0:0:0:0:
256,192,46290,1,8,0:0:0:0:
256,192,46457,1,0,0:0:0:0:
256,192,46540,1,0,0:0:0:0:
256,192,46624,1,8,0:0:0:0:
256,192,46790,1,0,0:0:0:0:
256,192,46957,1,8,0:0:0:0:
256,192,47124,1,0,0:0:0:0:
256,192,47207,1,0,0:0:0:0:
256,192,47290,1,0,0:0:0:0:
256,192,47457,1,0,0:0:0:0:
256,192,47624,1,8,0:0:0:0:
256,192,47790,1,0,0:0:0:0:
256,192,47874,1,0,0:0:0:0:
256,192,47957,1,8,0:0:0:0:
256,192,48124,1,0,0:0:0:0:
256,192,48290,1,8,0:0:0:0:
256,192,48457,1,0,0:0:0:0:
256,192,48540,1,0,0:0:0:0:
256,192,48624,1,0,0:0:0:0:
256,192,48790,1,0,0:0:0:0:
256,192,48957,1,8,0:0:0:0:
256,192,49124,1,0,0:0:0:0:
256,192,49207,1,0,0:0:0:0:
256,192,49290,1,8,0:0:0:0:
256,192,49457,1,0,0:0:0:0:
256,192,49624,1,8,0:0:0:0:
256,192,49790,1,0,0:0:0:0:
256,192,49874,1,0,0:0:0:0:
256,192,49957,1,0,0:0:0:0:
256,192,50124,1,0,0:0:0:0:
256,192,50290,1,8,0:0:0:0:
256,192,50457,1,0,0:0:0:0:
256,192,50540,1,0,0:0:0:0:
256,192,50624,1,8,0:0:0:0:
256,192,50790,1,0,0:0:0:0:
256,192,50957,1,8,0:0:0:0:
256,192,51124,1,0,0:0:0:0:
256,192,51207,1,0,0:0:0:0:
256,192,51290,1,8,0:0:0:0:
256,192,51624,1,8,0:0:0:0:
256,192,51790,1,0,0:0:0:0:
256,192,51874,1,0,0:0:0:0:
256,192,51957,1,8,0:0:0:0:
256,192,52124,1,0,0:0:0:0:
256,192,52290,1,8,0:0:0:0:
256,192,52457,1,0,0:0:0:0:
256,192,52540,1,0,0:0:0:0:
256,192,52624,1,0,0:0:0:0:
256,192,52790,1,0,0:0:0:0:
256,192,52957,1,8,0:0:0:0:
256,192,53124,1,0,0:0:0:0:
256,192,53207,1,0,0:0:0:0:
256,192,53290,1,8,0:0:0:0:
256,192,53457,1,0,0:0:0:0:
256,192,53624,1,8,0:0:0:0:
256,192,53790,1,0,0:0:0:0:
256,192,53874,1,0,0:0:0:0:
256,192,53957,1,0,0:0:0:0:
256,192,54124,1,0,0:0:0:0:
256,192,54290,1,8,0:0:0:0:
256,192,54457,1,0,0:0:0:0:
256,192,54540,1,0,0:0:0:0:
256,192,54624,1,8,0:0:0:0:
256,192,54790,1,0,0:0:0:0:
256,192,54957,1,8,0:0:0:0:
256,192,55124,1,0,0:0:0:0:
256,192,55207,1,0,0:0:0:0:
256,192,55290,1,8,0:0:0:0:
256,192,55457,1,0,0:0:0:0:
256,192,55624,1,8,0:0:0:0:
256,192,55790,1,0,0:0:0:0:
256,192,55957,1,8,0:0:0:0:
256,192,56124,1,0,0:0:0:0:
256,192,56290,1,4,0:0:0:0:
256,192,56624,1,0,0:0:0:0:
256,192,56707,1,0,0:0:0:0:
256,192,56790,1,0,0:0:0:0:
256,192,56957,1,0,0:0:0:0:
256,192,57040,1,0,0:0:0:0:
256,192,57124,1,0,0:0:0:0:
256,192,57290,1,8,0:0:0:0:
256,192,57374,1,0,0:0:0:0:
256,192,57457,1,0,0:0:0:0:
256,192,57624,1,0,0:0:0:0:
256,192,57707,1,0,0:0:0:0:
256,192,57790,1,0,0:0:0:0:
256,192,57957,1,0,0:0:0:0:
256,192,58040,1,0,0:0:0:0:
256,192,58124,1,0,0:0:0:0:
256,192,58207,1,0,0:0:0:0:
256,192,58290,1,8,0:0:0:0:
256,192,58374,1,0,0:0:0:0:
256,192,58457,1,0,0:0:0:0:
256,192,58540,1,0,0:0:0:0:
256,192,58624,1,8,0:0:0:0:
256,192,58707,1,8,0:0:0:0:
256,192,58790,1,0,0:0:0:0:
256,192,58874,1,0,0:0:0:0:
256,192,58957,1,8,0:0:0:0:
256,192,59040,1,8,0:0:0:0:
256,192,59124,1,8,0:0:0:0:
256,192,59207,1,8,0:0:0:0:
256,192,59290,1,0,0:0:0:0:
256,192,59374,1,0,0:0:0:0:
256,192,59457,1,0,0:0:0:0:
256,192,59624,1,0,0:0:0:0:
256,192,59707,1,0,0:0:0:0:
256,192,59790,1,0,0:0:0:0:
256,192,59957,1,8,0:0:0:0:
256,192,60040,1,0,0:0:0:0:
256,192,60124,1,0,0:0:0:0:
256,192,60290,1,0,0:0:0:0:
256,192,60374,1,0,0:0:0:0:
256,192,60457,1,0,0:0:0:0:
256,192,60624,1,0,0:0:0:0:
256,192,60707,1,0,0:0:0:0:
256,192,60790,1,0,0:0:0:0:
256,192,60957,1,0,0:0:0:0:
256,192,61040,1,0,0:0:0:0:
256,192,61124,1,0,0:0:0:0:
256,192,61207,1,0,0:0:0:0:
256,192,61290,1,8,0:0:0:0:
256,192,61374,1,0,0:0:0:0:
256,192,61457,1,0,0:0:0:0:
256,192,61540,1,0,0:0:0:0:
256,192,61624,1,8,0:0:0:0:
256,192,61707,1,8,0:0:0:0:
256,192,61790,1,8,0:0:0:0:
256,192,61874,1,8,0:0:0:0:
256,192,61957,1,0,0:0:0:0:
256,192,62040,1,0,0:0:0:0:
256,192,62124,1,0,0:0:0:0:
256,192,62290,1,0,0:0:0:0:
256,192,62374,1,0,0:0:0:0:
256,192,62457,1,0,0:0:0:0:
256,192,62624,1,8,0:0:0:0:
256,192,62707,1,0,0:0:0:0:
256,192,62790,1,0,0:0:0:0:
256,192,62957,1,0,0:0:0:0:
256,192,63040,1,0,0:0:0:0:
256,192,63124,1,0,0:0:0:0:
256,192,63290,1,0,0:0:0:0:
256,192,63374,1,0,0:0:0:0:
256,192,63457,1,0,0:0:0:0:
256,192,63540,1,0,0:0:0:0:
256,192,63624,1,8,0:0:0:0:
256,192,63707,1,0,0:0:0:0:
256,192,63790,1,0,0:0:0:0:
256,192,63874,1,0,0:0:0:0:
256,192,63957,1,8,0:0:0:0:
256,192,64040,1,0,0:0:0:0:
256,192,64124,1,0,0:0:0:0:
256,192,64207,1,0,0:0:0:0:
256,192,64290,1,8,0:0:0:0:
256,192,64457,1,8,0:0:0:0:
256,192,64624,1,0,0:0:0:0:
256,192,64707,1,0,0:0:0:0:
256,192,64790,1,0,0:0:0:0:
256,192,64957,1,0,0:0:0:0:
256,192,65040,1,0,0:0:0:0:
256,192,65124,1,0,0:0:0:0:
256,192,65290,1,8,0:0:0:0:
256,192,65374,1,0,0:0:0:0:
256,192,65457,1,0,0:0:0:0:
256,192,65624,1,0,0:0:0:0:
256,192,65707,1,0,0:0:0:0:
256,192,65790,1,0,0:0:0:0:
256,192,65957,1,8,0:0:0:0:
256,192,66040,1,8,0:0:0:0:
256,192,66124,1,8,0:0:0:0:
256,192,66207,1,8,0:0:0:0:
256,192,66290,1,0,0:0:0:0:
256,192,66374,1,0,0:0:0:0:
256,192,66457,1,8,0:0:0:0:
256,192,66540,1,8,0:0:0:0:
256,192,66624,1,8,0:0:0:0:
256,192,66707,1,8,0:0:0:0:
256,192,66790,1,0,0:0:0:0:
256,192,66874,1,0,0:0:0:0:
256,192,66957,1,0,0:0:0:0:
256,192,67040,1,0,0:0:0:0:
256,192,67124,1,0,0:0:0:0:
256,192,67207,1,0,0:0:0:0:
256,192,67290,1,8,0:0:0:0:
256,192,67374,1,0,0:0:0:0:
256,192,67457,1,0,0:0:0:0:
256,192,67624,1,0,0:0:0:0:
256,192,67707,1,0,0:0:0:0:
256,192,67790,1,0,0:0:0:0:
256,192,67957,1,8,0:0:0:0:
256,192,68124,1,4,0:0:0:0:
256,192,68457,1,4,0:0:0:0:
256,192,68624,1,0,0:0:0:0:
256,192,68707,1,0,0:0:0:0:
256,192,68790,1,0,0:0:0:0:
256,192,68957,1,0,0:0:0:0:
256,192,69040,1,0,0:0:0:0:
256,192,69124,1,0,0:0:0:0:
256,192,69290,1,8,0:0:0:0:
256,192,69457,1,4,0:0:0:0:
256,192,69790,1,4,0:0:0:0:
256,192,69957,1,8,0:0:0:0:
256,192,70124,1,8,0:0:0:0:
256,192,70290,1,8,0:0:0:0:
256,192,70457,1,8,0:0:0:0:
256,192,70540,1,0,0:0:0:0:
256,192,70624,1,8,0:0:0:0:
256,192,70790,1,8,0:0:0:0:
256,192,70957,1,8,0:0:0:0:
256,192,71124,1,8,0:0:0:0:
256,192,71207,1,0,0:0:0:0:
256,192,71290,1,0,0:0:0:0:
256,192,71457,1,8,0:0:0:0:
256,192,71624,1,8,0:0:0:0:
256,192,71790,1,0,0:0:0:0:
256,192,71874,1,0,0:0:0:0:
256,192,71957,1,8,0:0:0:0:
256,192,72124,1,8,0:0:0:0:
256,192,72290,1,8,0:0:0:0:
256,192,72457,1,8,0:0:0:0:
256,192,72624,1,0,0:0:0:0:
256,192,72707,1,0,0:0:0:0:
256,192,72790,1,0,0:0:0:0:
256,192,72957,1,0,0:0:0:0:
256,192,73040,1,0,0:0:0:0:
256,192,73124,1,0,0:0:0:0:
256,192,73290,1,8,0:0:0:0:
256,192,73457,1,4,0:0:0:0:
256,192,73790,1,4,0:0:0:0:
256,192,73957,1,0,0:0:0:0:
256,192,74040,1,0,0:0:0:0:
256,192,74124,1,0,0:0:0:0:
256,192,74290,1,0,0:0:0:0:
256,192,74374,1,0,0:0:0:0:
256,192,74457,1,0,0:0:0:0:
256,192,74624,1,8,0:0:0:0:
256,192,74790,1,4,0:0:0:0:
256,192,75124,1,4,0:0:0:0:
256,192,75290,1,0,0:0:0:0:
256,192,75374,1,0,0:0:0:0:
256,192,75457,1,0,0:0:0:0:
256,192,75624,1,0,0:0:0:0:
256,192,75707,1,0,0:0:0:0:
256,192,75790,1,0,0:0:0:0:
256,192,75957,1,8,0:0:0:0:
256,192,76124,1,0,0:0:0:0:
256,192,76290,1,8,0:0:0:0:
256,192,76374,1,0,0:0:0:0:
256,192,76457,1,0,0:0:0:0:
256,192,76624,1,12,0:0:0:0:
256,192,76957,1,4,0:0:0:0:
256,192,77290,1,4,0:0:0:0:
256,192,77624,1,12,0:0:0:0:
256,192,77957,1,4,0:0:0:0:
256,192,78290,1,0,0:0:0:0:
256,192,78457,1,0,0:0:0:0:
256,192,78624,1,8,0:0:0:0:
256,192,78707,1,0,0:0:0:0:
256,192,78790,1,0,0:0:0:0:
256,192,78957,1,0,0:0:0:0:
256,192,79124,1,0,0:0:0:0:
256,192,79290,1,4,0:0:0:0:
256,192,79624,1,0,0:0:0:0:
256,192,79790,1,0,0:0:0:0:
256,192,79957,1,8,0:0:0:0:
256,192,80040,1,0,0:0:0:0:
256,192,80124,1,0,0:0:0:0:
256,192,80290,1,0,0:0:0:0:
256,192,80457,1,0,0:0:0:0:
256,192,80624,1,12,0:0:0:0:
256,192,80957,1,0,0:0:0:0:
256,192,81124,1,0,0:0:0:0:
256,192,81290,1,8,0:0:0:0:
256,192,81374,1,0,0:0:0:0:
256,192,81457,1,0,0:0:0:0:
256,192,81624,1,0,0:0:0:0:
256,192,81790,1,0,0:0:0:0:
256,192,81957,1,0,0:0:0:0:
256,192,82124,1,8,0:0:0:0:
256,192,82290,1,8,0:0:0:0:
256,192,82457,1,0,0:0:0:0:
256,192,82624,1,8,0:0:0:0:
256,192,82790,1,0,0:0:0:0:
256,192,82957,1,8,0:0:0:0:
256,192,83124,1,8,0:0:0:0:
256,192,83290,1,4,0:0:0:0:
256,192,83624,1,0,0:0:0:0:
256,192,83790,1,0,0:0:0:0:
256,192,83957,1,8,0:0:0:0:
256,192,84040,1,0,0:0:0:0:
256,192,84124,1,0,0:0:0:0:
256,192,84290,1,0,0:0:0:0:
256,192,84457,1,0,0:0:0:0:
256,192,84624,1,12,0:0:0:0:
256,192,84957,1,0,0:0:0:0:
256,192,85124,1,0,0:0:0:0:
256,192,85290,1,8,0:0:0:0:
256,192,85374,1,0,0:0:0:0:
256,192,85457,1,0,0:0:0:0:
256,192,85624,1,0,0:0:0:0:
256,192,85790,1,0,0:0:0:0:
256,192,85957,1,4,0:0:0:0:
256,192,86290,1,0,0:0:0:0:
256,192,86457,1,0,0:0:0:0:
256,192,86624,1,8,0:0:0:0:
256,192,86707,1,0,0:0:0:0:
256,192,86790,1,0,0:0:0:0:
256,192,86957,1,0,0:0:0:0:
256,192,87124,1,0,0:0:0:0:
256,192,87290,1,8,0:0:0:0:
256,192,87374,1,8,0:0:0:0:
256,192,87457,1,8,0:0:0:0:
256,192,87540,1,8,0:0:0:0:
256,192,87624,1,8,0:0:0:0:
256,192,87707,1,8,0:0:0:0:
256,192,87790,1,0,0:0:0:0:
256,192,87874,1,0,0:0:0:0:
256,192,87957,1,8,0:0:0:0:
256,192,88040,1,8,0:0:0:0:
256,192,88124,1,0,0:0:0:0:
256,192,88207,1,0,0:0:0:0:
256,192,88290,1,8,0:0:0:0:
256,192,88374,1,8,0:0:0:0:
256,192,88457,1,8,0:0:0:0:
256,192,88540,1,8,0:0:0:0:
256,192,88624,1,4,0:0:0:0:
256,192,88957,1,0,0:0:0:0:
256,192,89124,1,0,0:0:0:0:
256,192,89290,1,8,0:0:0:0:
256,192,89374,1,0,0:0:0:0:
256,192,89457,1,0,0:0:0:0:
256,192,89624,1,0,0:0:0:0:
256,192,89790,1,0,0:0:0:0:
256,192,89957,1,4,0:0:0:0:
256,192,90290,1,0,0:0:0:0:
256,192,90457,1,0,0:0:0:0:
256,192,90624,1,8,0:0:0:0:
256,192,90707,1,0,0:0:0:0:
256,192,90790,1,0,0:0:0:0:
256,192,90957,1,0,0:0:0:0:
256,192,91124,1,0,0:0:0:0:
256,192,91290,1,12,0:0:0:0:
256,192,91624,1,0,0:0:0:0:
256,192,91790,1,0,0:0:0:0:
256,192,91957,1,8,0:0:0:0:
256,192,92040,1,0,0:0:0:0:
256,192,92124,1,0,0:0:0:0:
256,192,92290,1,0,0:0:0:0:
256,192,92457,1,0,0:0:0:0:
256,192,92624,1,0,0:0:0:0:
256,192,92790,1,8,0:0:0:0:
256,192,92957,1,8,0:0:0:0:
256,192,93124,1,0,0:0:0:0:
256,192,93290,1,8,0:0:0:0:
256,192,93457,1,0,0:0:0:0:
256,192,93624,1,8,0:0:0:0:
256,192,93790,1,8,0:0:0:0:
256,192,93957,1,4,0:0:0:0:
256,192,94290,1,0,0:0:0:0:
256,192,94457,1,0,0:0:0:0:
256,192,94624,1,8,0:0:0:0:
256,192,94707,1,0,0:0:0:0:
256,192,94790,1,0,0:0:0:0:
256,192,94957,1,0,0:0:0:0:
256,192,95124,1,0,0:0:0:0:
256,192,95290,1,4,0:0:0:0:
256,192,95624,1,0,0:0:0:0:
256,192,95790,1,0,0:0:0:0:
256,192,95957,1,8,0:0:0:0:
256,192,96040,1,0,0:0:0:0:
256,192,96124,1,0,0:0:0:0:
256,192,96290,1,0,0:0:0:0:
256,192,96457,1,0,0:0:0:0:
256,192,96624,1,4,0:0:0:0:
256,192,96957,1,0,0:0:0:0:
256,192,97290,1,8,0:0:0:0:
256,192,97624,1,0,0:0:0:0:
256,192,97790,1,0,0:0:0:0:
256,192,97957,1,4,0:0:0:0:
256,192,98124,1,0,0:0:0:0:
256,192,98290,1,0,0:0:0:0:
256,192,98457,1,0,0:0:0:0:
256,192,98624,1,8,0:0:0:0:
256,192,99290,1,4,0:0:0:0:
256,192,99457,1,0,0:0:0:0:
256,192,99624,1,8,0:0:0:0:
256,192,99790,1,0,0:0:0:0:
256,192,99874,1,0,0:0:0:0:
256,192,99957,1,8,0:0:0:0:
256,192,100124,1,0,0:0:0:0:
256,192,100290,1,8,0:0:0:0:
256,192,100457,1,0,0:0:0:0:
256,192,100540,1,0,0:0:0:0:
256,192,100624,1,0,0:0:0:0:
256,192,100790,1,0,0:0:0:0:
256,192,100957,1,8,0:0:0:0:
256,192,101124,1,0,0:0:0:0:
256,192,101207,1,0,0:0:0:0:
256,192,101290,1,8,0:0:0:0:
256,192,101457,1,0,0:0:0:0:
256,192,101624,1,8,0:0:0:0:
256,192,101790,1,0,0:0:0:0:
256,192,101874,1,0,0:0:0:0:
256,192,101957,1,0,0:0:0:0:
256,192,102124,1,0,0:0:0:0:
256,192,102290,1,8,0:0:0:0:
256,192,102457,1,0,0:0:0:0:
256,192,102540,1,0,0:0:0:0:
256,192,102624,1,8,0:0:0:0:
256,192,102790,1,0,0:0:0:0:
256,192,102957,1,8,0:0:0:0:
256,192,103124,1,0,0:0:0:0:
256,192,103207,1,0,0:0:0:0:
256,192,103290,1,0,0:0:0:0:
256,192,103457,1,0,0:0:0:0:
256,192,103624,1,8,0:0:0:0:
256,192,103790,1,0,0:0:0:0:
256,192,103874,1,0,0:0:0:0:
256,192,103957,1,8,0:0:0:0:
256,192,104124,1,0,0:0:0:0:
256,192,104290,1,8,0:0:0:0:
256,192,104457,1,0,0:0:0:0:
256,192,104540,1,0,0:0:0:0:
256,192,104624,1,8,0:0:0:0:
256,192,104957,1,8,0:0:0:0:
256,192,105124,1,0,0:0:0:0:
256,192,105207,1,0,0:0:0:0:
256,192,105290,1,8,0:0:0:0:
256,192,105457,1,0,0:0:0:0:
256,192,105624,1,8,0:0:0:0:
256,192,105790,1,0,0:0:0:0:
256,192,105874,1,0,0:0:0:0:
256,192,105957,1,0,0:0:0:0:
256,192,106124,1,0,0:0:0:0:
256,192,106290,1,8,0:0:0:0:
256,192,106457,1,0,0:0:0:0:
256,192,106540,1,0,0:0:0:0:
256,192,106624,1,8,0:0:0:0:
256,192,106790,1,0,0:0:0:0:
256,192,106957,1,8,0:0:0:0:
256,192,107124,1,0,0:0:0:0:
256,192,107207,1,0,0:0:0:0:
256,192,107290,1,0,0:0:0:0:
256,192,107457,1,0,0:0:0:0:
256,192,107624,1,8,0:0:0:0:
256,192,107790,1,0,0:0:0:0:
256,192,107874,1,0,0:0:0:0:
256,192,107957,1,8,0:0:0:0:
256,192,108124,1,0,0:0:0:0:
256,192,108290,1,8,0:0:0:0:
256,192,108457,1,0,0:0:0:0:
256,192,108540,1,0,0:0:0:0:
256,192,108624,1,8,0:0:0:0:
256,192,108790,1,0,0:0:0:0:
256,192,108957,1,8,0:0:0:0:
256,192,109124,1,0,0:0:0:0:
256,192,109290,1,8,0:0:0:0:
256,192,109457,1,0,0:0:0:0:
256,192,109624,1,4,0:0:0:0:
256,192,109957,1,0,0:0:0:0:
256,192,110040,1,0,0:0:0:0:
256,192,110124,1,0,0:0:0:0:
256,192,110290,1,0,0:0:0:0:
256,192,110374,1,0,0:0:0:0:
256,192,110457,1,0,0:0:0:0:
256,192,110624,1,8,0:0:0:0:
256,192,110707,1,0,0:0:0:0:
256,192,110790,1,0,0:0:0:0:
256,192,110957,1,0,0:0:0:0:
256,192,111040,1,0,0:0:0:0:
256,192,111124,1,0,0:0:0:0:
256,192,111290,1,0,0:0:0:0:
256,192,111374,1,0,0:0:0:0:
256,192,111457,1,0,0:0:0:0:
256,192,111540,1,0,0:0:0:0:
256,192,111624,1,8,0:0:0:0:
256,192,111707,1,0,0:0:0:0:
256,192,111790,1,0,0:0:0:0:
256,192,111874,1,0,0:0:0:0:
256,192,111957,1,8,0:0:0:0:
256,192,112040,1,8,0:0:0:0:
256,192,112124,1,0,0:0:0:0:
256,192,112207,1,0,0:0:0:0:
256,192,112290,1,8,0:0:0:0:
256,192,112374,1,8,0:0:0:0:
256,192,112457,1,8,0:0:0:0:
256,192,112540,1,8,0:0:0:0:
256,192,112624,1,0,0:0:0:0:
256,192,112707,1,0,0:0:0:0:
256,192,112790,1,0,0:0:0:0:
256,192,112957,1,0,0:0:0:0:
256,192,113040,1,0,0:0:0:0:
256,192,113124,1,0,0:0:0:0:
256,192,113290,1,8,0:0:0:0:
256,192,113374,1,0,0:0:0:0:
256,192,113457,1,0,0:0:0:0:
256,192,113624,1,0,0:0:0:0:
256,192,113707,1,0,0:0:0:0:
256,192,113790,1,0,0:0:0:0:
256,192,113957,1,0,0:0:0:0:
256,192,114040,1,0,0:0:0:0:
256,192,114124,1,0,0:0:0:0:
256,192,114290,1,0,0:0:0:0:
256,192,114374,1,0,0:0:0:0:
256,192,114457,1,0,0:0:0:0:
256,192,114540,1,0,0:0:0:0:
256,192,114624,1,8,0:0:0:0:
256,192,114707,1,0,0:0:0:0:
256,192,114790,1,0,0:0:0:0:
256,192,114874,1,0,0:0:0:0:
256,192,114957,1,8,0:0:0:0:
256,192,115040,1,8,0:0:0:0:
256,192,115124,1,8,0:0:0:0:
256,192,115207,1,8,0:0:0:0:
256,192,115290,1,0,0:0:0:0:
256,192,115374,1,0,0:0:0:0:
256,192,115457,1,0,0:0:0:0:
256,192,115624,1,0,0:0:0:0:
256,192,115707,1,0,0:0:0:0:
256,192,115790,1,0,0:0:0:0:
256,192,115957,1,8,0:0:0:0:
256,192,116040,1,0,0:0:0:0:
256,192,116124,1,0,0:0:0:0:
256,192,116290,1,0,0:0:0:0:
256,192,116374,1,0,0:0:0:0:
256,192,116457,1,0,0:0:0:0:
256,192,116624,1,0,0:0:0:0:
256,192,116707,1,0,0:0:0:0:
256,192,116790,1,0,0:0:0:0:
256,192,116874,1,0,0:0:0:0:
256,192,116957,1,8,0:0:0:0:
256,192,117040,1,0,0:0:0:0:
256,192,117124,1,0,0:0:0:0:
256,192,117207,1,0,0:0:0:0:
256,192,117290,1,8,0:0:0:0:
256,192,117374,1,0,0:0:0:0:
256,192,117457,1,0,0:0:0:0:
256,192,117540,1,0,0:0:0:0:
256,192,117624,1,8,0:0:0:0:
256,192,117790,1,8,0:0:0:0:
256,192,117957,1,0,0:0:0:0:
256,192,118040,1,0,0:0:0:0:
256,192,118124,1,0,0:0:0:0:
256,192,118290,1,0,0:0:0:0:
256,192,118374,1,0,0:0:0:0:
256,192,118457,1,0,0:0:0:0:
256,192,118624,1,8,0:0:0:0:
256,192,118707,1,0,0:0:0:0:
256,192,118790,1,0,0:0:0:0:
256,192,118957,1,0,0:0:0:0:
256,192,119040,1,0,0:0:0:0:
256,192,119124,1,0,0:0:0:0:
256,192,119290,1,8,0:0:0:0:
256,192,119374,1,8,0:0:0:0:
256,192,119457,1,8,0:0:0:0:
256,192,119540,1,8,0:0:0:0:
256,192,119624,1,0,0:0:0:0:
256,192,119707,1,0,0:0:0:0:
256,192,119790,1,8,0:0:0:0:
256,192,119874,1,8,0:0:0:0:
256,192,119957,1,8,0:0:0:0:
256,192,120040,1,8,0:0:0:0:
256,192,120124,1,0,0:0:0:0:
256,192,120207,1,0,0:0:0:0:
256,192,120290,1,0,0:0:0:0:
256,192,120374,1,0,0:0:0:0:
256,192,120457,1,0,0:0:0:0:
256,192,120540,1,0,0:0:0:0:
256,192,120624,1,8,0:0:0:0:
256,192,120707,1,0,0:0:0:0:
256,192,120790,1,0,0:0:0:0:
256,192,120957,1,0,0:0:0:0:
256,192,121040,1,0,0:0:0:0:
256,192,121124,1,0,0:0:0:0:
256,192,121290,1,8,0:0:0:0:
256,192,121457,1,4,0:0:0:0:
256,192,121790,1,4,0:0:0:0:
256,192,121957,1,0,0:0:0:0:
256,192,122040,1,0,0:0:0:0:
256,192,122124,1,0,0:0:0:0:
256,192,122290,1,0,0:0:0:0:
256,192,122374,1,0,0:0:0:0:
256,192,122457,1,0,0:0:0:0:
256,192,122624,1,8,0:0:0:0:
256,192,122790,1,4,0:0:0:0:
256,192,123124,1,4,0:0:0:0:
256,192,123290,1,8,0:0:0:0:
256,192,123374,1,0,0:0:0:0:
256,192,123457,1,8,0:0:0:0:
256,192,123540,1,0,0:0:0:0:
256,192,123624,1,8,0:0:0:0:
256,192,123707,1,0,0:0:0:0:
256,192,123790,1,8,0:0:0:0:
256,192,123874,1,0,0:0:0:0:
256,192,123957,1,8,0:0:0:0:
256,192,124040,1,0,0:0:0:0:
256,192,124124,1,8,0:0:0:0:
256,192,124207,1,0,0:0:0:0:
256,192,124290,1,8,0:0:0:0:
256,192,124374,1,0,0:0:0:0:
256,192,124457,1,0,0:0:0:0:
256,192,124540,1,0,0:0:0:0:
256,192,124624,1,8,0:0:0:0:
256,192,124707,1,8,0:0:0:0:
256,192,124790,1,8,0:0:0:0:
256,192,124874,1,8,0:0:0:0:
256,192,124957,1,8,0:0:0:0:
256,192,125040,1,8,0:0:0:0:
256,192,125124,1,0,0:0:0:0:
256,192,125207,1,0,0:0:0:0:
256,192,125290,1,8,0:0:0:0:
256,192,125374,1,8,0:0:0:0:
256,192,125457,1,0,0:0:0:0:
256,192,125540,1,0,0:0:0:0:
256,192,125624,1,8,0:0:0:0:
256,192,125707,1,8,0:0:0:0:
256,192,125790,1,8,0:0:0:0:
256,192,125874,1,8,0:0:0:0:
256,192,125957,1,0,0:0:0:0:
256,192,126040,1,0,0:0:0:0:
256,192,126124,1,0,0:0:0:0:
256,192,126290,1,0,0:0:0:0:
256,192,126374,1,0,0:0:0:0:
256,192,126457,1,0,0:0:0:0:
256,192,126624,1,8,0:0:0:0:
256,192,126790,1,4,0:0:0:0:
256,192,127124,1,4,0:0:0:0:
256,192,127290,1,0,0:0:0:0:
256,192,127374,1,0,0:0:0:0:
256,192,127457,1,0,0:0:0:0:
256,192,127624,1,0,0:0:0:0:
256,192,127707,1,0,0:0:0:0:
256,192,127790,1,0,0:0:0:0:
256,192,127957,1,8,0:0:0:0:
256,192,128124,1,4,0:0:0:0:
256,192,128457,1,4,0:0:0:0:
256,192,128624,1,0,0:0:0:0:
256,192,128707,1,0,0:0:0:0:
256,192,128790,1,0,0:0:0:0:
256,192,128957,1,0,0:0:0:0:
256,192,129040,1,0,0:0:0:0:
256,192,129124,1,0,0:0:0:0:
256,192,129290,1,8,0:0:0:0:
256,192,129374,1,0,0:0:0:0:
256,192,129457,1,0,0:0:0:0:
256,192,129624,1,8,0:0:0:0:
256,192,129707,1,0,0:0:0:0:
256,192,129790,1,0,0:0:0:0:
256,192,129957,1,12,0:0:0:0:
256,192,130290,1,4,0:0:0:0:
256,192,130624,1,4,0:0:0:0:
256,192,130957,1,12,0:0:0:0:
256,192,131290,1,0,0:0:0:0:
256,192,131374,1,0,0:0:0:0:
256,192,131457,1,0,0:0:0:0:
256,192,131790,1,0,0:0:0:0:
256,192,131957,1,8,0:0:0:0:
256,192,132040,1,0,0:0:0:0:
256,192,132124,1,0,0:0:0:0:
256,192,132457,1,0,0:0:0:0:
256,192,132540,1,0,0:0:0:0:
256,192,132624,1,0,0:0:0:0:
256,192,132790,1,0,0:0:0:0:
256,192,133124,1,0,0:0:0:0:
256,192,133207,1,0,0:0:0:0:
256,192,133290,1,8,0:0:0:0:
256,192,133457,1,0,0:0:0:0:
256,192,133790,1,0,0:0:0:0:
256,192,133957,1,0,0:0:0:0:
256,192,134040,1,0,0:0:0:0:
256,192,134124,1,0,0:0:0:0:
256,192,134457,1,0,0:0:0:0:
256,192,134624,1,8,0:0:0:0:
256,192,134707,1,0,0:0:0:0:
256,192,134790,1,0,0:0:0:0:
256,192,135124,1,0,0:0:0:0:
256,192,135207,1,0,0:0:0:0:
256,192,135290,1,0,0:0:0:0:
256,192,135457,1,0,0:0:0:0:
256,192,135790,1,0,0:0:0:0:
256,192,135874,1,0,0:0:0:0:
256,192,135957,1,8,0:0:0:0:
256,192,136124,1,0,0:0:0:0:
256,192,136457,1,0,0:0:0:0:
256,192,136624,1,0,0:0:0:0:
256,192,136707,1,0,0:0:0:0:
256,192,136790,1,0,0:0:0:0:
256,192,137124,1,0,0:0:0:0:
256,192,137290,1,8,0:0:0:0:
256,192,137374,1,0,0:0:0:0:
256,192,137457,1,0,0:0:0:0:
256,192,137790,1,0,0:0:0:0:
256,192,137874,1,0,0:0:0:0:
256,192,137957,1,0,0:0:0:0:
256,192,138124,1,0,0:0:0:0:
256,192,138457,1,0,0:0:0:0:
256,192,138540,1,0,0:0:0:0:
256,192,138624,1,8,0:0:0:0:
256,192,138790,1,0,0:0:0:0:
256,192,139124,1,0,0:0:0:0:
256,192,139290,1,0,0:0:0:0:
256,192,139374,1,0,0:0:0:0:
256,192,139457,1,0,0:0:0:0:
256,192,139790,1,0,0:0:0:0:
256,192,139957,1,8,0:0:0:0:
256,192,140040,1,0,0:0:0:0:
256,192,140124,1,0,0:0:0:0:
256,192,140457,1,0,0:0:0:0:
256,192,140540,1,0,0:0:0:0:
256,192,140624,1,8,0:0:0:0:
256,192,140790,1,0,0:0:0:0:
256,192,140957,1,8,0:0:0:0:
256,192,141124,1,0,0:0:0:0:
256,192,141207,1,0,0:0:0:0:
256,192,141290,1,0,0:0:0:0:
256,192,141457,1,0,0:0:0:0:
256,192,141624,1,8,0:0:0:0:
256,192,141790,1,0,0:0:0:0:
256,192,141957,1,12,0:0:0:0:
256,192,147290,5,4,0:0:0:0:
256,192,147957,1,0,0:0:0:0:
256,192,148624,1,0,0:0:0:0:
256,192,149290,1,0,0:0:0:0:
256,192,149957,1,0,0:0:0:0:
256,192,150624,1,0,0:0:0:0:
256,192,151290,1,12,0:0:0:0:
256,192,151892,1,4,0:0:0:0:
256,192,152470,1,6,0:0:0:0:
256,192,153074,1,4,0:0:0:0:
256,192,153658,1,12,0:0:0:0:
256,192,154134,1,4,0:0:0:0:
256,192,155086,1,4,0:0:0:0:
256,192,155324,1,4,0:0:0:0:
256,192,156038,1,4,0:0:0:0:
256,192,156991,1,4,0:0:0:0:
256,192,157229,1,4,0:0:0:0:
256,192,157943,1,4,0:0:0:0:
256,192,158896,1,4,0:0:0:0:
256,192,159134,1,4,0:0:0:0:
256,192,159372,1,0,0:0:0:0:
256,192,159491,1,0,0:0:0:0:
256,192,159610,1,0,0:0:0:0:
256,192,159848,1,0,0:0:0:0:
256,192,159967,1,0,0:0:0:0:
256,192,160086,1,0,0:0:0:0:
256,192,160324,1,8,0:0:0:0:
256,192,160443,1,0,0:0:0:0:
256,192,160562,1,0,0:0:0:0:
256,192,160800,1,0,0:0:0:0:
256,192,160919,1,0,0:0:0:0:
256,192,161038,1,0,0:0:0:0:
256,192,161277,1,12,0:0:0:0:
256,192,161753,1,4,0:0:0:0:
256,192,162705,1,4,0:0:0:0:
256,192,162943,1,4,0:0:0:0:
256,192,163658,1,4,0:0:0:0:
256,192,164610,1,4,0:0:0:0:
256,192,164848,1,4,0:0:0:0:
256,192,165562,1,4,0:0:0:0:
256,192,166515,1,4,0:0:0:0:
256,192,166753,1,4,0:0:0:0:
256,192,168896,1,4,0:0:0:0:
256,192,169015,1,0,0:0:0:0:
256,192,169372,1,0,0:0:0:0:
256,192,169848,1,8,0:0:0:0:
256,192,169967,1,0,0:0:0:0:
256,192,170086,1,0,0:0:0:0:
256,192,170205,1,8,0:0:0:0:
256,192,170324,1,8,0:0:0:0:
256,192,170443,1,8,0:0:0:0:
256,192,170562,1,0,0:0:0:0:
256,192,170681,1,0,0:0:0:0:
256,192,170800,1,8,0:0:0:0:
256,192,170919,1,0,0:0:0:0:
256,192,171277,1,0,0:0:0:0:
256,192,171753,1,8,0:0:0:0:
256,192,171872,1,0,0:0:0:0:
256,192,171991,1,0,0:0:0:0:
256,192,172110,1,8,0:0:0:0:
256,192,172229,1,8,0:0:0:0:
256,192,172348,1,8,0:0:0:0:
256,192,172467,1,0,0:0:0:0:
256,192,172586,1,0,0:0:0:0:
256,192,172705,1,8,0:0:0:0:
256,192,172824,1,0,0:0:0:0:
256,192,173181,1,0,0:0:0:0:
256,192,173658,1,8,0:0:0:0:
256,192,173777,1,0,0:0:0:0:
256,192,173896,1,0,0:0:0:0:
256,192,174015,1,8,0:0:0:0:
256,192,174134,1,8,0:0:0:0:
256,192,174253,1,8,0:0:0:0:
256,192,174372,1,0,0:0:0:0:
256,192,174491,1,0,0:0:0:0:
256,192,174610,1,0,0:0:0:0:
256,192,174689,1,0,0:0:0:0:
256,192,174769,1,0,0:0:0:0:
256,192,174848,1,0,0:0:0:0:
256,192,175086,1,0,0:0:0:0:
256,192,175165,1,0,0:0:0:0:
256,192,175245,1,0,0:0:0:0:
256,192,175324,1,0,0:0:0:0:
256,192,175562,1,8,0:0:0:0:
256,192,175642,1,0,0:0:0:0:
256,192,175721,1,0,0:0:0:0:
256,192,175800,1,0,0:0:0:0:
256,192,176038,1,0,0:0:0:0:
256,192,176118,1,0,0:0:0:0:
256,192,176197,1,0,0:0:0:0:
256,192,176277,1,0,0:0:0:0:
256,192,176515,1,8,0:0:0:0:
256,192,176634,1,0,0:0:0:0:
256,192,176991,1,0,0:0:0:0:
256,192,177467,1,8,0:0:0:0:
256,192,177586,1,0,0:0:0:0:
256,192,177705,1,0,0:0:0:0:
256,192,177824,1,8,0:0:0:0:
256,192,177943,1,8,0:0:0:0:
256,192,178062,1,8,0:0:0:0:
256,192,178181,1,0,0:0:0:0:
256,192,178300,1,0,0:0:0:0:
256,192,178419,1,8,0:0:0:0:
256,192,178538,1,0,0:0:0:0:
256,192,178896,1,0,0:0:0:0:
256,192,179372,1,8,0:0:0:0:
256,192,179491,1,0,0:0:0:0:
256,192,179610,1,0,0:0:0:0:
256,192,179729,1,8,0:0:0:0:
256,192,179848,1,8,0:0:0:0:
256,192,179967,1,8,0:0:0:0:
256,192,180086,1,0,0:0:0:0:
256,192,180205,1,0,0:0:0:0:
256,192,180324,1,8,0:0:0:0:
256,192,180443,1,0,0:0:0:0:
256,192,180800,1,0,0:0:0:0:
256,192,181277,1,8,0:0:0:0:
256,192,181396,1,0,0:0:0:0:
256,192,181515,1,0,0:0:0:0:
256,192,181634,1,8,0:0:0:0:
256,192,181753,1,8,0:0:0:0:
256,192,181872,1,8,0:0:0:0:
256,192,181991,1,0,0:0:0:0:
256,192,182110,1,0,0:0:0:0:
256,192,182229,1,0,0:0:0:0:
256,192,182308,1,0,0:0:0:0:
256,192,182388,1,0,0:0:0:0:
256,192,182467,1,0,0:0:0:0:
256,192,182705,1,0,0:0:0:0:
256,192,182784,1,0,0:0:0:0:
256,192,182864,1,0,0:0:0:0:
256,192,182943,1,0,0:0:0:0:
256,192,183181,1,8,0:0:0:0:
256,192,183300,1,8,0:0:0:0:
256,192,183419,1,8,0:0:0:0:
256,192,183538,1,8,0:0:0:0:
256,192,183658,1,8,0:0:0:0:
256,192,183777,1,8,0:0:0:0:
256,192,183896,1,8,0:0:0:0:
256,192,184015,1,8,0:0:0:0:
256,192,184134,1,4,0:0:0:0:
256,192,184253,1,0,0:0:0:0:
256,192,184372,1,0,0:0:0:0:
256,192,184491,1,0,0:0:0:0:
256,192,184610,1,8,0:0:0:0:
256,192,184729,1,0,0:0:0:0:
256,192,185086,1,8,0:0:0:0:
256,192,185165,1,0,0:0:0:0:
256,192,185245,1,0,0:0:0:0:
256,192,185324,1,0,0:0:0:0:
256,192,185562,1,0,0:0:0:0:
256,192,185642,1,0,0:0:0:0:
256,192,185721,1,0,0:0:0:0:
256,192,185800,1,0,0:0:0:0:
256,192,186038,1,4,0:0:0:0:
256,192,186158,1,0,0:0:0:0:
256,192,186277,1,0,0:0:0:0:
256,192,186396,1,0,0:0:0:0:
256,192,186515,1,8,0:0:0:0:
256,192,186634,1,0,0:0:0:0:
256,192,186991,1,8,0:0:0:0:
256,192,187070,1,0,0:0:0:0:
256,192,187150,1,0,0:0:0:0:
256,192,187229,1,0,0:0:0:0:
256,192,187467,1,0,0:0:0:0:
256,192,187546,1,0,0:0:0:0:
256,192,187626,1,0,0:0:0:0:
256,192,187705,1,0,0:0:0:0:
256,192,187943,1,4,0:0:0:0:
256,192,188063,1,0,0:0:0:0:
256,192,188182,1,0,0:0:0:0:
256,192,188301,1,0,0:0:0:0:
256,192,188420,1,8,0:0:0:0:
256,192,188539,1,0,0:0:0:0:
256,192,188896,1,8,0:0:0:0:
256,192,188975,1,0,0:0:0:0:
256,192,189055,1,0,0:0:0:0:
256,192,189134,1,0,0:0:0:0:
256,192,189372,1,0,0:0:0:0:
256,192,189451,1,0,0:0:0:0:
256,192,189531,1,0,0:0:0:0:
256,192,189610,1,0,0:0:0:0:
256,192,189848,1,0,0:0:0:0:
256,192,189927,1,0,0:0:0:0:
256,192,190007,1,0,0:0:0:0:
256,192,190086,1,0,0:0:0:0:
256,192,190205,1,0,0:0:0:0:
256,192,190324,1,0,0:0:0:0:
256,192,190404,1,0,0:0:0:0:
256,192,190483,1,0,0:0:0:0:
256,192,190562,1,0,0:0:0:0:
256,192,190681,1,0,0:0:0:0:
256,192,190801,1,8,0:0:0:0:
256,192,190880,1,0,0:0:0:0:
256,192,190960,1,0,0:0:0:0:
256,192,191039,1,0,0:0:0:0:
256,192,191158,1,0,0:0:0:0:
256,192,191277,1,0,0:0:0:0:
256,192,191356,1,0,0:0:0:0:
256,192,191436,1,0,0:0:0:0:
256,192,191515,1,8,0:0:0:0:
256,192,191634,1,8,0:0:0:0:
256,192,191753,1,0,0:0:0:0:
256,192,191873,1,0,0:0:0:0:
256,192,191992,1,0,0:0:0:0:
256,192,192111,1,0,0:0:0:0:
256,192,192230,1,8,0:0:0:0:
256,192,192349,1,0,0:0:0:0:
256,192,192706,1,8,0:0:0:0:
256,192,192785,1,0,0:0:0:0:
256,192,192865,1,0,0:0:0:0:
256,192,192944,1,0,0:0:0:0:
256,192,193182,1,0,0:0:0:0:
256,192,193261,1,0,0:0:0:0:
256,192,193341,1,0,0:0:0:0:
256,192,193420,1,0,0:0:0:0:
256,192,193658,1,4,0:0:0:0:
256,192,193778,1,0,0:0:0:0:
256,192,193897,1,0,0:0:0:0:
256,192,194016,1,0,0:0:0:0:
256,192,194135,1,8,0:0:0:0:
256,192,194254,1,0,0:0:0:0:
256,192,194611,1,8,0:0:0:0:
256,192,194690,1,0,0:0:0:0:
256,192,194770,1,0,0:0:0:0:
256,192,194849,1,0,0:0:0:0:
256,192,195087,1,0,0:0:0:0:
256,192,195166,1,0,0:0:0:0:
256,192,195246,1,0,0:0:0:0:
256,192,195325,1,0,0:0:0:0:
256,192,195562,1,4,0:0:0:0:
256,192,195682,1,0,0:0:0:0:
256,192,195801,1,0,0:0:0:0:
256,192,195920,1,0,0:0:0:0:
256,192,196039,1,8,0:0:0:0:
256,192,196158,1,0,0:0:0:0:
256,192,196515,1,8,0:0:0:0:
256,192,196594,1,0,0:0:0:0:
256,192,196674,1,0,0:0:0:0:
256,192,196753,1,0,0:0:0:0:
256,192,196991,1,0,0:0:0:0:
256,192,197070,1,0,0:0:0:0:
256,192,197150,1,0,0:0:0:0:
256,192,197229,1,0,0:0:0:0:
256,192,197467,1,8,0:0:0:0:
256,192,197546,1,0,0:0:0:0:
256,192,197626,1,0,0:0:0:0:
256,192,197705,1,0,0:0:0:0:
256,192,197824,1,0,0:0:0:0:
256,192,197943,1,0,0:0:0:0:
256,192,198023,1,0,0:0:0:0:
256,192,198102,1,0,0:0:0:0:
256,192,198181,1,0,0:0:0:0:
256,192,198300,1,0,0:0:0:0:
256,192,198419,1,8,0:0:0:0:
256,192,198658,1,8,0:0:0:0:
256,192,198896,1,8,0:0:0:0:
256,192,199015,1,8,0:0:0:0:
256,192,199134,1,8,0:0:0:0:
256,192,199253,1,8,0:0:0:0:
256,192,199372,1,4,0:0:0:0:
