osu file format v14

[General]
AudioFilename: audio.mp3
AudioLeadIn: 0
PreviewTime: 11750
Countdown: 0
SampleSet: Normal
StackLeniency: 0.7
Mode: 0
LetterboxInBreaks: 0
EpilepsyWarning: 1
WidescreenStoryboard: 1

[Editor]
Bookmarks: 14185,21978,23926,26222,30628,85564,88564,104031,129999,143499,146615,155966,164148,168434
DistanceSpacing: 1.4
BeatDivisor: 4
GridSize: 4
TimelineZoom: 1.5

[Metadata]
Title:Carrion
TitleUnicode:Carrion
Artist:Parkway Drive
ArtistUnicode:Parkway Drive
Creator:DavidEd
Version:Insane
Source:
Tags:metalcore hardcore punk horizons epitaph records
BeatmapID:1095721
BeatmapSetID:514196

[Difficulty]
HPDrainRate:6
CircleSize:4
OverallDifficulty:7
ApproachRate:8
SliderMultiplier:1.5
SliderTickRate:1

[Events]
//Background and Video events
0,0,"bg.jpg",0,0
//Break Periods
2,85764,87626
2,143699,145281
//Storyboard Layer 0 (Background)
Sprite,Background,TopLeft,"bg.jpg",0,0
Sprite,Background,Centre,"bg.jpg",320,240 S,0,105415,,0.625 F,0,105415,110932,1 F,2,110932,112312,1,0
//Storyboard Layer 1 (Fail)
//Storyboard Layer 2 (Pass)
//Storyboard Layer 3 (Foreground)
//Storyboard Sound Samples

[TimingPoints]
160,389.61038961039,4,2,1,40,1,0
160,-166.666666666667,4,2,1,40,0,0
12627,-100,4,1,1,60,0,0
25097,375,4,1,1,50,1,0
27347,-100,4,3,1,60,0,0
27722,-100,4,1,1,50,0,0
28097,-100,4,1,1,55,0,0
39347,-133.333333333333,4,1,1,50,0,0
40097,-100,4,1,1,50,0,0
42347,-133.333333333333,4,1,1,50,0,0
43097,-100,4,1,1,50,0,0
45347,-133.333333333333,4,1,1,50,0,0
46097,-100,4,1,1,50,0,0
48347,-100,4,3,1,60,0,0
48722,-100,4,1,1,50,0,0
49097,-100,4,1,1,60,0,0
59972,-100,4,3,1,60,0,0
60159,-100,4,1,1,60,0,0
61097,389.61038961039,4,1,1,60,1,0
72200,-100,4,3,1,60,0,0
72590,-100,4,1,1,60,0,0
73564,375,4,1,1,50,1,0
75814,-133.333333333333,4,1,1,50,0,0
76564,-100,4,1,1,50,0,0
81814,-133.333333333333,4,1,1,50,0,0
82564,-100,4,1,1,50,0,0
84814,-100,4,3,1,60,0,0
85189,-100,4,1,1,50,0,0
91564,389.61038961039,4,1,2,60,1,0
104031,-111.111111111111,4,1,2,60,0,0
116109,-111.111111111111,4,3,1,60,0,0
116499,375,4,1,1,50,1,0
116499,-111.111111111111,4,1,1,50,0,0
126999,-100,4,1,1,50,0,0
129999,-125,4,1,1,50,0,0
135999,-111.111111111111,4,1,1,50,0,0
140499,-100,4,1,1,50,0,0
142936,-100,4,3,1,60,0,0
143124,-100,4,1,1,50,0,0
143311,-100,4,3,1,60,0,0
143499,389.61038961039,4,1,1,50,1,0
154408,-100,4,1,1,50,0,0
155576,-100,4,3,1,60,0,0
155966,-90.9090909090909,4,1,1,65,0,1
167849,-90.9090909090909,4,3,1,65,0,1
168434,-100,4,1,1,65,0,0
169992,-100,4,1,1,55,0,0
171550,-100,4,1,1,45,0,0
173109,-100,4,1,1,35,0,0
174667,-100,4,1,1,25,0,0

[Colours]
Combo1 : 255,255,0
Combo2 : 255,128,0
Combo3 : 0,255,255
Combo4 : 115,115,185

[HitObjects]
108,332,160,6,0,P|68:260|140:236,1,179.999994506836,2|0,0:0|0:0,0:0:0:0:
328,272,1523,2,0,L|320:136,1,134.999995880127,2|0,0:0|0:0,0:0:0:0:
222,57,2497,2,0,P|268:49|314:57,1,89.9999972534181,2|0,0:0|0:0,0:0:0:0:
432,144,3276,6,0,P|472:72|400:48,1,179.999994506836,2|0,0:0|0:0,0:0:0:0:
296,208,4640,2,0,L|304:304,1,89.9999972534181,2|0,0:0|0:0,0:0:0:0:
216,264,5224,1,2,0:0:0:0:
152,328,5419,1,0,0:0:0:0:
216,264,5614,1,2,0:0:0:0:
200,184,5809,1,0,0:0:0:0:
303,297,6004,1,2,0:0:0:0:
384,160,6393,6,0,P|457:189|415:256,1,179.999994506836,2|0,0:0|0:0,0:0:0:0:
249,167,7757,2,0,L|393:159,1,134.999995880127,2|0,0:0|0:0,0:0:0:0:
456,56,8731,2,0,P|416:72|360:72,1,89.9999972534181,2|0,0:0|0:0,0:0:0:0:
208,48,9510,6,0,P|165:114|238:144,1,179.999994506836,2|0,0:0|0:0,0:0:0:0:
384,264,10874,2,0,L|376:160,1,89.9999972534181,2|0,0:0|0:0,0:0:0:0:
316,104,11458,1,2,0:0:0:0:
377,174,11653,1,0,0:0:0:0:
256,264,11848,1,0,0:0:0:0:
256,264,12627,6,0,B|200:264|160:304|160:304|112:280,1,150,6|0,0:0|0:0,0:0:0:0:
40,236,13211,1,0,0:0:0:0:
124,188,13406,2,0,P|140:148|140:108,1,75,8|0,0:0|0:0,0:0:0:0:
124,28,13796,1,0,0:0:0:0:
56,88,13991,1,2,0:0:0:0:
228,144,14185,6,0,P|268:144|308:128,1,75
388,76,14575,2,0,P|388:116|404:160,1,75
464,272,14965,1,8,0:0:0:0:
384,236,15160,1,0,0:0:0:0:
360,320,15354,2,0,P|324:340|276:340,1,75
168,248,15744,6,0,P|244:248|308:196,1,150,6|0,0:0|0:0,0:0:0:0:
344,128,16328,1,0,0:0:0:0:
252,132,16523,2,0,L|168:100,1,75,8|0,0:0|0:0,0:0:0:0:
96,56,16913,2,0,P|96:100|80:144,1,75,0|2,0:0|0:0,0:0:0:0:
36,256,17302,5,0,0:0:0:0:
152,188,17497,1,0,0:0:0:0:
16,180,17692,1,0,0:0:0:0:
120,268,17887,1,0,0:0:0:0:
240,200,18082,2,0,P|312:200|376:248,1,150,8|0,0:0|0:0,0:0:0:0:
128,344,18861,6,0,L|112:176,1,150,6|0,0:0|0:0,0:0:0:0:
64,120,19445,1,0,0:0:0:0:
136,64,19640,2,0,P|176:80|224:80,1,75,8|0,0:0|0:0,0:0:0:0:
296,64,20030,1,0,0:0:0:0:
264,152,20224,1,2,0:0:0:0:
360,232,20419,6,0,L|440:224,1,75
408,320,20809,2,0,L|333:327,1,75
192,336,21198,1,8,0:0:0:0:
256,264,21393,1,0,0:0:0:0:
192,200,21588,2,0,P|176:168|176:120,1,75
280,56,21978,6,0,L|376:48,2,75,6|0|0,0:0|0:0|0:0,0:0:0:0:
184,40,22562,2,0,L|109:46,1,75,0|8,0:0|0:0,0:0:0:0:
40,112,22952,1,0,0:0:0:0:
104,184,23147,2,0,P|120:224|120:264,1,75,0|2,0:0|0:0,0:0:0:0:
216,336,23536,6,0,P|216:304|233:264,1,75
312,136,23926,2,0,P|312:176|336:216,1,75
440,272,24315,1,8,0:0:0:0:
352,296,24510,1,0,0:0:0:0:
420,184,24705,2,0,P|420:144|396:104,1,75
288,48,25097,6,0,L|192:56,2,75,6|0|0,0:0|0:0|0:0,0:0:0:0:
264,160,25659,2,0,L|272:256,2,75,2|0|0,0:0|0:0|0:0,0:0:0:0:
136,120,26222,2,0,L|144:216,1,75,2|0,0:0|0:0,0:0:0:0:
76,304,26597,5,0,0:0:0:0:
76,304,26784,2,0,P|148:280|220:304,1,150
320,344,27347,1,8,0:0:0:0:
338,346,27440,1,8,0:0:0:0:
357,344,27534,1,4,0:0:0:0:
374,338,27628,1,4,0:0:0:0:
392,328,27722,2,0,L|400:232,1,75,8|0,0:0|0:0,0:0:0:0:
448,128,28097,6,0,P|408:128|368:112,1,75,6|0,0:0|0:0,0:0:0:0:
296,48,28472,1,8,0:0:0:0:
272,152,28659,2,0,L|264:248,1,75,2|0,0:0|0:0,0:0:0:0:
176,280,29034,1,2,0:0:0:0:
264,336,29222,2,0,P|299:323|336:324,1,75,8|0,0:0|0:0,0:0:0:0:
440,240,29597,6,0,P|402:241|367:228,1,75,0|2,0:0|0:0,0:0:0:0:
296,152,29972,1,8,0:0:0:0:
388,96,30159,2,0,P|426:95|461:108,1,75,2|0,0:0|0:0,0:0:0:0:
296,152,30534,1,2,0:0:0:0:
208,92,30722,2,0,L|177:49,3,37.5,8|0|0|0,0:0|0:0|0:0|0:0,0:0:0:0:
161,33,31097,6,0,P|92:60|60:128,1,150,2|8,0:0|0:0,0:0:0:0:
132,208,31659,1,2,0:0:0:0:
60,292,31847,1,0,0:0:0:0:
60,292,32034,1,2,0:0:0:0:
160,320,32222,1,8,0:0:0:0:
160,320,32409,1,0,0:0:0:0:
264,232,32597,6,0,P|304:232|344:248,2,75,0|2|8,0:0|0:0|0:0,0:0:0:0:
208,144,33159,2,0,P|233:113|247:72,1,75,2|0,0:0|0:0,0:0:0:0:
340,36,33534,1,2,0:0:0:0:
412,112,33722,2,0,L|455:129,3,37.5,8|0|0|0,0:0|0:0|0:0|0:0,0:0:0:0:
476,148,34097,6,0,P|476:220|428:284,1,150,2|8,0:0|0:0,0:0:0:0:
336,256,34659,2,0,L|328:344,1,75,2|0,0:0|0:0,0:0:0:0:
232,296,35034,1,2,0:0:0:0:
256,192,35222,2,0,L|248:104,1,75,8|0,0:0|0:0,0:0:0:0:
136,40,35597,5,0,0:0:0:0:
112,144,35785,2,0,L|120:232,1,75,2|8,0:0|0:0,0:0:0:0:
96,320,36159,1,2,0:0:0:0:
192,280,36347,1,8,0:0:0:0:
210,278,36440,1,8,0:0:0:0:
229,279,36534,1,2,0:0:0:0:
247,284,36628,1,2,0:0:0:0:
264,292,36722,2,0,P|304:292|352:268,1,75,8|0,0:0|0:0,0:0:0:0:
448,208,37097,5,6,0:0:0:0:
360,200,37284,1,0,0:0:0:0:
360,200,37472,1,2,0:0:0:0:
408,128,37659,2,0,P|408:96|392:56,1,75,2|8,0:0|0:0,0:0:0:0:
304,32,38034,1,2,0:0:0:0:
208,128,38222,1,2,0:0:0:0:
208,128,38784,5,2,0:0:0:0:
120,96,38972,1,2,0:0:0:0:
120,96,39065,1,2,0:0:0:0:
120,96,39159,1,2,0:0:0:0:
56,216,39347,2,0,P|112:216|168:256,1,112.500004291535,8|0,0:0|0:0,0:0:0:0:
416,320,40097,6,0,L|408:240,1,75,6|0,0:0|0:0,0:0:0:0:
400,152,40472,1,2,0:0:0:0:
328,208,40659,2,0,P|296:224|240:224,1,75,2|8,0:0|0:0,0:0:0:0:
168,208,41034,1,2,0:0:0:0:
208,80,41222,1,2,0:0:0:0:
208,80,41784,5,2,0:0:0:0:
280,136,41972,1,2,0:0:0:0:
280,136,42065,1,2,0:0:0:0:
280,136,42159,1,2,0:0:0:0:
152,176,42347,2,0,L|160:304,1,112.500004291535,8|0,0:0|0:0,0:0:0:0:
424,328,43097,6,0,L|416:232,1,75,6|0,0:0|0:0,0:0:0:0:
408,160,43472,1,2,0:0:0:0:
336,216,43659,2,0,P|296:216|256:200,1,75,2|8,0:0|0:0,0:0:0:0:
208,136,44034,1,2,0:0:0:0:
320,56,44222,1,2,0:0:0:0:
320,56,44784,5,2,0:0:0:0:
376,128,44972,1,2,0:0:0:0:
376,128,45065,1,2,0:0:0:0:
376,128,45159,1,2,0:0:0:0:
263,204,45347,2,0,L|128:216,1,112.500004291535,8|0,0:0|0:0,0:0:0:0:
400,320,46097,6,0,P|400:280|384:232,1,75,6|0,0:0|0:0,0:0:0:0:
344,168,46472,1,2,0:0:0:0:
392,96,46659,2,0,P|432:96|472:112,1,75,2|8,0:0|0:0,0:0:0:0:
488,192,47034,1,2,0:0:0:0:
344,168,47222,2,0,P|304:168|264:184,1,75,2|0,0:0|0:0,0:0:0:0:
160,264,47597,5,8,0:0:0:0:
160,264,47690,1,8,0:0:0:0:
160,264,47784,2,0,L|152:208,1,37.5,2|2,0:0|0:0,0:0:0:0:
88,184,47972,1,8,0:0:0:0:
88,184,48065,1,8,0:0:0:0:
88,184,48159,2,0,L|80:128,1,37.5,2|2,0:0|0:0,0:0:0:0:
56,72,48347,5,8,0:0:0:0:
74,68,48440,1,8,0:0:0:0:
93,69,48534,1,4,0:0:0:0:
111,74,48628,1,4,0:0:0:0:
127,82,48722,2,0,P|175:82|215:58,1,75,8|0,0:0|0:0,0:0:0:0:
304,160,49097,6,0,P|256:160|216:184,1,75,6|0,0:0|0:0,0:0:0:0:
160,248,49472,1,8,0:0:0:0:
264,272,49659,2,0,L|272:360,1,75,2|0,0:0|0:0,0:0:0:0:
368,304,50034,1,2,0:0:0:0:
408,208,50222,2,0,P|448:192|488:192,1,75,8|0,0:0|0:0,0:0:0:0:
448,56,50597,6,0,P|408:72|368:72,1,75,0|2,0:0|0:0,0:0:0:0:
272,48,50972,1,8,0:0:0:0:
288,184,51159,2,0,P|248:200|208:200,1,75,2|0,0:0|0:0,0:0:0:0:
152,120,51534,1,2,0:0:0:0:
76,193,51722,2,0,L|80:248,3,37.5,8|0|0|0,0:0|0:0|0:0|0:0,0:0:0:0:
112,248,52097,6,0,L|120:336,1,75,2|0,0:0|0:0,0:0:0:0:
216,280,52472,1,8,0:0:0:0:
256,184,52659,2,0,P|296:168|336:168,1,75,2|0,0:0|0:0,0:0:0:0:
416,224,53034,1,2,0:0:0:0:
416,120,53222,2,0,L|408:32,1,75,8|0,0:0|0:0,0:0:0:0:
312,80,53597,5,0,0:0:0:0:
208,48,53784,2,0,L|201:122,1,75,2|8,0:0|0:0,0:0:0:0:
152,216,54159,2,0,P|200:216|240:240,1,75,2|0,0:0|0:0,0:0:0:0:
307,291,54534,1,2,0:0:0:0:
209,332,54722,2,0,L|160:312,3,37.5,8|0|0|0,0:0|0:0|0:0|0:0,0:0:0:0:
136,328,55097,6,0,L|48:296,1,75,2|0,0:0|0:0,0:0:0:0:
39,199,55472,2,0,P|39:162|51:127,1,75,8|2,0:0|0:0,0:0:0:0:
120,48,55847,1,0,0:0:0:0:
148,148,56034,1,2,0:0:0:0:
220,72,56222,1,8,0:0:0:0:
248,208,56409,6,0,L|264:304,1,75
360,312,56784,2,0,L|347:238,1,75,2|8,0:0|0:0,0:0:0:0:
392,144,57159,2,0,P|432:144|472:120,1,75,2|0,0:0|0:0,0:0:0:0:
408,40,57534,1,2,0:0:0:0:
312,80,57722,1,8,0:0:0:0:
293,82,57815,1,0,0:0:0:0:
274,80,57909,1,0,0:0:0:0:
257,74,58003,1,0,0:0:0:0:
240,64,58097,6,0,P|200:56|144:64,1,75,12|2,0:0|0:0,0:0:0:0:
74,110,58472,1,8,0:0:0:0:
74,110,58659,2,0,B|78:199,1,75,8|2,0:0|0:0,0:0:0:0:
136,271,59034,1,8,0:0:0:0:
136,271,59222,2,0,P|173:269|209:276,1,75,8|2,0:0|0:0,0:0:0:0:
296,344,59597,5,8,0:0:0:0:
296,344,59690,1,8,0:0:0:0:
296,344,59784,2,0,L|352:336,1,37.5,2|2,0:0|0:0,0:0:0:0:
392,288,59972,1,8,0:0:0:0:
392,288,60065,1,8,0:0:0:0:
392,288,60159,2,0,L|448:296,1,37.5,2|2,0:0|0:0,0:0:0:0:
488,232,60347,5,8,0:0:0:0:
489,213,60440,1,8,0:0:0:0:
488,194,60534,1,2,0:0:0:0:
483,176,60628,1,2,0:0:0:0:
472,160,60722,2,0,L|384:152,1,75,8|0,0:0|0:0,0:0:0:0:
280,96,61097,6,0,P|264:168|200:216,1,150,6|0,0:0|0:0,0:0:0:0:
112,168,61681,1,0,0:0:0:0:
56,256,61876,2,0,P|96:256|152:280,1,75,8|0,0:0|0:0,0:0:0:0:
216,328,62265,1,0,0:0:0:0:
288,248,62460,1,2,0:0:0:0:
216,136,62655,6,0,P|216:104|240:64,1,75,0|2,0:0|0:0,0:0:0:0:
320,128,63045,2,0,P|360:128|400:112,1,75,2|0,0:0|0:0,0:0:0:0:
456,200,63434,1,8,0:0:0:0:
384,280,63629,1,0,0:0:0:0:
288,248,63824,2,0,P|252:235|215:236,1,75
88,288,64213,6,0,L|80:128,1,150,6|0,0:0|0:0,0:0:0:0:
72,32,64798,1,0,0:0:0:0:
168,72,64993,2,0,P|216:72|256:56,1,75,8|0,0:0|0:0,0:0:0:0:
344,40,65382,2,0,L|352:128,1,75,0|2,0:0|0:0,0:0:0:0:
336,236,65772,5,0,0:0:0:0:
420,148,65967,1,2,0:0:0:0:
300,172,66161,1,2,0:0:0:0:
412,220,66356,1,0,0:0:0:0:
344,320,66551,2,0,P|264:320|192:272,1,150,8|0,0:0|0:0,0:0:0:0:
72,56,67330,6,0,L|80:224,1,150,6|0,0:0|0:0,0:0:0:0:
88,312,67915,1,0,0:0:0:0:
176,256,68109,2,0,L|168:160,1,75,8|0,0:0|0:0,0:0:0:0:
200,80,68499,1,0,0:0:0:0:
280,152,68694,1,2,0:0:0:0:
368,48,68889,6,0,L|374:122,1,75,0|2,0:0|0:0,0:0:0:0:
440,200,69278,2,0,P|400:200|360:224,1,75,2|0,0:0|0:0,0:0:0:0:
264,296,69668,1,8,0:0:0:0:
184,232,69863,1,0,0:0:0:0:
144,328,70058,2,0,P|104:328|64:304,1,75
64,176,70447,6,0,L|48:88,2,75,6|0|0,0:0|0:0|0:0,0:0:0:0:
152,120,71032,2,0,L|240:104,1,75,0|8,0:0|0:0,0:0:0:0:
328,84,71421,1,0,0:0:0:0:
296,184,71616,1,0,0:0:0:0:
400,160,71811,1,2,0:0:0:0:
368,288,72006,5,8,0:0:0:0:
264,312,72200,2,0,L|212:324,2,37.5,8|4|0,0:0|0:0|0:0,0:0:0:0:
296,208,72590,1,2,0:0:0:0:
168,168,72785,2,0,P|160:205|136:239,2,75,8|2|8,0:0|0:0|0:0,0:0:0:0:
152,64,73369,1,0,0:0:0:0:
280,112,73564,6,0,B|344:112|384:80|384:80|424:112,1,150,6|2,0:0|0:0,0:0:0:0:
472,176,74126,2,0,P|456:216|456:256,1,75,2|8,0:0|0:0,0:0:0:0:
472,336,74501,1,2,0:0:0:0:
368,256,74689,1,2,0:0:0:0:
368,256,75251,1,2,0:0:0:0:
296,312,75439,1,2,0:0:0:0:
296,312,75532,1,2,0:0:0:0:
296,312,75626,1,2,0:0:0:0:
200,216,75814,6,0,L|208:336,1,112.5,8|0,0:0|0:0,0:0:0:0:
384,128,76564,1,6,0:0:0:0:
312,184,76751,1,0,0:0:0:0:
312,184,76939,1,2,0:0:0:0:
296,96,77126,2,0,P|256:72|208:72,1,75,2|8,0:0|0:0,0:0:0:0:
144,96,77501,1,2,0:0:0:0:
208,216,77689,2,0,L|216:312,1,75,2|0,0:0|0:0,0:0:0:0:
88,336,78064,6,0,L|81:261,1,75,0|2,0:0|0:0,0:0:0:0:
72,168,78439,1,2,0:0:0:0:
72,168,78532,1,2,0:0:0:0:
72,168,78626,1,2,0:0:0:0:
208,216,78814,6,0,P|280:216|344:160,1,150,8|0,0:0|0:0,0:0:0:0:
96,100,79564,2,0,P|72:140|72:172,1,75,6|0,0:0|0:0,0:0:0:0:
40,256,79939,1,2,0:0:0:0:
128,240,80126,2,0,L|136:324,1,75,2|8,0:0|0:0,0:0:0:0:
224,304,80501,1,2,0:0:0:0:
208,168,80689,1,2,0:0:0:0:
208,168,81251,5,2,0:0:0:0:
296,152,81439,1,2,0:0:0:0:
296,152,81532,1,2,0:0:0:0:
296,152,81626,1,2,0:0:0:0:
184,72,81814,6,0,L|56:88,1,112.500004291535,8|0,0:0|0:0,0:0:0:0:
192,328,82564,2,0,L|184:240,1,75,6|0,0:0|0:0,0:0:0:0:
176,152,82939,1,2,0:0:0:0:
272,200,83126,2,0,P|312:200|360:176,1,75,2|8,0:0|0:0,0:0:0:0:
408,104,83501,1,2,0:0:0:0:
464,232,83689,2,0,L|456:320,1,75,2|0,0:0|0:0,0:0:0:0:
328,336,84064,5,8,0:0:0:0:
328,336,84157,1,8,0:0:0:0:
328,336,84251,2,0,L|304:288,1,37.5,2|2,0:0|0:0,0:0:0:0:
232,296,84439,1,8,0:0:0:0:
232,296,84532,1,8,0:0:0:0:
232,296,84626,2,0,L|208:248,1,37.5,2|2,0:0|0:0,0:0:0:0:
216,184,84814,5,8,0:0:0:0:
197,184,84907,1,8,0:0:0:0:
179,190,85001,1,4,0:0:0:0:
163,200,85095,1,4,0:0:0:0:
152,216,85189,2,0,L|64:232,1,75,8|0,0:0|0:0,0:0:0:0:
88,96,85564,5,6,0:0:0:0:
88,96,88376,5,2,0:0:0:0:
88,96,88470,1,2,0:0:0:0:
88,96,88564,2,0,L|176:96,1,75
248,72,88939,1,0,0:0:0:0:
248,72,89126,1,8,0:0:0:0:
328,112,89314,1,8,0:0:0:0:
328,112,89501,1,8,0:0:0:0:
360,192,89689,1,8,0:0:0:0:
360,192,89876,1,8,0:0:0:0:
435,305,90064,6,0,P|400:318|363:320,1,75,8|8,0:0|0:0,0:0:0:0:
296,256,90439,2,0,P|261:242|211:243,1,75,8|8,0:0|0:0,0:0:0:0:
104,296,90814,1,2,0:0:0:0:
56,224,91001,1,8,0:0:0:0:
57,205,91094,1,8,0:0:0:0:
58,186,91188,1,8,0:0:0:0:
59,167,91282,1,8,0:0:0:0:
60,149,91376,1,8,0:0:0:0:
62,130,91469,1,8,0:0:0:0:
63,111,91564,6,0,P|120:64|200:64,1,150,6|8,0:0|0:0,0:0:0:0:
288,104,92148,1,2,0:0:0:0:
232,192,92343,2,0,P|232:232|256:280,1,75,2|2,0:0|0:0,0:0:0:0:
336,312,92732,1,8,0:0:0:0:
448,240,92927,6,0,P|448:160|400:96,1,150,2|2,0:0|0:0,0:0:0:0:
312,64,93512,2,0,L|304:152,1,75,8|0,0:0|0:0,0:0:0:0:
208,176,93901,2,0,P|128:176|64:224,1,150,2|8,0:0|0:0,0:0:0:0:
320,328,94680,6,0,P|400:328|464:280,1,150,2|8,0:0|0:0,0:0:0:0:
496,192,95265,1,0,0:0:0:0:
392,208,95460,1,2,0:0:0:0:
392,208,95654,1,2,0:0:0:0:
432,112,95849,1,8,0:0:0:0:
312,48,96044,6,0,P|240:48|176:96,1,150,2|2,0:0|0:0,0:0:0:0:
120,176,96628,2,0,L|32:184,1,75,8|0,0:0|0:0,0:0:0:0:
96,280,97018,2,0,L|170:273,1,75,2|0,0:0|0:0,0:0:0:0:
248,200,97408,1,8,0:0:0:0:
304,288,97602,1,0,0:0:0:0:
416,216,97797,6,0,P|416:144|360:72,1,150,6|8,0:0|0:0,0:0:0:0:
280,40,98382,1,0,0:0:0:0:
216,120,98576,2,0,P|184:136|136:136,1,75,2|2,0:0|0:0,0:0:0:0:
48,96,98966,1,8,0:0:0:0:
48,232,99161,6,0,P|120:232|200:288,1,150,2|2,0:0|0:0,0:0:0:0:
272,328,99745,2,0,L|280:232,1,75,8|0,0:0|0:0,0:0:0:0:
328,160,100135,2,0,P|400:160|480:104,1,150,2|8,0:0|0:0,0:0:0:0:
208,56,100914,6,0,B|200:152|200:152|224:216,1,150,2|8,0:0|0:0,0:0:0:0:
272,296,101499,1,0,0:0:0:0:
168,296,101693,2,0,P|128:296|88:312,1,75,2|2,0:0|0:0,0:0:0:0:
16,240,102083,1,8,0:0:0:0:
71,119,102278,6,0,P|139:140|224:119,1,150,2|8,0:0|0:0,0:0:0:0:
273,192,102862,2,0,L|283:296,1,75,8|2,0:0|0:0,0:0:0:0:
239,347,103252,1,8,0:0:0:0:
362,297,103447,1,2,0:0:0:0:
362,297,103544,1,2,0:0:0:0:
362,297,103641,2,0,L|354:193,1,75,8|0,0:0|0:0,0:0:0:0:
304,88,104031,6,0,P|360:120|432:120,1,134.999995880127,6|0,0:0|0:0,0:0:0:0:
472,200,104615,1,0,0:0:0:0:
408,264,104810,2,0,L|416:352,2,67.4999979400635,8|0|0,0:0|0:0|0:0,0:0:0:0:
288,200,105395,6,0,B|293:293|293:293|280:336,1,134.999995880127,6|8,0:0|0:0,0:0:0:0:
200,288,105979,2,0,L|104:296,1,67.4999979400635,2|0,0:0|0:0,0:0:0:0:
64,176,106369,1,8,0:0:0:0:
48,312,106564,1,2,0:0:0:0:
64,176,106758,2,0,L|72:104,1,67.4999979400635,8|2,0:0|0:0,0:0:0:0:
192,48,107148,6,0,P|264:48|320:88,1,134.999995880127,6|0,0:0|0:0,0:0:0:0:
352,168,107732,1,0,0:0:0:0:
440,136,107927,2,0,L|433:68,2,67.4999979400635,8|0|0,0:0|0:0|0:0,0:0:0:0:
456,272,108512,6,0,P|392:272|320:320,1,134.999995880127,6|8,0:0|0:0,0:0:0:0:
240,336,109096,2,0,L|232:256,1,67.4999979400635,2|0,0:0|0:0,0:0:0:0:
272,136,109486,1,8,0:0:0:0:
144,168,109680,1,2,0:0:0:0:
272,136,109875,2,0,L|368:112,1,67.4999979400635,8|2,0:0|0:0,0:0:0:0:
456,184,110265,6,0,B|312:224,1,134.999995880127,6|0,0:0|0:0,0:0:0:0:
232,248,110849,1,0,0:0:0:0:
296,320,111044,2,0,L|368:320,2,67.4999979400635,8|0|0,0:0|0:0|0:0,0:0:0:0:
160,328,111628,6,0,P|96:336|48:288,1,134.999995880127,6|8,0:0|0:0,0:0:0:0:
56,192,112213,2,0,L|136:184,1,67.4999979400635,2|0,0:0|0:0,0:0:0:0:
240,120,112602,1,8,0:0:0:0:
232,256,112797,1,2,0:0:0:0:
240,120,112992,2,0,L|244:48,1,67.4999979400635,8|2,0:0|0:0,0:0:0:0:
368,104,113382,6,0,P|408:160|408:240,1,134.999995880127,6|0,0:0|0:0,0:0:0:0:
344,288,113966,1,0,0:0:0:0:
416,344,114161,2,0,L|496:344,2,67.4999979400635,8|0|0,0:0|0:0|0:0,0:0:0:0:
312,264,114745,6,0,B|223:264|223:264|176:280,1,134.999995880127,6|8,0:0|0:0,0:0:0:0:
88,312,115330,1,8,0:0:0:0:
104,216,115525,1,2,0:0:0:0:
216,176,115719,1,8,0:0:0:0:
136,128,115914,1,2,0:0:0:0:
136,128,116012,1,2,0:0:0:0:
136,128,116109,2,0,L|120:48,1,67.4999979400635,4|0,0:0|0:0,0:0:0:0:
264,80,116499,6,0,P|336:80|392:112,1,134.999995880127,6|0,0:0|0:0,0:0:0:0:
456,176,117061,1,0,0:0:0:0:
392,240,117249,2,0,L|400:320,1,67.4999979400635,8|0,0:0|0:0,0:0:0:0:
280,304,117624,2,0,L|288:376,2,44.999998626709
264,264,117999,6,0,P|192:264|136:232,1,134.999995880127,2|0,0:0|0:0,0:0:0:0:
72,168,118561,1,0,0:0:0:0:
136,96,118749,2,0,L|224:88,1,67.4999979400635,8|0,0:0|0:0,0:0:0:0:
320,72,119124,2,0,L|328:8,2,44.999998626709
312,112,119499,6,0,B|306:148|306:148|320:256,1,134.999995880127,2|0,0:0|0:0,0:0:0:0:
336,336,120061,1,0,0:0:0:0:
408,272,120249,2,0,L|400:184,1,67.4999979400635,8|0,0:0|0:0,0:0:0:0:
432,88,120624,2,0,L|488:80,2,44.999998626709
392,104,120999,6,0,P|328:104|256:72,1,134.999995880127,2|0,0:0|0:0,0:0:0:0:
176,48,121561,1,0,0:0:0:0:
152,136,121749,2,0,L|160:216,1,67.4999979400635,8|0,0:0|0:0,0:0:0:0:
104,312,122124,2,0,L|40:320,2,44.999998626709
144,296,122499,6,0,P|205:269|272:269,1,134.999995880127,2|0,0:0|0:0,0:0:0:0:
360,304,123061,1,0,0:0:0:0:
416,224,123249,2,0,P|415:191|400:144,1,67.4999979400635,8|0,0:0|0:0,0:0:0:0:
312,80,123624,2,0,L|320:24,2,44.999998626709
288,120,123999,6,0,P|220:120|159:93,1,134.999995880127,2|0,0:0|0:0,0:0:0:0:
64,72,124561,1,0,0:0:0:0:
40,168,124749,2,0,P|80:168|120:184,1,67.4999979400635,8|0,0:0|0:0,0:0:0:0:
160,288,125124,2,0,L|144:360,2,44.999998626709
184,248,125499,6,0,P|245:220|312:221,1,134.999995880127,2|0,0:0|0:0,0:0:0:0:
400,248,126061,1,0,0:0:0:0:
376,160,126249,2,0,L|360:88,1,67.4999979400635,8|0,0:0|0:0,0:0:0:0:
240,80,126624,2,0,L|232:24,2,44.999998626709
184,152,126999,5,6,0:0:0:0:
184,152,127186,2,0,P|144:168|104:168,1,75,2|8,0:0|0:0,0:0:0:0:
56,288,127561,2,0,P|96:288|136:304,1,75,2|0,0:0|0:0,0:0:0:0:
256,336,127936,2,0,P|296:336|336:320,1,75,2|8,0:0|0:0,0:0:0:0:
432,240,128311,6,0,P|416:176|344:200,1,150,2|2,0:0|0:0,0:0:0:0:
256,240,128874,1,8,0:0:0:0:
156,152,129061,2,0,P|174:87|240:104,1,150,2|2,0:0|0:0,0:0:0:0:
256,240,129624,2,0,L|272:312,2,50,8|0|0,0:0|0:0|0:0,0:0:0:0:
160,240,129999,6,0,P|104:240|48:200,1,120,6|0,0:0|0:0,0:0:0:0:
32,120,130561,1,0,0:0:0:0:
32,120,130749,2,0,L|104:112,1,60
192,64,131124,2,0,L|184:8,2,40
200,104,131499,6,0,P|248:136|320:136,1,120,8|0,0:0|0:0,0:0:0:0:
392,128,132061,1,0,0:0:0:0:
392,128,132249,2,0,L|400:208,1,60
448,280,132624,2,0,L|488:296,2,40
408,272,132999,6,0,P|352:272|288:312,1,120,2|0,0:0|0:0,0:0:0:0:
216,336,133561,1,0,0:0:0:0:
216,336,133749,2,0,L|210:276,1,60
144,192,134124,2,0,L|80:200,2,40
168,160,134499,6,0,L|288:144,1,120,8|0,0:0|0:0,0:0:0:0:
328,72,135061,1,0,0:0:0:0:
328,72,135249,2,0,L|392:64,1,60
472,148,135624,2,0,L|528:140,2,40,2|0|0,0:0|0:0|0:0,0:0:0:0:
436,176,135999,6,0,P|396:224|396:312,1,134.999995880127,6|0,0:0|0:0,0:0:0:0:
320,356,136561,1,0,0:0:0:0:
248,296,136749,2,0,P|215:287|181:286,1,67.4999979400635,8|0,0:0|0:0,0:0:0:0:
88,288,137124,1,2,0:0:0:0:
216,204,137311,1,2,0:0:0:0:
96,160,137499,6,0,P|99:94|148:49,1,134.999995880127,2|0,0:0|0:0,0:0:0:0:
240,24,138061,1,0,0:0:0:0:
288,104,138249,2,0,P|320:120|360:120,1,67.4999979400635,8|0,0:0|0:0,0:0:0:0:
440,92,138624,1,2,0:0:0:0:
480,220,138811,1,2,0:0:0:0:
360,216,138999,6,0,P|296:216|232:256,1,134.999995880127,2|0,0:0|0:0,0:0:0:0:
168,312,139561,1,0,0:0:0:0:
80,224,139749,1,8,0:0:0:0:
56,344,139936,1,2,0:0:0:0:
80,224,140124,2,0,L|96:136,1,67.4999979400635,8|2,0:0|0:0,0:0:0:0:
192,64,140499,5,12,0:0:0:0:
192,64,140686,2,0,L|208:152,1,75,8|2,0:0|0:0,0:0:0:0:
208,272,141061,2,0,P|248:256|304:256,1,75,8|2,0:0|0:0,0:0:0:0:
392,328,141436,2,0,L|378:254,1,75,8|2,0:0|0:0,0:0:0:0:
320,136,141811,6,0,P|388:136|448:72,1,150,8|8,0:0|0:0,0:0:0:0:
352,40,142374,1,8,0:0:0:0:
248,56,142561,1,2,0:0:0:0:
200,184,142749,1,8,0:0:0:0:
185,195,142842,1,8,0:0:0:0:
169,204,142936,1,8,0:0:0:0:
151,210,143030,1,8,0:0:0:0:
132,212,143124,2,0,L|80:208,3,37.5,8|8|4|4,0:0|0:0|0:0|0:0,0:0:0:0:
60,204,143499,5,6,0:0:0:0:
60,204,146031,5,2,0:0:0:0:
48,104,146226,2,0,L|152:96,1,75,8|0,0:0|0:0,0:0:0:0:
264,48,146615,6,0,P|248:120|288:192,1,150,6|0,0:0|0:0,0:0:0:0:
352,240,147200,1,2,0:0:0:0:
400,168,147395,2,0,P|440:152|480:152,1,75,8|0,0:0|0:0,0:0:0:0:
456,240,147784,2,0,L|472:336,1,75,0|2,0:0|0:0,0:0:0:0:
352,352,148174,5,0,0:0:0:0:
311,238,148369,1,2,0:0:0:0:
275,353,148563,1,2,0:0:0:0:
370,280,148758,1,0,0:0:0:0:
250,284,148953,2,0,P|208:284|164:300,1,75,8|0,0:0|0:0,0:0:0:0:
96,332,149343,2,0,L|88:236,1,75,2|0,0:0|0:0,0:0:0:0:
48,112,149732,6,0,P|96:120|200:96,1,150,6|0,0:0|0:0,0:0:0:0:
272,48,150317,1,2,0:0:0:0:
328,120,150511,2,0,L|344:208,1,75,8|0,0:0|0:0,0:0:0:0:
272,256,150901,1,0,0:0:0:0:
360,288,151096,1,2,0:0:0:0:
424,152,151291,6,0,L|440:240,1,75,0|2,0:0|0:0,0:0:0:0:
360,288,151680,2,0,P|336:304|304:352,1,75,2|0,0:0|0:0,0:0:0:0:
168,280,152070,1,8,0:0:0:0:
216,208,152265,1,0,0:0:0:0:
136,160,152460,2,0,P|120:120|120:80,1,75
264,40,152849,2,0,L|352:32,2,75,6|0|0,0:0|0:0|0:0,0:0:0:0:
240,128,153434,6,0,L|328:120,1,75,2|8,0:0|0:0,0:0:0:0:
408,112,153823,1,0,0:0:0:0:
368,192,154018,1,0,0:0:0:0:
424,264,154213,1,2,0:0:0:0:
296,336,154408,5,6,0:0:0:0:
216,288,154602,1,8,0:0:0:0:
213,269,154699,1,8,0:0:0:0:
210,250,154796,1,8,0:0:0:0:
208,232,154894,1,8,0:0:0:0:
205,213,154991,1,8,0:0:0:0:
202,195,155089,1,8,0:0:0:0:
200,176,155187,6,0,P|164:176|128:160,1,75,6|8,0:0|0:0,0:0:0:0:
184,88,155576,1,8,0:0:0:0:
202,86,155673,1,8,0:0:0:0:
221,88,155770,1,4,0:0:0:0:
238,94,155868,1,4,0:0:0:0:
255,104,155966,6,0,P|291:104|336:80,1,82.5000025177003,6|2,0:0|0:0,0:0:0:0:
432,64,156356,1,2,0:0:0:0:
422,82,156453,1,2,0:0:0:0:
416,101,156550,1,2,0:0:0:0:
413,122,156648,1,2,0:0:0:0:
415,142,156745,2,0,P|431:182|431:226,1,82.5000025177003,10|2,0:0|0:0,0:0:0:0:
336,200,157135,2,0,P|300:200|244:228,1,82.5000025177003,2|2,0:0|0:0,0:0:0:0:
132,296,157524,6,0,L|124:208,1,82.5000025177003,2|2,0:0|0:0,0:0:0:0:
72,128,157914,1,2,0:0:0:0:
92,131,158011,1,2,0:0:0:0:
112,129,158108,1,2,0:0:0:0:
132,123,158206,1,2,0:0:0:0:
150,113,158304,2,0,P|187:96|228:98,1,82.5000025177003,10|2,0:0|0:0,0:0:0:0:
312,152,158693,2,0,L|319:234,1,82.5000025177003,2|2,0:0|0:0,0:0:0:0:
424,336,159083,6,0,P|424:296|440:248,1,82.5000025177003,2|2,0:0|0:0,0:0:0:0:
472,160,159473,1,2,0:0:0:0:
474,139,159570,1,2,0:0:0:0:
471,119,159667,1,2,0:0:0:0:
464,100,159765,1,2,0:0:0:0:
451,83,159862,2,0,L|352:72,1,82.5000025177003,8|2,0:0|0:0,0:0:0:0:
280,112,160252,2,0,P|248:128|184:128,1,82.5000025177003,2|2,0:0|0:0,0:0:0:0:
80,48,160641,6,0,P|80:88|64:136,1,82.5000025177003,2|2,0:0|0:0,0:0:0:0:
32,224,161031,1,2,0:0:0:0:
30,245,161128,1,2,0:0:0:0:
33,265,161225,1,2,0:0:0:0:
40,284,161323,1,2,0:0:0:0:
53,301,161420,2,0,L|152:312,1,82.5000025177003,10|2,0:0|0:0,0:0:0:0:
224,272,161810,2,0,P|256:256|320:256,1,82.5000025177003,2|2,0:0|0:0,0:0:0:0:
424,168,162200,6,0,P|383:165|345:148,1,82.5000025177003,6|2,0:0|0:0,0:0:0:0:
264,88,162589,1,2,0:0:0:0:
243,87,162686,1,2,0:0:0:0:
223,90,162783,1,2,0:0:0:0:
203,97,162881,1,2,0:0:0:0:
185,107,162979,2,0,P|147:123|106:126,1,82.5000025177003,10|2,0:0|0:0,0:0:0:0:
48,208,163369,2,0,P|88:210|126:227,1,82.5000025177003,2|2,0:0|0:0,0:0:0:0:
248,312,163758,6,0,L|256:224,1,82.5000025177003,2|2,0:0|0:0,0:0:0:0:
328,160,164148,1,2,0:0:0:0:
349,161,164245,1,2,0:0:0:0:
369,158,164342,1,2,0:0:0:0:
389,151,164440,1,2,0:0:0:0:
407,141,164537,2,0,L|415:53,1,82.5000025177003,10|2,0:0|0:0,0:0:0:0:
320,80,164927,2,0,P|288:88|248:136,1,82.5000025177003,2|2,0:0|0:0,0:0:0:0:
344,240,165317,6,0,L|336:322,1,82.5000025177003,2|2,0:0|0:0,0:0:0:0:
248,272,165706,1,2,0:0:0:0:
227,270,165803,1,2,0:0:0:0:
206,272,165900,1,2,0:0:0:0:
186,276,165998,1,2,0:0:0:0:
167,284,166096,2,0,P|127:295|86:296,1,82.5000025177003,10|2,0:0|0:0,0:0:0:0:
72,200,166486,2,0,P|111:188|152:187,1,82.5000025177003,2|2,0:0|0:0,0:0:0:0:
304,200,166875,5,8,0:0:0:0:
305,184,166972,1,8,0:0:0:0:
307,169,167069,1,8,0:0:0:0:
309,153,167167,1,8,0:0:0:0:
311,138,167264,1,8,0:0:0:0:
313,123,167362,1,8,0:0:0:0:
314,107,167459,1,8,0:0:0:0:
316,92,167556,1,8,0:0:0:0:
318,77,167654,6,0,L|256:64,3,41.2500012588501,8|8|8|8,0:0|0:0|0:0|0:0,0:0:0:0:
256,64,168044,1,4,0:0:0:0:
234,64,168141,1,4,0:0:0:0:
214,66,168238,1,0,0:0:0:0:
195,72,168336,1,0,0:0:0:0:
175,80,168433,5,6,0:0:0:0:
256,192,168531,12,0,174667,0:0:0:0:
