osu file format v14

[General]
AudioFilename: audio.mp3
AudioLeadIn: 0
PreviewTime: 11750
Countdown: 0
SampleSet: Normal
StackLeniency: 0.7
Mode: 0
LetterboxInBreaks: 0
EpilepsyWarning: 1
WidescreenStoryboard: 1

[Editor]
Bookmarks: 12627,25097,37097,49097,58097,61097,73564,85564,88564,91564,104031,116499,129999,143499,146615,155966,168434
DistanceSpacing: 1
BeatDivisor: 4
GridSize: 4
TimelineZoom: 2

[Metadata]
Title:Carrion
TitleUnicode:Carrion
Artist:Parkway Drive
ArtistUnicode:Parkway Drive
Creator:DavidEd
Version:Extra
Source:
Tags:metalcore hardcore punk horizons epitaph records
BeatmapID:1093498
BeatmapSetID:514196

[Difficulty]
HPDrainRate:6
CircleSize:5
OverallDifficulty:8
ApproachRate:9
SliderMultiplier:1.6
SliderTickRate:1

[Events]
//Background and Video events
0,0,"bg.jpg",0,0
//Break Periods
2,85764,87776
2,143699,145431
//Storyboard Layer 0 (Background)
Sprite,Background,TopLeft,"bg.jpg",0,0
//Storyboard Layer 1 (Fail)
//Storyboard Layer 2 (Pass)
//Storyboard Layer 3 (Foreground)
//Storyboard Sound Samples

[TimingPoints]
160,389.61038961039,4,2,1,40,1,0
160,-166.666666666667,4,2,1,40,0,0
12627,-100,4,1,1,60,0,0
25097,375,4,1,1,50,1,0
27347,-100,4,3,1,60,0,0
27722,-100,4,1,1,60,0,0
28003,-100,4,1,1,5,0,0
28097,-100,4,1,1,55,0,0
37003,-100,4,1,1,5,0,0
37097,-111.111111111111,4,1,1,50,0,0
39347,-133.333333333333,4,1,1,50,0,0
40097,-111.111111111111,4,1,1,50,0,0
42347,-133.333333333333,4,1,1,50,0,0
43097,-100,4,1,1,50,0,0
45347,-133.333333333333,4,1,1,50,0,0
46097,-100,4,1,1,50,0,0
48347,-100,4,3,1,60,0,0
48722,-100,4,1,1,50,0,0
49003,-100,4,1,1,5,0,0
49097,-100,4,1,1,55,0,0
59972,-100,4,3,1,55,0,0
60159,-100,4,1,1,55,0,0
60722,-100,4,1,1,55,0,0
61003,-100,4,1,1,5,0,0
61097,389.61038961039,4,1,1,60,1,0
72200,-100,4,3,1,60,0,0
72590,-100,4,1,1,60,0,0
73564,375,4,1,1,50,1,0
75814,-133.333333333333,4,1,1,50,0,0
76564,-100,4,1,1,50,0,0
78814,-133.333333333333,4,1,1,50,0,0
79564,-100,4,1,1,50,0,0
81814,-133.333333333333,4,1,1,50,0,0
82564,-100,4,1,1,50,0,0
84814,-100,4,3,1,60,0,0
85189,-100,4,1,1,60,0,0
91564,389.61038961039,4,1,2,60,1,0
91564,-90.9090909090909,4,1,2,60,0,0
102570,-90.9090909090909,4,1,2,5,0,0
102667,-90.9090909090909,4,1,2,60,0,0
104031,-100,4,1,2,55,0,0
116109,-100,4,3,2,55,0,0
116499,375,4,1,1,50,1,0
116499,-111.111111111111,4,1,1,50,0,0
126999,-100,4,1,1,60,0,0
129999,-153.846153846154,4,1,1,50,0,0
135999,-133.333333333333,4,1,1,50,0,0
140499,-100,4,1,1,60,0,0
142936,-100,4,3,1,60,0,0
143124,-100,4,1,1,60,0,0
143311,-100,4,3,1,60,0,0
143499,389.61038961039,4,1,1,60,1,0
146518,-100,4,1,1,5,0,0
146615,-90.9090909090909,4,1,1,60,0,0
155771,-90.9090909090909,4,3,1,60,0,0
155966,-83.3333333333333,4,1,1,65,0,1
167849,-83.3333333333333,4,3,1,65,0,1
168434,-100,4,1,1,65,0,0
169992,-100,4,1,1,55,0,0
171550,-100,4,1,1,45,0,0
173109,-100,4,1,1,35,0,0
174667,-100,4,1,1,25,0,0

[Colours]
Combo1 : 255,255,0
Combo2 : 255,128,0
Combo3 : 0,255,255
Combo4 : 115,115,185

[HitObjects]
133,56,160,6,0,P|90:125|165:120,1,191.999994140625,2|0,0:0|0:0,0:0:0:0:
246,326,1523,2,0,L|235:183,1,143.999995605469,2|0,0:0|0:0,0:0:0:0:
342,63,2497,2,0,P|294:59|251:86,1,95.9999970703126,2|0,0:0|0:0,0:0:0:0:
363,279,3276,6,0,P|406:210|331:215,1,191.999994140625,2|0,0:0|0:0,0:0:0:0:
89,327,4640,2,0,B|149:332|149:332|184:317,1,95.9999970703126,2|0,0:0|0:0,0:0:0:0:
253,284,5224,1,2,0:0:0:0:
185,240,5419,1,0,0:0:0:0:
299,133,5614,1,2,0:0:0:0:
257,202,5809,1,0,0:0:0:0:
339,295,6004,1,2,0:0:0:0:
411,68,6393,6,0,P|454:137|379:132,1,191.999994140625,2|0,0:0|0:0,0:0:0:0:
126,71,7757,2,0,L|136:227,1,143.999995605469,2|0,0:0|0:0,0:0:0:0:
221,345,8731,2,0,P|176:328|145:292,1,95.9999970703126,2|0,0:0|0:0,0:0:0:0:
416,242,9510,6,0,P|459:311|384:306,1,191.999994140625,2|0,0:0|0:0,0:0:0:0:
218,129,10874,2,0,L|213:233,1,95.9999970703126,2|0,0:0|0:0,0:0:0:0:
210,311,11458,1,2,0:0:0:0:
142,267,11653,1,0,0:0:0:0:
292,188,11848,1,0,0:0:0:0:
292,188,12627,6,0,B|418:195|418:195|400:168,1,160,6|0,0:0|0:0,0:0:0:0:
352,96,13211,1,0,0:0:0:0:
320,272,13406,2,0,P|288:296|232:296,1,80,8|0,0:0|0:0,0:0:0:0:
120,224,13796,1,0,0:0:0:0:
242,133,13991,1,2,0:0:0:0:
64,48,14185,6,0,P|48:88|48:136,1,80
184,160,14575,2,0,P|200:120|200:72,1,80
48,200,14965,1,8,0:0:0:0:
192,248,15160,1,0,0:0:0:0:
104,336,15354,2,0,L|112:256,1,80
280,128,15744,6,0,B|296:256|296:256|317:234,1,160,6|0,0:0|0:0,0:0:0:0:
376,176,16328,1,0,0:0:0:0:
296,48,16523,2,0,P|256:48|213:80,1,80,8|0,0:0|0:0,0:0:0:0:
120,128,16913,2,0,P|154:148|193:148,1,80,0|2,0:0|0:0,0:0:0:0:
368,88,17302,5,0,0:0:0:0:
240,224,17497,1,0,0:0:0:0:
416,272,17692,1,0,0:0:0:0:
280,128,17887,1,0,0:0:0:0:
208,304,18082,2,0,P|136:328|64:288,1,160,8|0,0:0|0:0,0:0:0:0:
128,48,18861,6,0,B|134:176|134:176|104:160,1,160,6|0,0:0|0:0,0:0:0:0:
40,120,19445,1,0,0:0:0:0:
208,80,19640,2,0,P|248:80|288:96,1,80,8|0,0:0|0:0,0:0:0:0:
384,184,20030,1,0,0:0:0:0:
280,264,20224,1,2,0:0:0:0:
480,344,20419,6,0,P|480:304|464:264,1,80
320,224,20809,2,0,P|305:261|305:300,1,80
456,184,21198,1,8,0:0:0:0:
320,120,21393,1,0,0:0:0:0:
440,32,21588,2,0,L|432:120,1,80
96,176,21978,5,6,0:0:0:0:
208,48,22172,1,0,0:0:0:0:
176,224,22367,1,0,0:0:0:0:
64,96,22562,2,0,L|144:104,1,80,0|8,0:0|0:0,0:0:0:0:
272,112,22952,1,0,0:0:0:0:
152,256,23147,1,0,0:0:0:0:
344,232,23341,1,2,0:0:0:0:
72,192,23536,6,0,L|64:288,1,80
240,304,23926,2,0,L|246:224,1,80
408,56,24315,2,0,B|416:184|416:184|448:152,1,160,8|0,0:0|0:0,0:0:0:0:
496,104,24900,1,0,0:0:0:0:
280,136,25095,5,6,0:0:0:0:
288,224,25284,1,0,0:0:0:0:
288,224,25472,1,0,0:0:0:0:
120,200,25659,5,2,0:0:0:0:
209,191,25848,1,0,0:0:0:0:
209,191,26034,1,0,0:0:0:0:
144,32,26222,5,2,0:0:0:0:
152,120,26409,1,0,0:0:0:0:
304,56,26597,5,0,0:0:0:0:
336,140,26784,2,0,B|364:252|364:252|356:316,1,160
184,336,27347,5,8,0:0:0:0:
154,339,27440,1,8,0:0:0:0:
125,331,27534,1,4,0:0:0:0:
100,314,27628,1,4,0:0:0:0:
83,290,27722,2,0,B|56:232|112:232|80:168,1,120,8|0,0:0|0:0,0:0:0:0:
64,136,28097,6,0,P|80:96|120:72,1,80,6|0,0:0|0:0,0:0:0:0:
200,40,28472,1,8,0:0:0:0:
272,152,28659,2,0,P|304:176|360:176,1,80,2|0,0:0|0:0,0:0:0:0:
440,160,29034,1,2,0:0:0:0:
416,304,29222,2,0,L|400:216,1,80,8|0,0:0|0:0,0:0:0:0:
184,144,29597,6,0,P|160:184|160:232,1,80,0|2,0:0|0:0,0:0:0:0:
176,304,29972,1,8,0:0:0:0:
320,216,30159,2,0,P|314:176|293:143,1,80,2|0,0:0|0:0,0:0:0:0:
176,56,30534,2,0,L|128:64,1,40,2|0,0:0|0:0,0:0:0:0:
64,112,30722,1,8,0:0:0:0:
64,132,30816,1,0,0:0:0:0:
67,152,30910,1,0,0:0:0:0:
74,171,31004,1,0,0:0:0:0:
82,188,31097,6,0,L|176:192,1,80,2|0,0:0|0:0,0:0:0:0:
320,144,31472,1,8,0:0:0:0:
192,272,31659,1,2,0:0:0:0:
360,224,31847,1,0,0:0:0:0:
224,104,32034,1,2,0:0:0:0:
288,288,32222,1,8,0:0:0:0:
424,144,32409,1,0,0:0:0:0:
208,184,32597,6,0,L|120:200,1,80,0|2,0:0|0:0,0:0:0:0:
64,272,32972,1,8,0:0:0:0:
200,328,33159,2,0,L|278:313,1,80,2|0,0:0|0:0,0:0:0:0:
416,232,33534,2,0,L|472:240,1,40,2|0,0:0|0:0,0:0:0:0:
384,304,33722,1,8,0:0:0:0:
366,294,33815,1,0,0:0:0:0:
352,280,33909,1,0,0:0:0:0:
341,263,34003,1,0,0:0:0:0:
335,244,34097,6,0,P|328:200|304:160,1,80,2|0,0:0|0:0,0:0:0:0:
240,104,34472,1,8,0:0:0:0:
144,208,34659,2,0,P|104:224|64:224,1,80,2|0,0:0|0:0,0:0:0:0:
88,136,35034,1,2,0:0:0:0:
232,208,35222,2,0,L|240:296,1,80,8|0,0:0|0:0,0:0:0:0:
312,344,35597,1,0,0:0:0:0:
416,240,35784,2,0,P|376:248|328:232,1,80,2|8,0:0|0:0,0:0:0:0:
264,184,36159,1,2,0:0:0:0:
392,56,36347,5,8,0:0:0:0:
415,86,36440,1,8,0:0:0:0:
402,122,36534,1,2,0:0:0:0:
365,131,36628,1,2,0:0:0:0:
337,104,36722,2,0,B|280:80|280:128|216:104,1,120,8|0,0:0|0:0,0:0:0:0:
192,80,37097,6,0,P|160:64|104:64,1,71.9999978027344,6|0,0:0|0:0,0:0:0:0:
40,88,37472,1,2,0:0:0:0:
128,192,37659,2,0,P|144:232|144:280,1,71.9999978027344,2|8,0:0|0:0,0:0:0:0:
96,336,38034,1,2,0:0:0:0:
272,240,38222,1,2,0:0:0:0:
272,240,38784,5,2,0:0:0:0:
232,168,38972,1,2,0:0:0:0:
232,168,39065,1,2,0:0:0:0:
232,168,39159,1,2,0:0:0:0:
384,48,39347,2,0,L|392:168,1,120.000004577637,8|0,0:0|0:0,0:0:0:0:
200,304,40097,6,0,P|184:272|184:232,1,71.9999978027344,6|0,0:0|0:0,0:0:0:0:
232,168,40472,1,2,0:0:0:0:
120,64,40659,2,0,P|96:104|96:144,1,71.9999978027344,2|8,0:0|0:0,0:0:0:0:
104,208,41034,1,2,0:0:0:0:
312,144,41222,1,2,0:0:0:0:
312,144,41784,5,2,0:0:0:0:
328,224,41972,1,2,0:0:0:0:
328,224,42066,1,2,0:0:0:0:
328,224,42159,1,2,0:0:0:0:
360,56,42347,2,0,L|224:80,1,120.000004577637,8|0,0:0|0:0,0:0:0:0:
48,256,43097,6,0,P|88:240|128:240,1,80,6|0,0:0|0:0,0:0:0:0:
208,272,43472,1,2,0:0:0:0:
304,184,43659,2,0,P|304:144|280:96,1,80,2|8,0:0|0:0,0:0:0:0:
216,48,44034,1,2,0:0:0:0:
80,160,44222,1,2,0:0:0:0:
80,160,44784,5,2,0:0:0:0:
152,104,44972,1,2,0:0:0:0:
152,104,45065,1,2,0:0:0:0:
152,104,45159,1,2,0:0:0:0:
232,272,45347,2,0,L|104:288,1,120.000004577637,8|0,0:0|0:0,0:0:0:0:
288,144,46097,6,0,P|288:184|312:224,1,80,6|0,0:0|0:0,0:0:0:0:
384,272,46472,1,2,0:0:0:0:
480,168,46659,2,0,P|480:128|456:88,1,80,2|8,0:0|0:0,0:0:0:0:
384,48,47034,1,2,0:0:0:0:
288,144,47222,2,0,P|248:160|200:160,1,80,2|2,0:0|0:0,0:0:0:0:
64,64,47597,5,8,0:0:0:0:
82,57,47690,1,8,0:0:0:0:
104,56,47784,2,0,L|144:64,1,40,2|2,0:0|0:0,0:0:0:0:
104,144,47972,1,8,0:0:0:0:
91,159,48065,1,8,0:0:0:0:
86,178,48159,2,0,L|89:232,1,40,2|2,0:0|0:0,0:0:0:0:
144,280,48347,2,8,L|200:288,1,40,8|4,0:0|0:0,0:0:0:0:
80,336,48534,2,0,L|40:341,1,40,4|4,0:0|0:0,0:0:0:0:
216,352,48722,2,0,P|256:304|232:232,1,120,8|0,0:0|0:0,0:0:0:0:
224,216,49097,6,0,P|200:176|200:128,1,80,6|0,0:0|0:0,0:0:0:0:
224,56,49472,1,8,0:0:0:0:
320,144,49659,2,0,P|368:144|408:128,1,80,2|0,0:0|0:0,0:0:0:0:
472,72,50034,1,2,0:0:0:0:
440,200,50222,2,0,P|440:248|456:288,1,80,8|0,0:0|0:0,0:0:0:0:
304,344,50597,5,0,0:0:0:0:
368,232,50784,1,2,0:0:0:0:
216,232,50972,1,8,0:0:0:0:
296,272,51159,2,0,L|288:192,1,80,2|0,0:0|0:0,0:0:0:0:
272,72,51534,2,0,L|280:144,1,40,2|0,0:0|0:0,0:0:0:0:
352,144,51722,1,8,0:0:0:0:
371,146,51815,1,0,0:0:0:0:
391,143,51909,1,0,0:0:0:0:
410,136,52003,1,0,0:0:0:0:
427,125,52097,6,0,L|416:40,1,80,2|0,0:0|0:0,0:0:0:0:
328,168,52472,2,0,L|338:247,1,80,8|2,0:0|0:0,0:0:0:0:
428,336,52847,1,0,0:0:0:0:
464,208,53034,1,2,0:0:0:0:
344,288,53222,2,0,P|304:304|256:304,1,80,8|0,0:0|0:0,0:0:0:0:
176,280,53597,5,0,0:0:0:0:
248,160,53784,2,0,P|248:120|232:80,1,80,2|8,0:0|0:0,0:0:0:0:
96,112,54159,2,0,P|96:152|112:192,1,80,2|0,0:0|0:0,0:0:0:0:
248,240,54534,2,0,L|256:304,1,40,2|0,0:0|0:0,0:0:0:0:
176,336,54722,1,8,0:0:0:0:
156,339,54815,1,0,0:0:0:0:
136,337,54909,1,0,0:0:0:0:
117,329,55003,1,0,0:0:0:0:
102,317,55097,6,0,L|84:232,1,80,2|0,0:0|0:0,0:0:0:0:
64,120,55472,1,8,0:0:0:0:
192,160,55659,1,2,0:0:0:0:
135,19,55847,1,0,0:0:0:0:
52,136,56034,1,2,0:0:0:0:
192,88,56222,1,8,0:0:0:0:
168,256,56409,6,0,L|180:335,1,80
312,248,56784,2,0,L|300:169,1,80,2|8,0:0|0:0,0:0:0:0:
280,80,57159,1,2,0:0:0:0:
392,168,57347,2,0,P|432:184|480:184,1,80,0|2,0:0|0:0,0:0:0:0:
440,320,57722,1,8,0:0:0:0:
422,310,57815,1,0,0:0:0:0:
403,304,57909,1,0,0:0:0:0:
383,301,58003,1,0,0:0:0:0:
362,302,58097,6,0,P|318:309|274:333,1,80,12|2,0:0|0:0,0:0:0:0:
158,263,58472,1,8,0:0:0:0:
158,263,58659,2,0,P|159:223|146:182,1,80,8|2,0:0|0:0,0:0:0:0:
217,73,59034,1,8,0:0:0:0:
217,73,59222,2,0,P|260:65|304:41,1,80,8|2,0:0|0:0,0:0:0:0:
440,72,59597,5,8,0:0:0:0:
427,87,59690,1,8,0:0:0:0:
422,106,59784,2,0,L|424:152,1,40,2|2,0:0|0:0,0:0:0:0:
464,248,59972,1,8,0:0:0:0:
448,235,60065,1,8,0:0:0:0:
430,230,60159,2,0,L|384:232,1,40,2|2,0:0|0:0,0:0:0:0:
296,288,60347,1,8,0:0:0:0:
257,286,60440,1,8,0:0:0:0:
234,255,60534,1,2,0:0:0:0:
245,218,60628,1,2,0:0:0:0:
281,204,60722,6,0,P|328:168|328:104,1,120,8|0,0:0|0:0,0:0:0:0:
312,72,61097,6,0,B|192:80|192:80|232:48,1,160,6|0,0:0|0:0,0:0:0:0:
288,0,61681,1,0,0:0:0:0:
424,72,61876,2,0,P|448:112|448:152,1,80,8|0,0:0|0:0,0:0:0:0:
368,248,62265,1,2,0:0:0:0:
288,144,62460,1,2,0:0:0:0:
456,232,62655,6,0,L|464:336,1,80,0|2,0:0|0:0,0:0:0:0:
280,312,63045,2,0,L|273:232,1,80,2|0,0:0|0:0,0:0:0:0:
256,88,63434,1,8,0:0:0:0:
184,208,63629,1,0,0:0:0:0:
328,144,63824,2,0,P|368:128|416:128,1,80
456,312,64213,6,0,B|328:328|328:328|344:288,1,160,6|0,0:0|0:0,0:0:0:0:
368,216,64798,1,0,0:0:0:0:
256,104,64993,2,0,P|216:104|176:120,1,80,8|0,0:0|0:0,0:0:0:0:
104,232,65382,2,0,P|144:232|184:216,1,80,0|2,0:0|0:0,0:0:0:0:
288,88,65772,5,0,0:0:0:0:
128,160,65967,1,2,0:0:0:0:
304,216,66161,1,2,0:0:0:0:
152,64,66356,1,0,0:0:0:0:
104,256,66551,2,0,B|120:336|120:336|176:264,1,160,8|0,0:0|0:0,0:0:0:0:
376,80,67330,6,0,B|384:208|384:208|352:184,1,160,6|0,0:0|0:0,0:0:0:0:
288,144,67915,1,0,0:0:0:0:
464,120,68109,2,0,L|472:200,1,80,8|0,0:0|0:0,0:0:0:0:
432,328,68499,1,0,0:0:0:0:
320,256,68694,1,2,0:0:0:0:
160,344,68889,6,0,P|120:344|80:320,1,80,0|2,0:0|0:0,0:0:0:0:
112,192,69278,2,0,P|152:192|192:216,1,80,2|0,0:0|0:0,0:0:0:0:
288,304,69668,1,8,0:0:0:0:
328,168,69863,1,0,0:0:0:0:
432,272,70058,2,0,L|352:264,1,80
192,128,70447,5,6,0:0:0:0:
200,296,70642,1,0,0:0:0:0:
328,176,70837,1,0,0:0:0:0:
120,104,71032,2,0,P|80:104|40:128,1,80,0|8,0:0|0:0,0:0:0:0:
40,264,71421,1,0,0:0:0:0:
184,208,71616,1,0,0:0:0:0:
112,344,71811,1,2,0:0:0:0:
200,120,72006,5,8,0:0:0:0:
256,272,72200,1,8,0:0:0:0:
216,275,72297,1,4,0:0:0:0:
176,278,72394,1,0,0:0:0:0:
48,192,72590,1,2,0:0:0:0:
216,48,72785,5,8,0:0:0:0:
128,208,72980,1,2,0:0:0:0:
216,48,73174,2,0,L|224:144,1,80,8|2,0:0|0:0,0:0:0:0:
336,248,73564,6,0,P|376:232|416:232,1,80,6|0,0:0|0:0,0:0:0:0:
496,272,73939,1,2,0:0:0:0:
336,336,74126,2,0,P|296:328|264:296,1,80,2|8,0:0|0:0,0:0:0:0:
208,232,74501,1,2,0:0:0:0:
48,344,74689,1,2,0:0:0:0:
48,344,75251,5,2,0:0:0:0:
112,272,75439,1,2,0:0:0:0:
112,272,75532,1,2,0:0:0:0:
112,272,75626,1,2,0:0:0:0:
88,72,75814,2,0,B|104:208,1,120.000004577637,8|0,0:0|0:0,0:0:0:0:
408,64,76564,6,0,P|368:64|328:80,1,80,6|0,0:0|0:0,0:0:0:0:
264,144,76939,1,2,0:0:0:0:
400,216,77126,2,0,P|424:248|424:296,1,80,2|8,0:0|0:0,0:0:0:0:
352,352,77501,1,2,0:0:0:0:
216,208,77689,1,2,0:0:0:0:
352,272,77876,1,0,0:0:0:0:
168,352,78064,6,0,L|80:328,1,80,0|2,0:0|0:0,0:0:0:0:
256,288,78439,1,2,0:0:0:0:
256,288,78532,1,2,0:0:0:0:
256,288,78626,1,2,0:0:0:0:
176,120,78814,2,0,L|304:104,1,120.000004577637,8|0,0:0|0:0,0:0:0:0:
56,264,79564,6,0,P|48:224|60:176,1,80,6|0,0:0|0:0,0:0:0:0:
88,104,79939,1,2,0:0:0:0:
208,192,80126,2,0,P|248:192|288:176,1,80,2|8,0:0|0:0,0:0:0:0:
360,128,80501,1,2,0:0:0:0:
264,312,80689,1,2,0:0:0:0:
264,312,81251,5,2,0:0:0:0:
176,272,81439,1,2,0:0:0:0:
176,272,81532,1,2,0:0:0:0:
176,272,81626,1,2,0:0:0:0:
296,88,81814,2,0,L|304:208,1,120.000004577637,8|0,0:0|0:0,0:0:0:0:
64,80,82564,6,0,P|104:56|144:56,1,80,6|0,0:0|0:0,0:0:0:0:
232,72,82939,1,2,0:0:0:0:
136,184,83126,2,0,P|120:224|120:272,1,80,2|8,0:0|0:0,0:0:0:0:
168,344,83501,1,2,0:0:0:0:
288,256,83689,2,0,P|328:256|368:272,1,80,2|0,0:0|0:0,0:0:0:0:
464,144,84064,5,8,0:0:0:0:
445,150,84157,1,8,0:0:0:0:
424,152,84251,2,0,L|392:120,1,40,2|2,0:0|0:0,0:0:0:0:
328,48,84439,1,8,0:0:0:0:
309,41,84532,1,8,0:0:0:0:
288,40,84626,2,0,L|256:72,1,40,2|2,0:0|0:0,0:0:0:0:
208,216,84814,5,8,0:0:0:0:
169,211,84907,1,8,0:0:0:0:
151,178,85001,1,4,0:0:0:0:
169,144,85095,1,4,0:0:0:0:
207,139,85189,2,0,P|247:139|287:155,1,80,8|0,0:0|0:0,0:0:0:0:
416,280,85564,5,6,0:0:0:0:
416,280,88376,5,2,0:0:0:0:
416,280,88470,1,2,0:0:0:0:
416,280,88564,5,12,0:0:0:0:
384,204,88751,1,8,0:0:0:0:
336,264,88939,1,8,0:0:0:0:
464,216,89126,1,8,0:0:0:0:
304,192,89314,5,8,0:0:0:0:
364,340,89501,1,8,0:0:0:0:
436,144,89689,1,8,0:0:0:0:
260,256,89876,1,8,0:0:0:0:
224,32,90064,5,8,0:0:0:0:
384,200,90251,1,8,0:0:0:0:
160,152,90439,1,8,0:0:0:0:
368,56,90626,1,8,0:0:0:0:
336,264,90814,5,8,0:0:0:0:
112,336,91001,1,8,0:0:0:0:
110,322,91094,1,8,0:0:0:0:
109,309,91188,1,8,0:0:0:0:
108,296,91282,1,8,0:0:0:0:
107,282,91376,1,8,0:0:0:0:
106,269,91469,1,8,0:0:0:0:
104,256,91564,6,0,P|112:184|184:104,1,176.000005371094,6|8,0:0|0:0,0:0:0:0:
288,72,92148,1,2,0:0:0:0:
288,256,92343,1,2,0:0:0:0:
344,152,92538,1,2,0:0:0:0:
192,192,92732,1,8,0:0:0:0:
360,336,92927,6,0,L|464:328,1,88.000002685547,2|0,0:0|0:0,0:0:0:0:
208,272,93317,2,0,L|120:278,2,88.000002685547,2|8|0,0:0|0:0|0:0,0:0:0:0:
396,220,93901,2,0,P|408:140|348:60,1,176.000005371094,2|8,0:0|0:0,0:0:0:0:
256,24,94486,1,0,0:0:0:0:
112,220,94680,6,0,P|100:140|160:60,1,176.000005371094,2|8,0:0|0:0,0:0:0:0:
212,164,95265,1,0,0:0:0:0:
128,312,95460,2,0,P|168:336|208:336,1,88.000002685547,2|2,0:0|0:0,0:0:0:0:
312,304,95849,1,8,0:0:0:0:
280,128,96044,6,0,P|304:96|352:80,1,88.000002685547,2|0,0:0|0:0,0:0:0:0:
440,176,96434,2,0,L|448:272,2,88.000002685547,2|8|0,0:0|0:0|0:0,0:0:0:0:
272,232,97018,2,0,L|88:240,1,176.000005371094,2|8,0:0|0:0,0:0:0:0:
96,239,97602,1,0,0:0:0:0:
136,56,97797,6,0,P|224:56|304:112,1,176.000005371094,6|8,0:0|0:0,0:0:0:0:
368,192,98382,1,0,0:0:0:0:
208,248,98576,1,2,0:0:0:0:
304,168,98771,1,2,0:0:0:0:
344,328,98966,1,8,0:0:0:0:
136,288,99161,6,0,L|144:192,1,88.000002685547,2|0,0:0|0:0,0:0:0:0:
184,56,99551,2,0,L|96:62,2,88.000002685547,2|8|0,0:0|0:0|0:0,0:0:0:0:
320,128,100135,2,0,P|304:216|320:304,1,176.000005371094,2|8,0:0|0:0,0:0:0:0:
408,352,100719,1,0,0:0:0:0:
488,160,100914,6,0,P|400:160|320:128,1,176.000005371094,2|8,0:0|0:0,0:0:0:0:
224,64,101499,1,0,0:0:0:0:
168,232,101693,1,2,0:0:0:0:
248,128,101888,1,2,0:0:0:0:
88,168,102083,1,8,0:0:0:0:
216,336,102278,6,0,P|280:336|344:296,1,132.00000402832,2|0,0:0|0:0,0:0:0:0:
368,272,102667,1,8,0:0:0:0:
368,272,102862,1,8,0:0:0:0:
248,128,103057,1,2,0:0:0:0:
448,216,103252,1,8,0:0:0:0:
328,72,103447,1,2,0:0:0:0:
341,115,103544,1,2,0:0:0:0:
335,159,103641,2,0,P|312:200|256:224,1,88.000002685547,8|0,0:0|0:0,0:0:0:0:
72,56,104031,6,0,B|56:96|56:96|64:216,1,160,6|0,0:0|0:0,0:0:0:0:
72,312,104615,1,0,0:0:0:0:
184,208,104810,2,0,L|192:296,1,80,8|0,0:0|0:0,0:0:0:0:
280,344,105200,1,0,0:0:0:0:
432,256,105395,6,0,P|352:256|296:192,1,160,6|8,0:0|0:0,0:0:0:0:
256,112,105979,1,2,0:0:0:0:
392,160,106174,1,2,0:0:0:0:
264,304,106369,1,8,0:0:0:0:
184,112,106564,1,2,0:0:0:0:
264,304,106758,2,0,L|160:320,1,80,8|2,0:0|0:0,0:0:0:0:
34,158,107148,6,0,B|66:134|66:134|194:110,1,160,6|0,0:0|0:0,0:0:0:0:
288,96,107732,1,0,0:0:0:0:
184,216,107927,2,0,L|96:232,1,80,8|0,0:0|0:0,0:0:0:0:
40,304,108317,1,0,0:0:0:0:
304,336,108512,6,0,B|360:304|424:320|424:320|448:280,1,160,6|8,0:0|0:0,0:0:0:0:
472,200,109096,1,2,0:0:0:0:
368,96,109291,1,2,0:0:0:0:
296,248,109486,1,8,0:0:0:0:
456,112,109680,1,2,0:0:0:0:
296,248,109875,2,0,P|264:264|208:264,1,80,8|2,0:0|0:0,0:0:0:0:
56,96,110265,6,0,P|113:54|208:64,1,160,6|0,0:0|0:0,0:0:0:0:
296,120,110849,1,0,0:0:0:0:
152,168,111044,2,0,L|160:272,1,80,8|0,0:0|0:0,0:0:0:0:
256,312,111434,1,0,0:0:0:0:
376,120,111628,6,0,P|450:144|470:222,1,160,6|8,0:0|0:0,0:0:0:0:
464,312,112213,1,2,0:0:0:0:
392,200,112408,1,2,0:0:0:0:
256,312,112602,1,8,0:0:0:0:
144,152,112797,1,2,0:0:0:0:
256,312,112992,2,0,P|304:312|344:280,1,80,8|2,0:0|0:0,0:0:0:0:
392,96,113382,6,0,B|336:80|336:80|224:120,1,160,6|0,0:0|0:0,0:0:0:0:
144,152,113966,1,0,0:0:0:0:
280,240,114161,2,0,P|304:208|304:160,1,80,8|0,0:0|0:0,0:0:0:0:
288,64,114551,1,0,0:0:0:0:
160,224,114745,6,0,P|88:208|72:128,1,160,6|8,0:0|0:0,0:0:0:0:
112,48,115330,1,8,0:0:0:0:
216,128,115525,1,2,0:0:0:0:
368,48,115719,1,8,0:0:0:0:
216,128,115914,1,2,0:0:0:0:
219,167,116011,1,2,0:0:0:0:
222,207,116109,2,0,L|304:216,1,80,8|0,0:0|0:0,0:0:0:0:
440,328,116499,5,6,0:0:0:0:
368,272,116686,1,0,0:0:0:0:
368,272,116874,1,0,0:0:0:0:
448,236,117061,1,0,0:0:0:0:
360,144,117249,2,0,P|320:144|280:128,1,71.9999978027344,8|0,0:0|0:0,0:0:0:0:
200,80,117624,2,0,L|192:24,2,47.9999985351563
144,208,117999,5,2,0:0:0:0:
72,264,118186,1,0,0:0:0:0:
72,264,118374,1,0,0:0:0:0:
64,172,118561,1,0,0:0:0:0:
152,304,118749,2,0,P|184:320|224:320,1,71.9999978027344,8|0,0:0|0:0,0:0:0:0:
356,300,119124,2,0,L|364:356,2,47.9999985351563
264,184,119499,5,2,0:0:0:0:
336,128,119686,1,0,0:0:0:0:
336,128,119874,1,0,0:0:0:0:
256,92,120061,1,0,0:0:0:0:
344,224,120249,2,0,P|392:208|416:176,1,71.9999978027344,8|0,0:0|0:0,0:0:0:0:
448,88,120624,2,0,L|456:24,2,47.9999985351563
344,224,120999,5,2,0:0:0:0:
264,184,121186,1,0,0:0:0:0:
264,184,121374,1,0,0:0:0:0:
264,276,121561,1,0,0:0:0:0:
336,128,121749,2,0,P|336:96|320:56,1,71.9999978027344,8|0,0:0|0:0,0:0:0:0:
192,48,122124,2,0,L|144:48,2,47.9999985351563
264,184,122499,5,2,0:0:0:0:
184,232,122686,1,0,0:0:0:0:
184,232,122874,1,0,0:0:0:0:
184,144,123061,1,0,0:0:0:0:
264,276,123249,2,0,P|264:316|248:348,1,71.9999978027344,8|0,0:0|0:0,0:0:0:0:
120,304,123624,2,0,L|56:312,2,47.9999985351563
264,184,123999,5,2,0:0:0:0:
184,144,124186,1,0,0:0:0:0:
184,144,124374,1,0,0:0:0:0:
260,92,124561,1,0,0:0:0:0:
184,232,124749,2,0,P|144:224|112:192,1,71.9999978027344,8|0,0:0|0:0,0:0:0:0:
56,112,125124,2,0,L|48:40,2,47.9999985351563
184,232,125499,5,2,0:0:0:0:
264,184,125686,1,0,0:0:0:0:
264,184,125874,1,0,0:0:0:0:
184,144,126061,1,0,0:0:0:0:
264,280,126249,2,0,P|304:272|344:232,1,71.9999978027344,8|0,0:0|0:0,0:0:0:0:
400,160,126624,2,0,L|392:112,2,47.9999985351563
464,336,126999,5,6,0:0:0:0:
464,336,127186,2,0,L|448:248,1,80,2|8,0:0|0:0,0:0:0:0:
296,136,127561,2,0,P|320:176|320:216,1,80,2|0,0:0|0:0,0:0:0:0:
151,263,127936,2,0,P|130:230|126:191,1,80,2|8,0:0|0:0,0:0:0:0:
208,40,128311,6,0,B|205:119|205:119|224:208,1,160,6|2,0:0|0:0,0:0:0:0:
248,296,128874,1,8,0:0:0:0:
456,176,129061,2,0,P|376:160|312:200,1,160,6|2,0:0|0:0,0:0:0:0:
248,296,129624,2,0,L|256:352,2,53.3333333333333,8|0|0,0:0|0:0|0:0,0:0:0:0:
144,152,129999,6,0,L|160:288,1,103.999995239258,6|0,0:0|0:0,0:0:0:0:
232,192,130561,1,0,0:0:0:0:
232,192,130749,2,0,L|224:128,1,51.999997619629
168,64,131124,2,0,L|104:72,2,34.6666650797527
312,108,131499,6,0,L|416:124,1,103.999995239258,8|0,0:0|0:0,0:0:0:0:
384,216,132061,1,0,0:0:0:0:
384,216,132249,2,0,L|392:272,1,51.999997619629
456,344,132624,2,0,L|512:352,2,34.6666650797527
304,304,132999,6,0,P|252:306|207:332,1,103.999995239258,6|0,0:0|0:0,0:0:0:0:
120,368,133561,1,0,0:0:0:0:
120,368,133749,2,0,L|112:304,1,51.999997619629
64,232,134124,2,0,L|16:240,2,34.6666650797527
208,264,134499,6,0,L|216:136,1,103.999995239258,8|0,0:0|0:0,0:0:0:0:
176,72,135061,1,0,0:0:0:0:
176,72,135249,2,0,L|248:64,1,51.999997619629
336,56,135624,2,0,L|392:48,2,34.6666650797527
296,192,135999,6,0,P|296:256|328:312,1,120.000004577637,6|0,0:0|0:0,0:0:0:0:
408,336,136561,1,0,0:0:0:0:
472,224,136749,2,0,B|472:192|472:192|464:164,1,60.0000022888184,8|0,0:0|0:0,0:0:0:0:
320,104,137124,1,2,0:0:0:0:
296,192,137311,1,2,0:0:0:0:
160,72,137499,6,0,L|176:216,1,120.000004577637,2|0,0:0|0:0,0:0:0:0:
184,280,138061,1,0,0:0:0:0:
48,264,138249,2,0,P|80:248|120:248,1,60.0000022888184,8|0,0:0|0:0,0:0:0:0:
256,320,138624,1,2,0:0:0:0:
240,224,138811,1,2,0:0:0:0:
384,128,138999,6,0,P|408:184|392:240,1,120.000004577637,2|0,0:0|0:0,0:0:0:0:
344,320,139561,1,0,0:0:0:0:
240,224,139749,1,8,0:0:0:0:
392,238,139936,1,2,0:0:0:0:
240,224,140124,1,8,0:0:0:0:
320,88,140311,1,2,0:0:0:0:
432,320,140499,5,12,0:0:0:0:
432,320,140686,2,0,L|440:232,1,80,8|2,0:0|0:0,0:0:0:0:
320,88,141061,2,8,P|360:88|416:64,1,80,8|2,0:0|0:0,0:0:0:0:
317,211,141436,2,0,P|277:211|221:235,1,80,8|2,0:0|0:0,0:0:0:0:
64,336,141811,6,0,B|47:289|47:289|48:176,1,160,12|8,0:0|0:0,0:0:0:0:
47,178,142374,1,8,0:0:0:0:
160,272,142561,1,2,0:0:0:0:
224,88,142749,5,8,0:0:0:0:
198,103,142842,1,8,0:0:0:0:
183,129,142936,1,8,0:0:0:0:
182,158,143030,1,8,0:0:0:0:
194,185,143124,1,8,0:0:0:0:
221,199,143217,1,8,0:0:0:0:
242,220,143311,1,4,0:0:0:0:
254,247,143405,1,4,0:0:0:0:
256,277,143499,5,6,0:0:0:0:
256,277,146031,5,2,0:0:0:0:
400,184,146226,2,0,P|344:208|272:192,1,120,8|0,0:0|0:0,0:0:0:0:
256,176,146615,6,0,B|128:192|128:192|160:144,1,176.000005371094,6|0,0:0|0:0,0:0:0:0:
200,80,147200,1,2,0:0:0:0:
224,280,147395,2,0,P|184:304|142:300,1,88.000002685547,8|0,0:0|0:0,0:0:0:0:
40,224,147784,1,0,0:0:0:0:
168,232,147979,1,2,0:0:0:0:
112,44,148174,5,0,0:0:0:0:
40,224,148369,1,2,0:0:0:0:
232,184,148563,1,2,0:0:0:0:
48,124,148758,1,0,0:0:0:0:
96,312,148953,2,0,P|176:344|256:288,1,176.000005371094,8|2,0:0|0:0,0:0:0:0:
128,64,149732,6,0,B|136:200|136:200|88:168,1,176.000005371094,6|0,0:0|0:0,0:0:0:0:
24,120,150317,1,2,0:0:0:0:
224,104,150511,2,0,L|312:112,1,88.000002685547,8|0,0:0|0:0,0:0:0:0:
428,120,150901,1,0,0:0:0:0:
316,192,151096,1,2,0:0:0:0:
432,343,151291,6,0,P|455:307|457:263,1,88.000002685547,0|2,0:0|0:0,0:0:0:0:
316,192,151680,2,0,P|293:228|291:272,1,88.000002685547,2|0,0:0|0:0,0:0:0:0:
444,192,152070,1,8,0:0:0:0:
380,72,152265,1,0,0:0:0:0:
264,128,152460,2,0,P|224:144|160:144,1,88.000002685547
40,48,152849,5,6,0:0:0:0:
104,232,153044,1,0,0:0:0:0:
176,52,153239,1,0,0:0:0:0:
16,168,153434,2,0,P|56:152|120:152,1,88.000002685547,2|8,0:0|0:0,0:0:0:0:
232,172,153823,1,0,0:0:0:0:
92,304,154018,1,0,0:0:0:0:
280,336,154213,1,2,0:0:0:0:
176,128,154408,5,6,0:0:0:0:
344,40,154602,1,8,0:0:0:0:
345,61,154699,1,8,0:0:0:0:
347,83,154796,1,8,0:0:0:0:
349,105,154894,1,8,0:0:0:0:
352,128,154992,2,0,L|356:180,1,44.0000013427735,8|8,0:0|0:0,0:0:0:0:
424,248,155187,5,6,0:0:0:0:
296,328,155382,1,8,0:0:0:0:
273,313,155479,1,8,0:0:0:0:
249,304,155576,1,8,0:0:0:0:
223,298,155674,1,8,0:0:0:0:
197,298,155771,1,4,0:0:0:0:
171,303,155869,1,4,0:0:0:0:
150,316,155966,6,0,P|104:344|32:344,1,95.9999970703126,6|2,0:0|0:0,0:0:0:0:
68,212,156356,1,2,0:0:0:0:
75,189,156453,1,2,0:0:0:0:
88,169,156550,1,2,0:0:0:0:
107,155,156648,1,2,0:0:0:0:
129,145,156745,2,0,L|176:140,3,47.9999985351563,10|2|2|2,0:0|0:0|0:0|0:0,0:0:0:0:
220,60,157135,2,0,L|172:64,3,47.9999985351563,2|2|2|2,0:0|0:0|0:0|0:0,0:0:0:0:
232,200,157524,5,2,0:0:0:0:
243,220,157621,1,2,0:0:0:0:
260,238,157718,1,2,0:0:0:0:
281,249,157816,1,2,0:0:0:0:
304,255,157913,1,2,0:0:0:0:
326,250,158011,1,2,0:0:0:0:
346,237,158108,1,2,0:0:0:0:
368,228,158205,1,2,0:0:0:0:
392,224,158304,2,0,L|440:240,3,47.9999985351563,10|2|2|2,0:0|0:0|0:0|0:0,0:0:0:0:
464,168,158693,2,0,L|418:152,3,47.9999985351563,2|2|2|2,0:0|0:0|0:0|0:0,0:0:0:0:
336,56,159083,5,2,0:0:0:0:
312,54,159180,1,2,0:0:0:0:
288,59,159277,1,2,0:0:0:0:
267,70,159375,1,2,0:0:0:0:
248,84,159472,1,2,0:0:0:0:
227,97,159570,1,2,0:0:0:0:
205,106,159667,1,2,0:0:0:0:
181,110,159764,1,2,0:0:0:0:
157,110,159862,2,0,L|104:80,3,47.9999985351563,10|2|2|2,0:0|0:0|0:0|0:0,0:0:0:0:
72,152,160252,2,0,L|113:175,3,47.9999985351563,2|2|2|2,0:0|0:0|0:0|0:0,0:0:0:0:
216,240,160641,5,2,0:0:0:0:
223,262,160738,1,2,0:0:0:0:
223,286,160835,1,2,0:0:0:0:
215,309,160933,1,2,0:0:0:0:
200,327,161030,1,2,0:0:0:0:
180,340,161128,1,2,0:0:0:0:
156,345,161225,1,2,0:0:0:0:
133,343,161322,1,2,0:0:0:0:
111,333,161421,2,0,L|64:288,3,47.9999985351563,10|2|2|2,0:0|0:0|0:0|0:0,0:0:0:0:
144,256,161810,2,0,L|96:210,3,47.9999985351563,2|2|2|2,0:0|0:0|0:0|0:0,0:0:0:0:
24,128,162200,6,0,P|72:128|120:104,1,95.9999970703126,6|2,0:0|0:0,0:0:0:0:
240,48,162589,1,2,0:0:0:0:
263,50,162686,1,2,0:0:0:0:
286,58,162783,1,2,0:0:0:0:
305,72,162881,1,2,0:0:0:0:
322,89,162979,2,0,L|336:148,3,47.9999985351563,10|2|2|2,0:0|0:0|0:0|0:0,0:0:0:0:
404,96,163369,2,0,L|416:144,3,47.9999985351563,2|2|2|2,0:0|0:0|0:0|0:0,0:0:0:0:
408,248,163758,5,2,0:0:0:0:
384,250,163855,1,2,0:0:0:0:
361,258,163952,1,2,0:0:0:0:
342,272,164050,1,2,0:0:0:0:
325,289,164147,1,2,0:0:0:0:
308,306,164245,1,2,0:0:0:0:
288,320,164342,1,2,0:0:0:0:
266,329,164439,1,2,0:0:0:0:
243,334,164538,2,0,L|175:319,3,47.9999985351563,10|2|2|2,0:0|0:0|0:0|0:0,0:0:0:0:
184,248,164927,2,0,L|230:258,3,47.9999985351563,2|2|2|2,0:0|0:0|0:0|0:0,0:0:0:0:
384,250,165317,6,0,L|375:152,1,95.9999970703126,2|2,0:0|0:0,0:0:0:0:
312,56,165706,1,2,0:0:0:0:
288,52,165803,1,2,0:0:0:0:
264,55,165900,1,2,0:0:0:0:
242,65,165998,1,2,0:0:0:0:
223,79,166096,2,0,L|216:136,3,47.9999985351563,10|2|2|2,0:0|0:0|0:0|0:0,0:0:0:0:
288,192,166486,1,2,0:0:0:0:
289,215,166583,1,2,0:0:0:0:
291,239,166680,1,2,0:0:0:0:
292,263,166778,1,2,0:0:0:0:
296,288,166875,5,8,0:0:0:0:
272,286,166972,1,8,0:0:0:0:
248,289,167069,1,8,0:0:0:0:
226,298,167167,1,8,0:0:0:0:
205,310,167264,1,8,0:0:0:0:
186,324,167362,1,8,0:0:0:0:
164,335,167459,1,8,0:0:0:0:
141,339,167556,1,8,0:0:0:0:
117,338,167654,5,8,0:0:0:0:
80,327,167751,1,8,0:0:0:0:
54,300,167848,1,8,0:0:0:0:
43,264,167946,1,8,0:0:0:0:
51,227,168043,1,4,0:0:0:0:
76,198,168141,1,4,0:0:0:0:
113,168,168238,1,0,0:0:0:0:
133,125,168335,1,0,0:0:0:0:
130,78,168434,5,6,0:0:0:0:
256,192,168531,12,0,174667,0:0:0:0:
