osu file format v14

[General]
AudioFilename: audio.mp3
AudioLeadIn: 0
PreviewTime: 11750
Countdown: 0
SampleSet: Normal
StackLeniency: 0.7
Mode: 0
LetterboxInBreaks: 0
EpilepsyWarning: 1
WidescreenStoryboard: 1

[Editor]
Bookmarks: 85564,88564,129999,155966,168434
DistanceSpacing: 1
BeatDivisor: 4
GridSize: 8
TimelineZoom: 1.7

[Metadata]
Title:Carrion
TitleUnicode:Carrion
Artist:Parkway Drive
ArtistUnicode:Parkway Drive
Creator:DavidEd
Version:Easy
Source:
Tags:metalcore hardcore punk horizons epitaph records
BeatmapID:1092391
BeatmapSetID:514196

[Difficulty]
HPDrainRate:2
CircleSize:3
OverallDifficulty:2
ApproachRate:2
SliderMultiplier:0.9
SliderTickRate:1

[Events]
//Background and Video events
0,0,"bg.jpg",0,0
//Break Periods
2,85764,87004
2,143699,144666
//Storyboard Layer 0 (Background)
Sprite,Background,TopLeft,"bg.jpg",0,0
Sprite,Background,Centre,"bg.jpg",320,240 S,0,105415,,0.625 F,0,105415,110932,1 F,2,110932,112312,1,0
//Storyboard Layer 1 (Fail)
//Storyboard Layer 2 (Pass)
//Storyboard Layer 3 (Foreground)
//Storyboard Sound Samples

[TimingPoints]
160,389.61038961039,4,2,1,40,1,0
12627,-100,4,1,1,60,0,0
25097,375,4,1,1,50,1,0
27347,-100,4,3,1,60,0,0
27722,-100,4,1,1,50,0,0
28097,-100,4,1,2,55,0,0
37097,-100,4,1,1,50,0,0
47597,-100,4,1,2,50,0,0
48347,-100,4,3,2,60,0,0
49097,-100,4,1,2,55,0,0
59597,-100,4,3,2,65,0,0
60347,-100,4,1,1,65,0,0
61097,389.61038961039,4,1,1,60,1,0
72006,-100,4,3,1,60,0,0
72785,-100,4,1,1,60,0,0
73564,375,4,1,1,50,1,0
84814,-100,4,3,1,60,0,0
85189,-100,4,1,1,50,0,0
88564,-100,4,1,2,50,0,0
90814,-100,4,3,2,60,0,0
91189,-100,4,1,2,50,0,0
91564,389.61038961039,4,1,2,60,1,0
96628,-100,4,1,2,60,0,0
103252,-100,4,3,1,60,0,0
104031,-100,4,1,1,55,0,0
105784,-100,4,1,2,55,0,0
105979,-100,4,1,1,55,0,0
108901,-100,4,1,2,55,0,0
109096,-100,4,1,1,55,0,0
112018,-100,4,1,2,55,0,0
112213,-100,4,1,1,55,0,0
115135,-100,4,1,2,55,0,0
115719,-100,4,3,1,65,0,0
116499,375,4,1,1,50,1,0
143499,389.61038961039,4,1,1,40,1,0
146615,-100,4,1,1,60,0,0
155187,-100,4,3,1,60,0,0
155966,-100,4,1,1,65,0,1
167654,-100,4,3,1,65,0,1
168434,-100,4,1,1,65,0,0
169992,-100,4,1,1,55,0,0
171550,-100,4,1,1,45,0,0
173109,-100,4,1,1,35,0,0
174667,-100,4,1,1,25,0,0

[Colours]
Combo1 : 255,255,0
Combo2 : 255,128,0
Combo3 : 0,255,255
Combo4 : 115,115,185

[HitObjects]
176,112,160,6,0,B|216:112|240:136|240:136|272:112|272:112|296:136|352:136,1,180,2|0,0:0|0:0,0:0:0:0:
416,248,1523,2,0,B|376:272|336:256|336:256|288:280|288:280|256:248|208:248,1,225,2|0,0:0|0:0,0:0:0:0:
56,336,3276,6,0,B|40:304|48:272|48:272|80:256|104:216|80:168,1,180,2|0,0:0|0:0,0:0:0:0:
40,48,4640,2,0,B|88:48|88:48|128:72|128:72|168:72,1,135,2|0,0:0|0:0,0:0:0:0:
256,72,5614,2,0,P|304:128|248:216,1,180,2|2,0:0|0:0,0:0:0:0:
88,256,7172,6,0,B|88:296|120:320|120:320|152:304|184:304,1,135,2|0,0:0|0:0,0:0:0:0:
400,336,8731,2,0,P|456:280|456:176,1,180,2|0,0:0|0:0,0:0:0:0:
328,56,10289,6,0,B|280:56|248:88|248:88|200:88,2,135,2|0|2,0:0|0:0|0:0,0:0:0:0:
416,56,11848,1,0,0:0:0:0:
416,232,12627,6,0,P|344:280|240:264,1,180,6|8,0:0|0:0,0:0:0:0:
168,240,13796,1,0,0:0:0:0:
176,152,14185,2,0,P|256:120|344:152,1,180,2|8,0:0|0:0,0:0:0:0:
402,215,15354,1,0,0:0:0:0:
344,280,15744,6,0,P|260:309|178:277,1,180,6|8,0:0|0:0,0:0:0:0:
56,145,17302,2,0,L|56:49,2,90,2|0|8,0:0|0:0|0:0,0:0:0:0:
56,325,18861,6,0,P|144:325|184:245,1,180,6|8,0:0|0:0,0:0:0:0:
127,181,20030,1,0,0:0:0:0:
184,112,20419,2,0,P|226:37|312:38,1,180,2|8,0:0|0:0,0:0:0:0:
448,160,21978,6,0,B|472:216|448:256|448:256|400:256|368:288,1,180,6|8,0:0|0:0,0:0:0:0:
312,347,23147,1,0,0:0:0:0:
248,288,23536,2,0,L|152:288,2,90,2|0|8,0:0|0:0|0:0,0:0:0:0:
304,112,25097,6,0,B|256:104|256:104|216:120|216:120|152:112,2,135,6|2|2,0:0|0:0|0:0,0:0:0:0:
392,128,26597,2,0,P|432:208|392:288,1,180,0|8,0:0|0:0,0:0:0:0:
328,344,27722,1,8,0:0:0:0:
256,288,28097,6,0,B|184:280|144:328|144:328|120:312|112:280,1,180,6|2,0:0|0:0,0:0:0:0:
48,216,29222,2,0,P|96:192|152:200,1,90,8|2,0:0|0:0,0:0:0:0:
221,200,29972,1,8,0:0:0:0:
292,145,30347,2,0,B|332:121|340:73|340:73|380:49|428:73,1,180,2|2,0:0|0:0,0:0:0:0:
464,248,31847,6,0,L|360:256,1,90,2|8,0:0|0:0,0:0:0:0:
312,320,32597,1,2,0:0:0:0:
240,264,32972,1,8,0:0:0:0:
176,328,33347,2,0,P|104:336|56:248,1,180,2|2,0:0|0:0,0:0:0:0:
160,104,34847,6,0,P|120:80|72:80,2,90,2|8|2,0:0|0:0|0:0,0:0:0:0:
186,189,35972,1,8,0:0:0:0:
272,160,36347,2,0,P|360:160|432:224,1,180,8|6,0:0|0:0,0:0:0:0:
304,344,37847,6,0,L|192:344,1,90,8|0,0:0|0:0,0:0:0:0:
128,344,38597,2,0,P|112:304|128:256,1,90,2|0,0:0|0:0,0:0:0:0:
193,202,39347,2,0,P|233:122|185:50,1,180,8|2,0:0|0:0,0:0:0:0:
56,176,40847,6,0,P|48:224|64:264,1,90,8|0,0:0|0:0,0:0:0:0:
128,320,41597,2,0,L|224:312,1,90,2|0,0:0|0:0,0:0:0:0:
272,240,42347,2,0,B|296:176|248:128|248:128|248:96|272:72,1,180,8|2,0:0|0:0,0:0:0:0:
448,72,43847,6,0,P|472:120|472:176,1,90,8|0,0:0|0:0,0:0:0:0:
416,224,44597,2,0,P|394:263|388:307,1,90,2|0,0:0|0:0,0:0:0:0:
304,336,45347,2,0,P|264:272|168:240,1,180,8|2,0:0|0:0,0:0:0:0:
64,96,46847,6,0,P|112:72|168:72,1,90,8|0,0:0|0:0,0:0:0:0:
232,96,47597,2,0,B|320:144|320:56|424:112,1,180,8|8,0:0|0:0,0:0:0:0:
440,280,49097,6,0,P|392:312|256:296,1,180,6|2,0:0|0:0,0:0:0:0:
201,253,50222,1,8,0:0:0:0:
248,176,50597,2,0,L|240:80,1,90,2|8,0:0|0:0,0:0:0:0:
153,69,51347,2,0,B|161:173|161:173|121:197|113:237,1,180,2|2,0:0|0:0,0:0:0:0:
264,328,52847,6,0,P|312:328|360:304,1,90,2|8,0:0|0:0,0:0:0:0:
416,248,53597,1,2,0:0:0:0:
376,168,53972,1,8,0:0:0:0:
440,104,54347,2,0,B|408:56|408:56|360:88|288:88,1,180,2|2,0:0|0:0,0:0:0:0:
112,56,55847,6,0,P|80:104|80:152,1,90,2|8,0:0|0:0,0:0:0:0:
152,184,56597,2,0,L|168:288,1,90,2|8,0:0|0:0,0:0:0:0:
240,328,57347,2,0,B|288:280|368:280|368:280|396:233,1,180,2|12,0:0|0:0,0:0:0:0:
463,82,58847,6,0,P|414:76|364:88,1,90,8|8,0:0|0:0,0:0:0:0:
303,139,59597,2,0,P|258:146|214:140,2,90,8|4|8,0:0|0:0|0:0,0:0:0:0:
443,241,61097,6,0,P|391:317|302:320,1,180,6|8,0:0|0:0,0:0:0:0:
233,274,62265,1,0,0:0:0:0:
232,184,62655,2,0,B|144:144|144:224|56:184,1,180,2|8,0:0|0:0,0:0:0:0:
184,56,64213,6,0,B|272:16|272:96|360:56,1,180,6|8,0:0|0:0,0:0:0:0:
446,53,65382,1,0,0:0:0:0:
448,144,65772,2,0,P|448:224|368:288,1,180,2|8,0:0|0:0,0:0:0:0:
224,192,67330,6,0,B|160:192|120:240|120:240|94:213|47:212,1,180,6|8,0:0|0:0,0:0:0:0:
56,304,68499,1,0,0:0:0:0:
144,328,68889,2,0,B|184:320|208:288|208:288|288:288|312:224,1,180,2|8,0:0|0:0,0:0:0:0:
384,90,70447,6,0,P|424:170|384:250,1,180,6|8,0:0|0:0,0:0:0:0:
298,249,71616,1,0,0:0:0:0:
216,208,72006,2,0,P|209:262|227:309,2,90,8|4|8,0:0|0:0|0:0,0:0:0:0:
258,128,73174,1,8,0:0:0:0:
208,48,73564,6,0,B|136:24|80:80|80:80|80:128,1,180,6|8,0:0|0:0,0:0:0:0:
80,304,75064,1,2,0:0:0:0:
224,192,75814,2,0,B|312:144|312:232|400:184,1,180,8|6,0:0|0:0,0:0:0:0:
256,72,77314,5,8,0:0:0:0:
120,192,78064,2,0,P|96:240|96:288,2,90,2|0|8,0:0|0:0|0:0,0:0:0:0:
296,152,79564,6,0,B|368:176|424:136|424:136|448:152|456:184,1,180,6|8,0:0|0:0,0:0:0:0:
368,336,81064,1,2,0:0:0:0:
192,336,81814,2,0,P|96:336|56:264,1,180,8|6,0:0|0:0,0:0:0:0:
56,88,83314,5,8,0:0:0:0:
200,192,84064,2,0,P|244:204|288:192,1,90,8|8,0:0|0:0,0:0:0:0:
348,128,84814,2,0,P|385:117|439:129,1,90,8|8,0:0|0:0,0:0:0:0:
392,208,85564,5,2,0:0:0:0:
392,208,88564,6,0,B|304:168|304:256|216:208,1,180,8|8,0:0|0:0,0:0:0:0:
52,148,90064,2,0,P|52:108|76:60,2,90,8|8|8,0:0|0:0|0:0,0:0:0:0:
112,216,91189,1,8,0:0:0:0:
184,168,91564,6,0,P|272:136|352:176,1,180,6|2,0:0|0:0,0:0:0:0:
400,240,92732,2,0,L|408:344,2,90,8|2|8,0:0|0:0|0:0,0:0:0:0:
456,168,93901,2,0,L|448:64,1,90,2|8,0:0|0:0,0:0:0:0:
376,24,94680,6,0,B|304:24|272:72|272:72|240:88|208:72,1,180,2|2,0:0|0:0,0:0:0:0:
80,72,96044,2,0,B|48:136|112:136|80:208,1,135,0|8,0:0|0:0,0:0:0:0:
64,288,97018,2,0,P|112:288|152:256,1,90,2|8,0:0|0:0,0:0:0:0:
200,192,97797,6,0,B|256:152|320:192|320:192|352:192|376:160,1,180,2|0,0:0|0:0,0:0:0:0:
400,88,98966,2,0,P|440:112|456:160,1,90,8|2,0:0|0:0,0:0:0:0:
427,236,99745,2,0,L|443:340,2,90,8|2|8,0:0|0:0|0:0,0:0:0:0:
365,171,100914,6,0,B|352:192|320:192|320:192|256:152|200:192,1,180,2|2,0:0|0:0,0:0:0:0:
114,295,102278,2,0,P|74:247|74:167,1,135,8|8,0:0|0:0,0:0:0:0:
104,96,103252,2,0,P|152:82|199:101,1,90,8|4,0:0|0:0,0:0:0:0:
256,152,104031,6,0,B|320:192|384:152|384:152|424:152|448:184,1,180,6|8,0:0|0:0,0:0:0:0:
432,296,105395,2,0,B|400:328|400:328|368:296|312:296,1,135,2|2,0:0|0:0,0:0:0:0:
232,328,106369,2,0,P|192:352|128:352,1,90,8|8,0:0|0:0,0:0:0:0:
72,312,107148,6,0,P|72:224|144:160,1,180,6|8,0:0|0:0,0:0:0:0:
256,104,108512,2,0,B|296:88|296:88|328:128|384:128,1,135,2|2,0:0|0:0,0:0:0:0:
456,168,109486,2,0,L|464:272,1,90,8|8,0:0|0:0,0:0:0:0:
408,328,110265,6,0,P|328:352|232:328,1,180,6|8,0:0|0:0,0:0:0:0:
120,264,111628,2,0,B|120:192|120:192|144:128,1,135,2|0,0:0|0:0,0:0:0:0:
120,48,112602,2,0,P|168:48|208:72,1,90,8|8,0:0|0:0,0:0:0:0:
256,144,113382,6,0,B|256:184|280:208|280:208|344:208|376:256,1,180,6|8,0:0|0:0,0:0:0:0:
274,344,114745,2,0,P|208:344|152:304,1,135,2|8,0:0|0:0,0:0:0:0:
96,232,115719,2,0,L|104:128,1,90,8|4,0:0|0:0,0:0:0:0:
40,72,116499,6,0,P|120:48|192:112,1,180,6|8,0:0|0:0,0:0:0:0:
240,280,117999,2,0,P|306:335|389:312,1,180,2|8,0:0|0:0,0:0:0:0:
464,152,119499,6,0,B|416:136|416:136|344:160|344:160|272:144,1,180,2|8,0:0|0:0,0:0:0:0:
144,48,120999,2,0,B|192:64|192:64|264:40|264:40|336:56,1,180,2|8,0:0|0:0,0:0:0:0:
352,232,122499,6,0,P|304:312|200:312,1,180,2|8,0:0|0:0,0:0:0:0:
40,320,123999,2,0,P|88:240|192:240,1,180,2|8,0:0|0:0,0:0:0:0:
328,320,125499,6,0,P|413:305|455:229,1,180,2|8,0:0|0:0,0:0:0:0:
400,56,126999,2,0,L|272:56,2,90,8|8|0,0:0|0:0|0:0,0:0:0:0:
456,128,128124,1,8,0:0:0:0:
368,152,128499,2,0,P|344:192|344:248,1,90,4|8,0:0|0:0,0:0:0:0:
293,310,129249,2,0,P|253:334|205:334,1,90,4|8,0:0|0:0,0:0:0:0:
120,336,129999,6,0,B|56:296|80:224|80:224|136:208,1,180,6|0,0:0|0:0,0:0:0:0:
304,168,131499,2,0,B|351:154|351:154|375:82|311:42,1,180,8|0,0:0|0:0,0:0:0:0:
128,40,132999,6,0,P|56:96|56:192,1,180,2|0,0:0|0:0,0:0:0:0:
232,184,134499,2,0,P|224:271|154:323,1,180,8|0,0:0|0:0,0:0:0:0:
152,144,135999,6,0,P|224:96|312:144,1,180,2|8,0:0|0:0,0:0:0:0:
304,312,137499,2,0,P|383:346|455:298,1,180,2|8,0:0|0:0,0:0:0:0:
456,120,138999,6,0,B|368:72|368:168|280:120,1,180,2|8,0:0|0:0,0:0:0:0:
128,40,140499,2,0,L|24:56,2,90,8|8|2,0:0|0:0|0:0,0:0:0:0:
209,78,141624,1,8,0:0:0:0:
160,152,141999,2,0,P|136:200|136:264,1,90,0|8,0:0|0:0,0:0:0:0:
216,264,142749,2,0,P|240:216|240:152,1,90,0|8,0:0|0:0,0:0:0:0:
296,112,143499,5,6,0:0:0:0:
296,112,146226,5,8,0:0:0:0:
384,112,146615,6,0,P|448:168|448:272,1,180,6|8,0:0|0:0,0:0:0:0:
408,336,147784,1,0,0:0:0:0:
328,296,148174,2,0,B|272:288|272:288|208:328|208:328|128:320,1,180,2|8,0:0|0:0,0:0:0:0:
72,312,149343,1,0,0:0:0:0:
128,240,149732,6,0,B|160:192|160:136|160:136|184:104|224:104,1,180,6|8,0:0|0:0,0:0:0:0:
304,80,150901,1,0,0:0:0:0:
344,160,151291,2,0,B|384:208|448:208|448:208|472:232|472:272,1,180,2|8,0:0|0:0,0:0:0:0:
304,328,152849,6,0,P|216:296|128:312,1,180,6|8,0:0|0:0,0:0:0:0:
48,344,154018,1,0,0:0:0:0:
56,256,154408,2,0,P|56:200|32:152,1,90,8|8,0:0|0:0,0:0:0:0:
48,80,155187,2,0,P|88:56|136:56,1,90,8|4,0:0|0:0,0:0:0:0:
216,88,155966,6,0,P|304:112|392:88,1,180,6|8,0:0|0:0,0:0:0:0:
472,120,157135,1,0,0:0:0:0:
464,208,157524,2,0,P|376:192|280:224,1,180,2|8,0:0|0:0,0:0:0:0:
240,292,158693,1,0,0:0:0:0:
160,336,159083,6,0,P|64:312|56:224,1,180,2|8,0:0|0:0,0:0:0:0:
80,160,160252,2,0,L|184:152,1,90,0|2,0:0|0:0,0:0:0:0:
232,88,161031,1,0,0:0:0:0:
304,144,161421,2,0,P|328:192|328:240,1,90,8|0,0:0|0:0,0:0:0:0:
272,296,162200,6,0,P|360:312|416:248,1,180,2|8,0:0|0:0,0:0:0:0:
448,168,163369,1,0,0:0:0:0:
392,96,163758,2,0,B|344:56|344:56|304:96|232:96,1,180,2|8,0:0|0:0,0:0:0:0:
154,58,164927,1,0,0:0:0:0:
88,120,165317,6,0,P|64:216|96:296,1,180,2|8,0:0|0:0,0:0:0:0:
168,336,166486,1,0,0:0:0:0:
240,288,166875,2,0,P|264:248|264:200,1,90,8|8,0:0|0:0,0:0:0:0:
208,136,167654,2,0,P|184:96|184:48,1,90,8|4,0:0|0:0,0:0:0:0:
272,72,168434,5,6,0:0:0:0:
256,192,168531,12,4,174667,0:0:0:0:
