osu file format v14

[General]
AudioFilename: audio.mp3
AudioLeadIn: 0
PreviewTime: 11750
Countdown: 0
SampleSet: Soft
StackLeniency: 0.7
Mode: 0
LetterboxInBreaks: 0
EpilepsyWarning: 1
WidescreenStoryboard: 1

[Editor]
Bookmarks: 85564,88564,129999,131499,143499,146615,155966,168434
DistanceSpacing: 1.1
BeatDivisor: 4
GridSize: 4
TimelineZoom: 1.7

[Metadata]
Title:Carrion
TitleUnicode:Carrion
Artist:Parkway Drive
ArtistUnicode:Parkway Drive
Creator:DavidEd
Version:Normal
Source:
Tags:metalcore hardcore punk horizons epitaph records
BeatmapID:1092497
BeatmapSetID:514196

[Difficulty]
HPDrainRate:3
CircleSize:3
OverallDifficulty:3
ApproachRate:4
SliderMultiplier:1.1
SliderTickRate:1

[Events]
//Background and Video events
0,0,"bg.jpg",0,0
//Break Periods
2,85764,87244
2,143699,144906
//Storyboard Layer 0 (Background)
Sprite,Background,TopLeft,"bg.jpg",0,0
Sprite,Background,Centre,"bg.jpg",320,240 S,0,105415,,0.625 F,0,105415,110932,1 F,2,110932,112312,1,0
//Storyboard Layer 1 (Fail)
//Storyboard Layer 2 (Pass)
//Storyboard Layer 3 (Foreground)
//Storyboard Sound Samples

[TimingPoints]
160,389.61038961039,4,2,1,40,1,0
160,-133.333333333333,4,2,1,40,0,0
12627,-100,4,1,1,60,0,0
25097,375,4,1,1,50,1,0
27347,-100,4,3,1,60,0,0
27722,-100,4,1,1,50,0,0
28097,-100,4,1,1,55,0,0
37097,-100,4,1,1,50,0,0
48347,-100,4,3,1,60,0,0
48722,-100,4,1,1,50,0,0
49097,-100,4,1,1,55,0,0
59597,-100,4,3,1,65,0,0
60347,-100,4,1,1,55,0,0
61097,389.61038961039,4,1,1,60,1,0
72006,-100,4,3,1,60,0,0
72785,-100,4,1,1,60,0,0
73564,375,4,1,1,50,1,0
84814,-100,4,3,1,50,0,0
85189,-100,4,1,1,50,0,0
90814,-100,4,3,1,60,0,0
91189,-100,4,1,1,50,0,0
91564,389.61038961039,4,1,2,60,1,0
104031,-100,4,1,2,55,0,0
116109,-100,4,3,2,65,0,0
116499,375,4,1,1,50,1,0
142749,-100,4,3,1,50,0,0
143499,389.61038961039,4,1,1,50,1,0
146615,-100,4,1,1,60,0,0
155576,-100,4,3,1,60,0,0
155966,-100,4,1,1,65,0,1
167849,-100,4,3,1,65,0,1
168434,-100,4,1,1,65,0,0
169992,-100,4,1,1,55,0,0
171550,-100,4,1,1,45,0,0
173109,-100,4,1,1,35,0,0
174667,-100,4,1,1,25,0,0

[Colours]
Combo1 : 255,255,0
Combo2 : 255,128,0
Combo3 : 0,255,255
Combo4 : 115,115,185

[HitObjects]
140,140,160,6,0,B|164:116|200:116|200:116|224:144|224:144|256:144|284:132,1,165.000006294251,2|0,0:0|0:0,0:0:0:0:
412,92,1523,2,0,L|419:215,1,123.750004720688,2|0,0:0|0:0,0:0:0:0:
420,308,2497,2,0,P|376:296|340:264,1,82.5000031471254,2|0,0:0|0:0,0:0:0:0:
276,216,3276,6,0,B|248:184|248:136|248:136|212:160|164:160,1,165.000006294251,2|0,0:0|0:0,0:0:0:0:
52,220,4640,2,0,P|44:264|52:300,1,82.5000031471254,2|0,0:0|0:0,0:0:0:0:
88,328,5224,2,0,L|132:324,1,41.2500015735627,2|0,0:0|0:0,0:0:0:0:
168,300,5614,2,0,L|209:303,1,41.2500015735627,2|0,0:0|0:0,0:0:0:0:
256,308,6004,1,2,0:0:0:0:
332,256,6393,6,0,P|368:184|328:100,1,165.000006294251,2|0,0:0|0:0,0:0:0:0:
204,84,7757,2,0,B|160:76|160:76|160:120|143:152,1,123.750004720688,2|0,0:0|0:0,0:0:0:0:
92,228,8731,2,0,P|129:243|172:240,1,82.5000031471254,2|0,0:0|0:0,0:0:0:0:
256,208,9510,6,0,P|317:157|336:64,1,165.000006294251,2|0,0:0|0:0,0:0:0:0:
204,84,10874,2,0,B|160:76|160:76|160:120|143:152,1,123.750004720688,2|0,0:0|0:0,0:0:0:0:
76,214,11848,1,0,0:0:0:0:
288,328,12627,6,0,P|376:328|448:216,1,220,6|8,0:0|0:0,0:0:0:0:
424,112,13796,2,0,L|360:112,1,55,0|2,0:0|0:0,0:0:0:0:
320,144,14185,2,0,P|280:168|208:168,1,110
112,112,14965,2,0,L|96:48,2,55,8|0|0,0:0|0:0|0:0,0:0:0:0:
56,216,15744,6,0,P|88:304|208:304,1,220,6|8,0:0|0:0,0:0:0:0:
288,224,16913,1,0,0:0:0:0:
400,272,17302,2,0,L|408:344,2,55,2|0|0,0:0|0:0|0:0,0:0:0:0:
440,224,17887,1,0,0:0:0:0:
459,166,18082,2,0,P|454:97|408:46,1,110,8|0,0:0|0:0,0:0:0:0:
320,112,18861,6,0,B|232:144|176:96|176:96|128:144,1,220,6|8,0:0|0:0,0:0:0:0:
72,256,20030,2,0,L|80:328,1,55,0|2,0:0|0:0,0:0:0:0:
136,328,20419,2,0,P|192:328|256:304,1,110
360,304,21198,2,0,L|368:376,2,55,8|0|0,0:0|0:0|0:0,0:0:0:0:
416,200,21978,6,0,L|409:145,2,55,6|0|0,0:0|0:0|0:0,0:0:0:0:
360,224,22562,2,0,B|304:232|304:232|240:208,1,110
200,192,23147,2,0,L|192:128,1,55,0|2,0:0|0:0,0:0:0:0:
168,80,23536,2,0,P|120:64|48:96,2,110,0|0|8,0:0|0:0|0:0,0:0:0:0:
280,128,24705,1,0,0:0:0:0:
400,80,25097,6,0,B|408:191|408:191|432:248,2,165,6|2|2,0:0|0:0|0:0,0:0:0:0:
288,40,26597,2,0,P|232:40|168:64,1,110
96,144,27347,2,0,L|104:208,1,55,8|4,0:0|0:0,0:0:0:0:
112,256,27722,1,12,0:0:0:0:
224,304,28097,6,0,L|208:184,1,110,6|8,0:0|0:0,0:0:0:0:
248,80,28847,1,2,0:0:0:0:
336,160,29222,2,0,L|344:224,1,55,8|0,0:0|0:0,0:0:0:0:
384,256,29597,2,0,P|432:232|504:232,2,110,2|8|2,0:0|0:0|0:0,0:0:0:0:
296,336,30722,1,8,0:0:0:0:
208,256,31097,6,0,P|160:232|88:232,1,110,2|8,0:0|0:0,0:0:0:0:
56,120,31847,1,2,0:0:0:0:
152,48,32222,2,0,L|224:48,1,55,8|0,0:0|0:0,0:0:0:0:
264,48,32597,2,0,P|320:64|352:112,1,110,2|8,0:0|0:0,0:0:0:0:
352,224,33347,2,0,P|376:254|457:281,1,110,2|8,0:0|0:0,0:0:0:0:
452,164,34097,5,2,0:0:0:0:
349,104,34472,2,0,L|280:104,1,55,8|0,0:0|0:0,0:0:0:0:
248,144,34847,2,0,P|199:158|136:140,1,110,2|8,0:0|0:0,0:0:0:0:
32,88,35597,2,0,P|16:144|32:200,1,110,2|8,0:0|0:0,0:0:0:0:
144,240,36347,2,0,L|152:296,1,55,8|2,0:0|0:0,0:0:0:0:
160,352,36722,1,8,0:0:0:0:
272,304,37097,6,0,P|320:280|384:280,1,110,6|0,0:0|0:0,0:0:0:0:
488,240,37847,2,0,L|488:168,1,55,8|0,0:0|0:0,0:0:0:0:
488,128,38222,1,2,0:0:0:0:
384,64,38597,2,0,P|329:65|280:89,1,110,0|2,0:0|0:0,0:0:0:0:
224,200,39347,2,0,B|224:232|248:256|248:256|296:256|312:296|312:296|280:336|280:336|240:336,1,220,8|6,0:0|0:0,0:0:0:0:
136,336,40472,5,0,0:0:0:0:
64,240,40847,2,0,L|64:168,1,55,8|0,0:0|0:0,0:0:0:0:
64,128,41222,1,2,0:0:0:0:
160,56,41597,2,0,P|216:56|264:88,1,110,0|2,0:0|0:0,0:0:0:0:
352,168,42347,2,0,B|400:192|456:192|456:192|416:240|416:312,1,220,8|6,0:0|0:0,0:0:0:0:
304,344,43472,5,0,0:0:0:0:
232,248,43847,2,0,L|168:248,1,55,8|0,0:0|0:0,0:0:0:0:
120,248,44222,1,2,0:0:0:0:
56,144,44597,2,0,P|112:144|168:112,1,110,0|2,0:0|0:0,0:0:0:0:
256,48,45347,2,0,B|320:16|376:56|376:56|312:128,1,220,8|6,0:0|0:0,0:0:0:0:
240,216,46472,5,0,0:0:0:0:
336,288,46847,2,0,L|392:288,2,55,8|0|2,0:0|0:0|0:0,0:0:0:0:
240,216,47597,2,0,P|192:200|128:224,1,110,8|8,0:0|0:0,0:0:0:0:
40,288,48347,2,0,L|48:352,2,55,8|4|8,0:0|0:0|0:0,0:0:0:0:
24,168,49097,6,0,P|40:120|96:80,1,110,6|8,0:0|0:0,0:0:0:0:
200,40,49847,1,2,0:0:0:0:
224,160,50222,1,8,0:0:0:0:
336,112,50597,2,0,L|336:40,2,55,2|0|8,0:0|0:0|0:0,0:0:0:0:
336,176,51159,2,0,P|312:232|264:264,1,110
216,280,51722,1,8,0:0:0:0:
96,264,52097,6,0,P|53:230|33:179,1,110,2|8,0:0|0:0,0:0:0:0:
64,64,52847,2,0,L|136:64,1,55,2|0,0:0|0:0,0:0:0:0:
176,64,53222,1,8,0:0:0:0:
272,136,53597,2,0,P|328:136|384:104,1,110,2|8,0:0|0:0,0:0:0:0:
472,40,54347,1,2,0:0:0:0:
496,160,54722,2,0,L|488:224,1,55,8|0,0:0|0:0,0:0:0:0:
480,272,55097,6,0,P|431:247|376:248,1,110,2|8,0:0|0:0,0:0:0:0:
264,288,55847,2,0,L|257:342,2,55,2|0|8,0:0|0:0|0:0,0:0:0:0:
264,227,56409,2,0,P|215:202|160:203,1,110
103,222,56972,1,8,0:0:0:0:
56,112,57347,2,0,P|110:112|158:87,1,110,2|8,0:0|0:0,0:0:0:0:
272,40,58097,6,0,L|280:160,1,110,12|0,0:0|0:0,0:0:0:0:
336,168,58659,2,0,L|344:312,1,110,8|0,0:0|0:0,0:0:0:0:
392,320,59222,1,8,0:0:0:0:
464,224,59597,2,0,P|464:168|432:112,1,110,8|4,0:0|0:0,0:0:0:0:
344,48,60347,2,0,L|280:48,2,55,8|8|8,0:0|0:0|0:0,0:0:0:0:
336,168,61097,6,0,P|256:240|128:224,1,220,6|8,0:0|0:0,0:0:0:0:
48,168,62265,2,0,L|51:111,1,55
55,52,62655,2,0,P|111:68|167:60,1,110,2|2,0:0|0:0,0:0:0:0:
282,48,63434,2,0,L|289:102,1,55,8|0,0:0|0:0,0:0:0:0:
296,162,63824,1,0,0:0:0:0:
184,208,64213,6,0,P|120:240|200:328,1,220,6|8,0:0|0:0,0:0:0:0:
288,272,65382,1,0,0:0:0:0:
408,296,65772,2,0,L|416:360,2,55,0|2|2,0:0|0:0|0:0,0:0:0:0:
448,248,66356,2,0,L|440:168,1,55,0|8,0:0|0:0,0:0:0:0:
424,72,66941,1,0,0:0:0:0:
328,144,67330,6,0,B|240:144|192:80|192:80|128:120,1,220,6|8,0:0|0:0,0:0:0:0:
32,176,68499,2,0,L|40:264,1,55
48,288,68889,2,0,P|104:288|168:320,1,110,2|2,0:0|0:0,0:0:0:0:
272,304,69668,2,0,L|280:392,2,55,8|0|0,0:0|0:0|0:0,0:0:0:0:
200,208,70447,6,0,P|304:208|384:112,1,220,6|8,0:0|0:0,0:0:0:0:
296,40,71616,2,0,L|224:40,1,55,0|2,0:0|0:0,0:0:0:0:
192,80,72006,2,0,L|72:80,2,110,8|4|8,0:0|0:0|0:0,0:0:0:0:
288,152,73174,1,8,0:0:0:0:
392,80,73564,6,0,P|432:128|432:192,1,110,6|0,0:0|0:0,0:0:0:0:
440,296,74314,2,0,L|376:312,1,55,8|0,0:0|0:0,0:0:0:0:
328,328,74689,1,2,0:0:0:0:
208,304,75064,2,0,P|168:256|168:192,1,110,0|2,0:0|0:0,0:0:0:0:
216,104,75814,2,0,B|200:48|152:32|152:32|136:104|80:144,1,220,8|6,0:0|0:0,0:0:0:0:
48,248,76939,5,0,0:0:0:0:
136,328,77314,2,0,L|208:328,1,55,8|0,0:0|0:0,0:0:0:0:
248,328,77689,1,2,0:0:0:0:
368,328,78064,2,0,P|408:280|408:216,1,110,0|2,0:0|0:0,0:0:0:0:
456,120,78814,2,0,B|352:72|352:184|232:112,1,220,8|6,0:0|0:0,0:0:0:0:
144,48,79939,5,0,0:0:0:0:
80,152,80314,2,0,L|88:224,1,55,8|0,0:0|0:0,0:0:0:0:
96,264,80689,1,2,0:0:0:0:
208,224,81064,2,0,P|264:224|312:256,1,110,0|2,0:0|0:0,0:0:0:0:
408,328,81814,2,0,B|464:304|464:248|464:248|400:232|368:168,1,220,8|6,0:0|0:0,0:0:0:0:
384,56,82939,5,0,0:0:0:0:
280,120,83314,2,0,L|216:120,1,55,8|0,0:0|0:0,0:0:0:0:
168,120,83689,1,2,0:0:0:0:
58,67,84064,2,0,P|45:124|59:179,1,110,8|8,0:0|0:0,0:0:0:0:
147,253,84814,2,0,L|219:253,2,55,8|4|8,0:0|0:0|0:0,0:0:0:0:
46,320,85564,5,6,0:0:0:0:
64,320,88564,6,0,L|70:210,1,110,12|8,0:0|0:0,0:0:0:0:
56,88,89314,2,0,P|112:72|160:88,1,110,8|8,0:0|0:0,0:0:0:0:
256,160,90064,2,0,P|312:176|360:160,1,110,8|8,0:0|0:0,0:0:0:0:
464,96,90814,1,8,0:0:0:0:
448,216,91189,2,0,L|456:288,1,55,8|8,0:0|0:0,0:0:0:0:
440,328,91564,6,0,P|388:311|336:327,1,110,6|8,0:0|0:0,0:0:0:0:
216,328,92343,2,0,P|184:288|184:216,1,110,2|8,0:0|0:0,0:0:0:0:
216,184,92927,2,0,L|328:168,1,110,2|2,0:0|0:0,0:0:0:0:
368,128,93512,1,8,0:0:0:0:
280,48,93901,2,0,L|171:63,1,110,2|8,0:0|0:0,0:0:0:0:
72,136,94680,6,0,P|64:192|80:248,1,110,2|8,0:0|0:0,0:0:0:0:
192,288,95460,2,0,L|200:360,2,55,2|2|8,0:0|0:0|0:0,0:0:0:0:
208,232,96044,2,0,P|256:208|336:208,1,110,2|2,0:0|0:0,0:0:0:0:
368,216,96628,1,8,0:0:0:0:
456,128,97018,2,0,P|401:123|352:99,1,110,2|8,0:0|0:0,0:0:0:0:
248,40,97797,5,2,0:0:0:0:
208,152,98187,1,8,0:0:0:0:
96,104,98576,2,0,L|72:40,2,55,2|2|8,0:0|0:0|0:0,0:0:0:0:
112,160,99161,2,0,P|112:216|88:272,1,110,2|2,0:0|0:0,0:0:0:0:
56,312,99745,1,8,0:0:0:0:
176,336,100135,2,0,P|232:336|296:296,1,110,2|8,0:0|0:0,0:0:0:0:
384,248,100914,6,0,L|392:128,1,110,2|8,0:0|0:0,0:0:0:0:
280,96,101693,2,0,L|288:24,2,55,2|2|8,0:0|0:0|0:0,0:0:0:0:
272,152,102278,2,0,P|223:175|168:175,1,110,2|8,0:0|0:0,0:0:0:0:
104,176,102862,2,0,L|96:248,1,55,8|0,0:0|0:0,0:0:0:0:
96,288,103252,2,0,L|40:296,2,55,8|0|8,0:0|0:0|0:0,0:0:0:0:
208,336,104031,6,0,L|320:320,1,110,6|0,0:0|0:0,0:0:0:0:
424,264,104810,2,0,P|440:208|424:160,1,110,8|0,0:0|0:0,0:0:0:0:
384,120,105395,2,0,L|275:135,1,110,2|8,0:0|0:0,0:0:0:0:
216,144,105979,1,2,0:0:0:0:
96,112,106369,2,0,L|88:48,2,55,8|2|8,0:0|0:0|0:0,0:0:0:0:
64,232,107148,6,0,P|80:288|120:328,1,110,6|0,0:0|0:0,0:0:0:0:
232,288,107927,2,0,P|280:264|344:264,1,110,8|0,0:0|0:0,0:0:0:0:
392,272,108512,2,0,P|428:231|442:179,1,110,2|8,0:0|0:0,0:0:0:0:
456,120,109096,1,2,0:0:0:0:
360,48,109486,2,0,L|272:48,2,55,8|2|8,0:0|0:0|0:0,0:0:0:0:
304,160,110265,6,0,P|248:160|200:136,1,110,6|0,0:0|0:0,0:0:0:0:
96,80,111044,2,0,L|88:200,1,110,8|0,0:0|0:0,0:0:0:0:
80,248,111628,2,0,P|128:271|183:271,1,110,2|8,0:0|0:0,0:0:0:0:
240,256,112213,1,2,0:0:0:0:
344,320,112602,2,0,L|432:320,2,55,8|2|8,0:0|0:0|0:0,0:0:0:0:
344,200,113382,6,0,P|368:152|368:88,1,110,6|0,0:0|0:0,0:0:0:0:
256,64,114161,2,0,P|232:112|232:176,1,110,8|0,0:0|0:0,0:0:0:0:
224,224,114745,2,0,L|112:232,1,110,2|8,0:0|0:0,0:0:0:0:
56,208,115330,2,0,L|48:144,1,55,8|2,0:0|0:0,0:0:0:0:
88,104,115719,2,0,L|80:40,2,55,8|2|8,0:0|0:0|0:0,0:0:0:0:
208,136,116499,6,0,B|296:136|328:72|328:72|368:72|400:96,1,220,6|8,0:0|0:0,0:0:0:0:
472,192,117624,1,0,0:0:0:0:
400,288,117999,2,0,B|369:311|329:311|329:311|297:247|209:247,1,220,2|8,0:0|0:0,0:0:0:0:
112,320,119124,1,0,0:0:0:0:
16,248,119499,6,0,B|56:200|112:200|112:200|112:144|184:104,1,220,2|8,0:0|0:0,0:0:0:0:
256,32,120624,1,0,0:0:0:0:
342,112,120999,2,0,B|400:144|400:200|400:200|456:200|496:248,1,220,2|8,0:0|0:0,0:0:0:0:
400,320,122124,1,0,0:0:0:0:
288,280,122499,6,0,B|216:280|216:280|184:288|152:320|152:320|56:320,1,220,2|8,0:0|0:0,0:0:0:0:
24,216,123624,1,0,0:0:0:0:
80,112,123999,2,0,B|151:112|151:112|183:144|215:152|215:152|287:152,1,220,2|8,0:0|0:0,0:0:0:0:
392,88,125124,1,0,0:0:0:0:
456,192,125499,6,0,P|456:296|352:328,1,220,2|8,0:0|0:0,0:0:0:0:
254,270,126624,1,0,0:0:0:0:
288,152,126999,6,0,L|361:152,2,55,4|0|8,0:0|0:0|0:0,0:0:0:0:
240,112,127561,2,0,P|192:80|120:80,1,110,0|2,0:0|0:0,0:0:0:0:
80,88,128124,1,8,0:0:0:0:
48,136,128311,2,0,L|48:256,1,110,6|2,0:0|0:0,0:0:0:0:
88,296,128874,1,8,0:0:0:0:
144,312,129061,2,0,P|198:305|242:275,1,110,6|2,0:0|0:0,0:0:0:0:
280,232,129624,1,8,0:0:0:0:
352,136,129999,6,0,B|392:96|448:96|448:96|424:32|336:32,1,220,6|0,0:0|0:0,0:0:0:0:
256,88,131124,1,0,0:0:0:0:
152,32,131499,2,0,B|88:32|65:94|65:94|121:94|161:134,1,220,8|0,0:0|0:0,0:0:0:0:
256,200,132624,1,0,0:0:0:0:
200,304,132999,6,0,P|120:320|168:216,1,220,2|0,0:0|0:0,0:0:0:0:
256,200,134124,1,0,0:0:0:0:
378,216,134499,2,0,P|406:306|312:304,1,220,8|0,0:0|0:0,0:0:0:0:
256,200,135624,2,0,L|256:144,1,55,2|2,0:0|0:0,0:0:0:0:
256,88,135999,6,0,B|224:48|160:48|160:48|160:112|112:144,1,220,6|8,0:0|0:0,0:0:0:0:
48,248,137124,2,0,L|112:248,1,55,2|2,0:0|0:0,0:0:0:0:
160,248,137499,2,0,B|208:280|208:344|208:344|272:344|304:304,1,220,2|8,0:0|0:0,0:0:0:0:
400,232,138624,2,0,L|400:152,1,55,2|2,0:0|0:0,0:0:0:0:
398,116,138999,6,0,B|294:52|294:172|182:116,1,220,2|8,0:0|0:0,0:0:0:0:
95,45,140124,1,8,0:0:0:0:
56,160,140499,6,0,L|-8:160,2,55,12|8|0,0:0|0:0|0:0,0:0:0:0:
112,168,141061,2,0,P|136:216|136:288,1,110,8|8,0:0|0:0,0:0:0:0:
165,326,141624,1,2,0:0:0:0:
224,320,141811,2,0,P|272:296|328:296,1,110,8|2,0:0|0:0,0:0:0:0:
384,280,142374,2,0,L|392:208,1,55,8|2,0:0|0:0,0:0:0:0:
408,168,142749,2,0,P|353:168|304:143,1,110,8|4,0:0|0:0,0:0:0:0:
256,40,143499,5,6,0:0:0:0:
256,40,146226,5,8,0:0:0:0:
168,120,146615,6,0,B|128:168|72:168|72:168|48:224|80:280,1,220,6|8,0:0|0:0,0:0:0:0:
176,336,147784,1,0,0:0:0:0:
280,280,148174,2,0,L|296:352,2,55,0|2|2,0:0|0:0|0:0,0:0:0:0:
224,256,148758,2,0,L|212:202,1,55,0|8,0:0|0:0,0:0:0:0:
184,80,149343,1,2,0:0:0:0:
296,128,149732,6,0,B|360:128|400:96|400:96|456:120|456:184,1,220,6|8,0:0|0:0,0:0:0:0:
424,296,150901,2,0,L|360:296,1,55,0|2,0:0|0:0,0:0:0:0:
312,312,151291,2,0,P|264:344|192:344,1,110,0|2,0:0|0:0,0:0:0:0:
104,288,152070,2,0,L|24:288,2,55,8|0|0,0:0|0:0|0:0,0:0:0:0:
210,229,152849,6,0,B|210:173|178:125|178:125|202:69|274:69,1,220,6|8,0:0|0:0,0:0:0:0:
385,53,154018,2,0,L|393:125,1,55,0|2,0:0|0:0,0:0:0:0:
412,164,154408,2,0,P|356:164|300:204,2,110,2|8|8,0:0|0:0|0:0,0:0:0:0:
388,284,155576,1,8,0:0:0:0:
282,343,155966,6,0,P|226:343|170:303,1,110,6|0,0:0|0:0,0:0:0:0:
86,240,156745,1,8,0:0:0:0:
200,192,157135,2,0,L|208:120,1,55
213,77,157524,2,0,P|269:77|317:45,1,110,2|0,0:0|0:0,0:0:0:0:
426,3,158304,1,8,0:0:0:0:
457,119,158693,1,0,0:0:0:0:
344,168,159083,6,0,P|288:168|240:200,1,110,2|0,0:0|0:0,0:0:0:0:
152,272,159862,1,8,0:0:0:0:
56,200,160252,2,0,L|49:145,1,55
40,88,160641,2,0,P|88:56|152:56,1,110,2|0,0:0|0:0,0:0:0:0:
248,104,161421,2,0,P|292:134|346:139,1,110,8|0,0:0|0:0,0:0:0:0:
464,176,162200,5,6,0:0:0:0:
424,288,162589,1,0,0:0:0:0:
312,248,162979,2,0,P|256:248|200:280,1,110,8|0,0:0|0:0,0:0:0:0:
96,320,163758,2,0,L|80:200,1,110,2|0,0:0|0:0,0:0:0:0:
48,96,164537,2,0,L|128:88,1,55,8|0,0:0|0:0,0:0:0:0:
160,80,164927,1,0,0:0:0:0:
256,152,165317,6,0,P|312:152|368:120,1,110,2|0,0:0|0:0,0:0:0:0:
464,72,166096,2,0,L|472:128,1,55,8|0,0:0|0:0,0:0:0:0:
480,184,166486,1,0,0:0:0:0:
456,304,166875,2,0,P|408:328|344:328,1,110,8|8,0:0|0:0,0:0:0:0:
240,288,167654,2,0,L|160:304,2,55,8|8|4,0:0|0:0|0:0,0:0:0:0:
328,208,168434,5,6,0:0:0:0:
256,192,168531,12,4,174667,0:0:0:0:
