osu file format v14

[General]
AudioFilename: audio.mp3
AudioLeadIn: 0
PreviewTime: 11750
Countdown: 0
SampleSet: Normal
StackLeniency: 0.7
Mode: 0
LetterboxInBreaks: 0
EpilepsyWarning: 1
WidescreenStoryboard: 1

[Editor]
Bookmarks: 43378,85564,88564,129999,131499,143499,146615,155966,168434
DistanceSpacing: 1.2
BeatDivisor: 4
GridSize: 4
TimelineZoom: 2

[Metadata]
Title:Carrion
TitleUnicode:Carrion
Artist:Parkway Drive
ArtistUnicode:Parkway Drive
Creator:DavidEd
Version:Hard
Source:
Tags:metalcore hardcore punk horizons epitaph records
BeatmapID:1093066
BeatmapSetID:514196

[Difficulty]
HPDrainRate:5
CircleSize:4
OverallDifficulty:6
ApproachRate:7.5
SliderMultiplier:1.4
SliderTickRate:1

[Events]
//Background and Video events
0,0,"bg.jpg",0,0
//Break Periods
2,85764,87739
2,143699,145206
//Storyboard Layer 0 (Background)
Sprite,Background,TopLeft,"bg.jpg",0,0
Sprite,Background,Centre,"bg.jpg",320,240 S,0,105415,,0.625 F,0,105415,110932,1 F,2,110932,112312,1,0
//Storyboard Layer 1 (Fail)
//Storyboard Layer 2 (Pass)
//Storyboard Layer 3 (Foreground)
//Storyboard Sound Samples

[TimingPoints]
160,389.61038961039,4,2,1,40,1,0
160,-133.333333333333,4,2,1,40,0,0
12627,-100,4,1,1,60,0,0
25097,375,4,1,1,50,1,0
27347,-100,4,3,1,60,0,0
27722,-100,4,1,1,60,0,0
28097,-100,4,1,1,55,0,0
37097,-100,4,1,1,50,0,0
39347,-133.333333333333,4,1,1,50,0,0
40097,-100,4,1,1,50,0,0
42347,-133.333333333333,4,1,1,50,0,0
43097,-100,4,1,1,50,0,0
45347,-133.333333333333,4,1,1,50,0,0
46097,-100,4,1,1,50,0,0
48347,-100,4,3,1,60,0,0
48722,-100,4,1,1,50,0,0
49097,-100,4,1,1,55,0,0
59972,-100,4,3,1,55,0,0
60159,-100,4,1,1,55,0,0
60347,-100,4,1,1,55,0,0
60534,-100,4,1,1,55,0,0
60722,-100,4,1,1,55,0,0
61097,389.61038961039,4,1,1,60,1,0
72200,-100,4,3,1,60,0,0
72785,-100,4,1,1,60,0,0
73564,375,4,1,1,50,1,0
75814,-133.333333333333,4,1,1,50,0,0
76564,-100,4,1,1,50,0,0
78814,-133.333333333333,4,1,1,50,0,0
79564,-100,4,1,1,50,0,0
81814,-133.333333333333,4,1,1,50,0,0
82564,-100,4,1,1,50,0,0
84814,-100,4,3,1,50,0,0
85189,-100,4,1,1,50,0,0
91564,389.61038961039,4,1,2,60,1,0
104031,-100,4,1,2,55,0,0
115914,-100,4,3,2,65,0,0
116499,375,4,1,1,50,1,0
129999,-133.333333333333,4,1,1,50,0,0
140499,-100,4,1,1,50,0,0
142936,-100,4,3,1,60,0,0
143124,-100,4,3,1,50,0,0
143311,-100,4,3,1,60,0,0
143499,389.61038961039,4,1,1,50,1,0
146615,-100,4,1,1,60,0,0
154408,-100,4,1,1,40,0,0
154602,-100,4,1,1,60,0,0
155382,-100,4,1,1,60,0,0
155674,-100,4,3,1,60,0,0
155966,-90.9090909090909,4,1,1,65,0,1
167849,-90.9090909090909,4,3,1,65,0,1
168434,-100,4,1,1,65,0,0
169992,-100,4,1,1,55,0,0
171550,-100,4,1,1,45,0,0
173109,-100,4,1,1,35,0,0
174667,-100,4,1,1,25,0,0

[Colours]
Combo1 : 255,255,0
Combo2 : 255,128,0
Combo3 : 0,255,255
Combo4 : 115,115,185

[HitObjects]
336,128,160,6,0,B|376:160|376:216|376:216|344:272|272:272,1,210.000008010865,2|0,0:0|0:0,0:0:0:0:
112,200,1523,2,0,B|62:179|62:179|34:237|85:282,1,157.500006008148,2|0,0:0|0:0,0:0:0:0:
200,232,2497,2,0,L|240:128,1,105.000004005432,2|0,0:0|0:0,0:0:0:0:
360,48,3276,6,0,B|400:80|400:128|400:128|376:152|376:184|376:184|440:216,1,210.000008010865,2|0,0:0|0:0,0:0:0:0:
280,328,4640,2,0,B|216:304|216:304|168:312,1,105.000004005432,2|0,0:0|0:0,0:0:0:0:
96,328,5224,1,2,0:0:0:0:
120,248,5419,1,0,0:0:0:0:
40,264,5614,2,0,P|42:228|58:197,1,52.5000020027161,2|0,0:0|0:0,0:0:0:0:
114,170,6004,1,2,0:0:0:0:
272,232,6393,6,0,B|368:280|368:176|480:240,1,210.000008010865,2|0,0:0|0:0,0:0:0:0:
304,328,7757,2,0,P|232:328|176:256,1,157.500006008148,2|0,0:0|0:0,0:0:0:0:
224,152,8731,2,0,L|344:128,1,105.000004005432,2|0,0:0|0:0,0:0:0:0:
200,64,9510,6,0,B|104:88|104:88|64:136|96:200,1,210.000008010865,2|0,0:0|0:0,0:0:0:0:
256,288,10874,2,0,P|312:288|352:256,1,105.000004005432,2|0,0:0|0:0,0:0:0:0:
424,216,11458,2,0,L|432:160,1,52.5000020027161
440,80,11848,1,0,0:0:0:0:
208,56,12627,6,0,P|192:120|216:192,1,140,6|0,0:0|0:0,0:0:0:0:
280,240,13211,1,0,0:0:0:0:
240,312,13406,2,0,P|200:312|160:328,1,70,8|0,0:0|0:0,0:0:0:0:
96,280,13796,2,0,P|96:248|80:200,1,70,0|2,0:0|0:0,0:0:0:0:
48,136,14185,6,0,P|64:88|152:48,1,140
304,48,14965,1,8,0:0:0:0:
264,120,15160,1,0,0:0:0:0:
344,120,15354,2,0,P|376:120|416:136,1,70
464,232,15744,6,0,P|392:232|336:272,1,140,6|0,0:0|0:0,0:0:0:0:
272,320,16328,1,0,0:0:0:0:
200,272,16523,2,0,P|168:256|128:256,1,70,8|0,0:0|0:0,0:0:0:0:
72,200,16913,2,0,P|72:168|96:128,1,70,0|2,0:0|0:0,0:0:0:0:
104,56,17302,5,0,0:0:0:0:
176,104,17497,1,0,0:0:0:0:
200,24,17692,1,0,0:0:0:0:
264,72,17887,1,0,0:0:0:0:
240,152,18082,2,0,P|288:200|360:200,1,140,8|0,0:0|0:0,0:0:0:0:
488,16,18861,6,0,B|491:84|491:84|456:112|456:152,1,140,6|0,0:0|0:0,0:0:0:0:
480,224,19445,1,0,0:0:0:0:
456,304,19640,2,0,P|424:328|376:328,1,70,8|0,0:0|0:0,0:0:0:0:
320,288,20030,2,0,P|293:266|259:259,1,70,0|2,0:0|0:0,0:0:0:0:
184,296,20419,6,0,P|136:328|48:304,1,140
56,144,21198,1,8,0:0:0:0:
128,184,21393,1,0,0:0:0:0:
128,96,21588,2,0,P|160:80|200:80,1,70
296,120,21978,6,0,P|328:136|368:136,2,70,6|0|0,0:0|0:0|0:0,0:0:0:0:
352,56,22562,2,0,P|416:72|448:136,1,140
448,216,23147,2,0,L|376:232,1,70,0|2,0:0|0:0,0:0:0:0:
320,288,23536,6,0,P|256:256|184:272,1,140
40,336,24315,1,8,0:0:0:0:
96,272,24510,1,0,0:0:0:0:
40,208,24705,2,0,P|40:176|64:136,1,70
152,72,25097,6,0,B|256:24|256:120|360:64,2,210,6|2|2,0:0|0:0|0:0,0:0:0:0:
184,264,26597,1,0,0:0:0:0:
184,264,26784,2,0,P|256:288|320:256,1,140
384,200,27347,6,0,L|408:232,3,35,8|8|4|4,0:0|0:0|0:0|0:0,0:0:0:0:
432,264,27722,1,8,0:0:0:0:
504,200,27909,1,0,0:0:0:0:
448,88,28097,6,0,P|392:56|312:56,1,140,6|8,0:0|0:0,0:0:0:0:
248,120,28659,1,2,0:0:0:0:
320,192,28847,2,0,P|336:232|336:272,1,70,0|2,0:0|0:0,0:0:0:0:
240,280,29222,2,0,P|224:240|224:200,1,70,8|0,0:0|0:0,0:0:0:0:
248,120,29597,6,0,P|194:65|132:57,1,140,0|8,0:0|0:0,0:0:0:0:
150,160,30159,1,2,0:0:0:0:
72,232,30347,2,0,P|72:272|88:312,1,70,0|2,0:0|0:0,0:0:0:0:
168,344,30722,2,0,P|208:328|256:328,1,70,8|0,0:0|0:0,0:0:0:0:
360,336,31097,6,0,P|424:336|464:272,1,140,2|8,0:0|0:0,0:0:0:0:
480,184,31659,1,2,0:0:0:0:
384,184,31847,1,0,0:0:0:0:
384,184,32034,1,2,0:0:0:0:
408,88,32222,1,8,0:0:0:0:
408,88,32409,1,0,0:0:0:0:
288,40,32597,6,0,L|264:184,1,140,0|8,0:0|0:0,0:0:0:0:
192,240,33159,1,2,0:0:0:0:
120,176,33347,2,0,P|80:176|40:200,1,70,0|2,0:0|0:0,0:0:0:0:
56,288,33722,2,0,P|88:301|122:300,1,70,8|0,0:0|0:0,0:0:0:0:
232,240,34097,6,0,P|304:240|368:296,1,140,2|8,0:0|0:0,0:0:0:0:
432,344,34659,1,2,0:0:0:0:
480,256,34847,2,0,L|472:176,1,70,0|2,0:0|0:0,0:0:0:0:
464,88,35222,2,0,P|432:72|384:72,1,70,8|0,0:0|0:0,0:0:0:0:
312,112,35597,6,0,P|256:144|168:144,1,140,0|8,0:0|0:0,0:0:0:0:
88,112,36159,1,2,0:0:0:0:
56,208,36347,2,0,L|64:264,3,35,8|8|2|2,0:0|0:0|0:0|0:0,0:0:0:0:
64,288,36722,1,8,0:0:0:0:
152,240,36909,1,0,0:0:0:0:
232,336,37097,6,0,L|320:336,1,70,6|0,0:0|0:0,0:0:0:0:
368,264,37472,1,2,0:0:0:0:
448,320,37659,2,0,P|464:288|464:248,1,70,2|8,0:0|0:0,0:0:0:0:
405,176,38034,1,2,0:0:0:0:
368,264,38222,1,2,0:0:0:0:
368,264,38784,5,2,0:0:0:0:
272,288,38972,2,0,L|280:336,2,35,2|2|2,0:0|0:0|0:0,0:0:0:0:
176,264,39347,2,0,L|160:152,1,105.000004005432,8|0,0:0|0:0,0:0:0:0:
392,56,40097,6,0,P|432:48|472:56,1,70,6|0,0:0|0:0,0:0:0:0:
432,144,40472,1,2,0:0:0:0:
344,184,40659,2,0,P|328:224|328:264,1,70,2|8,0:0|0:0,0:0:0:0:
344,344,41034,1,2,0:0:0:0:
256,312,41222,1,2,0:0:0:0:
256,312,41784,5,2,0:0:0:0:
168,344,41972,2,0,L|104:344,2,35,2|2|2,0:0|0:0|0:0,0:0:0:0:
176,248,42347,2,0,P|160:200|120:160,1,105.000004005432,8|0,0:0|0:0,0:0:0:0:
352,48,43097,6,0,L|360:128,1,70,6|0,0:0|0:0,0:0:0:0:
424,192,43472,1,2,0:0:0:0:
344,248,43659,2,0,P|312:232|256:232,1,70,2|8,0:0|0:0,0:0:0:0:
184,192,44034,1,0,0:0:0:0:
200,288,44222,1,2,0:0:0:0:
200,288,44784,5,2,0:0:0:0:
104,312,44972,2,0,L|112:352,2,35,2|2|2,0:0|0:0|0:0,0:0:0:0:
40,240,45347,2,0,L|48:128,1,105,8|0,0:0|0:0,0:0:0:0:
288,48,46097,6,0,P|328:48|368:64,1,70,6|0,0:0|0:0,0:0:0:0:
440,104,46472,1,2,0:0:0:0:
376,176,46659,2,0,P|376:232|392:264,1,70,2|8,0:0|0:0,0:0:0:0:
456,304,47034,1,2,0:0:0:0:
368,336,47222,2,0,L|280:336,1,70,2|0,0:0|0:0,0:0:0:0:
216,280,47597,6,0,L|168:280,3,35,8|8|2|2,0:0|0:0|0:0|0:0,0:0:0:0:
144,312,47972,2,0,L|96:312,3,35,8|8|2|2,0:0|0:0|0:0|0:0,0:0:0:0:
56,312,48347,2,0,P|40:280|40:240,1,70,4|4,0:0|0:0,0:0:0:0:
48,148,48722,1,8,0:0:0:0:
140,180,48909,1,0,0:0:0:0:
224,72,49097,6,0,P|296:72|360:112,1,140,6|8,0:0|0:0,0:0:0:0:
416,176,49659,1,2,0:0:0:0:
360,256,49847,2,0,P|344:296|344:328,1,70,0|2,0:0|0:0,0:0:0:0:
248,344,50222,2,0,P|245:309|231:277,1,70,8|0,0:0|0:0,0:0:0:0:
152,216,50597,6,0,L|72:224,1,70,0|2,0:0|0:0,0:0:0:0:
48,128,50972,1,8,0:0:0:0:
48,128,51159,2,0,L|200:112,1,140,2|2,0:0|0:0,0:0:0:0:
264,56,51722,2,0,L|352:64,1,70,8|0,0:0|0:0,0:0:0:0:
440,136,52097,6,0,P|464:208|440:272,1,140,2|8,0:0|0:0,0:0:0:0:
368,328,52659,1,2,0:0:0:0:
288,272,52847,2,0,P|256:256|200:256,1,70,0|2,0:0|0:0,0:0:0:0:
136,288,53222,1,8,0:0:0:0:
64,224,53409,2,0,L|56:152,1,70
96,64,53784,5,2,0:0:0:0:
184,112,53972,2,0,P|224:112|264:96,1,70,8|2,0:0|0:0,0:0:0:0:
336,48,54347,2,0,L|416:56,1,70,0|2,0:0|0:0,0:0:0:0:
464,136,54722,2,0,L|394:142,1,70,8|0,0:0|0:0,0:0:0:0:
296,216,55097,6,0,B|296:272|336:304|336:304|312:344,1,140,2|8,0:0|0:0,0:0:0:0:
224,296,55659,1,2,0:0:0:0:
136,344,55847,2,0,P|104:344|48:312,1,70,0|2,0:0|0:0,0:0:0:0:
120,248,56222,1,8,0:0:0:0:
120,248,56409,6,0,L|112:96,1,140,2|2,0:0|0:0,0:0:0:0:
200,56,56972,2,0,P|232:72|280:72,1,70,8|2,0:0|0:0,0:0:0:0:
360,48,57347,2,0,L|368:128,1,70,0|2,0:0|0:0,0:0:0:0:
456,152,57722,2,0,L|464:208,3,35,8|0|0|0,0:0|0:0|0:0|0:0,0:0:0:0:
448,232,58097,6,0,P|368:232|320:272,1,140,12|8,0:0|0:0,0:0:0:0:
248,328,58659,2,0,L|232:176,1,140,8|8,0:0|0:0,0:0:0:0:
160,120,59222,2,0,P|80:120|32:72,1,140,8|8,0:0|0:0,0:0:0:0:
120,32,59784,5,2,0:0:0:0:
216,56,59972,2,0,L|272:56,3,35,12|8|2|2,0:0|0:0|0:0|0:0,0:0:0:0:
296,40,60347,2,0,L|344:40,3,35,8|8|2|2,0:0|0:0|0:0|0:0,0:0:0:0:
376,56,60722,2,0,P|400:96|400:144,1,70,8|0,0:0|0:0,0:0:0:0:
448,232,61097,6,0,P|376:232|312:272,1,140,6|0,0:0|0:0,0:0:0:0:
256,320,61681,1,0,0:0:0:0:
192,264,61876,2,0,P|152:264|104:288,1,70,8|0,0:0|0:0,0:0:0:0:
64,216,62265,2,0,P|80:184|80:144,1,70,0|2,0:0|0:0,0:0:0:0:
40,80,62655,6,0,P|120:80|160:128,1,140,0|2,0:0|0:0,0:0:0:0:
256,256,63434,1,8,0:0:0:0:
312,192,63629,1,0,0:0:0:0:
368,256,63824,2,0,P|408:256|448:232,1,70
440,128,64213,6,0,P|384:88|296:88,1,140,6|0,0:0|0:0,0:0:0:0:
248,136,64798,1,0,0:0:0:0:
200,64,64993,2,0,P|164:57|120:72,1,70,8|0,0:0|0:0,0:0:0:0:
80,128,65382,2,0,P|92:170|96:216,1,70,0|2,0:0|0:0,0:0:0:0:
80,280,65772,5,0,0:0:0:0:
144,336,65967,1,2,0:0:0:0:
160,256,66161,1,2,0:0:0:0:
224,312,66356,1,0,0:0:0:0:
248,232,66551,2,0,B|280:184|336:184|336:184|344:144,1,140,8|0,0:0|0:0,0:0:0:0:
144,48,67330,6,0,B|112:96|56:96|56:96|48:136,1,140,6|0,0:0|0:0,0:0:0:0:
40,216,67915,1,0,0:0:0:0:
104,272,68109,2,0,P|144:272|176:256,1,70,8|0,0:0|0:0,0:0:0:0:
240,208,68499,2,0,P|280:208|312:224,1,70,0|2,0:0|0:0,0:0:0:0:
360,288,68889,6,0,L|512:272,1,140,0|2,0:0|0:0,0:0:0:0:
472,104,69668,1,8,0:0:0:0:
416,168,69863,1,0,0:0:0:0:
360,104,70058,2,0,P|320:80|280:80,1,70
192,112,70447,6,0,P|157:105|129:85,2,70,6|0|0,0:0|0:0|0:0,0:0:0:0:
264,160,71032,2,0,P|304:216|304:288,1,140
240,336,71616,2,0,L|168:336,1,70,0|2,0:0|0:0,0:0:0:0:
64,336,72006,5,8,0:0:0:0:
120,256,72200,2,0,L|168:256,2,35,8|4|4,0:0|0:0|0:0,0:0:0:0:
56,200,72590,1,0,0:0:0:0:
88,120,72785,2,0,P|128:104|176:104,1,70,8|2,0:0|0:0,0:0:0:0:
240,104,73174,1,8,0:0:0:0:
424,248,73564,6,0,P|456:184|456:112,1,140,6|2,0:0|0:0,0:0:0:0:
392,40,74126,1,2,0:0:0:0:
360,128,74314,2,0,P|328:144|280:144,1,70,8|2,0:0|0:0,0:0:0:0:
200,112,74689,1,2,0:0:0:0:
200,112,75251,5,2,0:0:0:0:
136,184,75439,2,0,L|144:248,2,35,2|2|2,0:0|0:0|0:0,0:0:0:0:
224,224,75814,2,0,L|240:336,1,105,8|0,0:0|0:0,0:0:0:0:
488,336,76564,6,0,B|472:243|472:243|480:184,1,140,6|2,0:0|0:0,0:0:0:0:
496,104,77126,1,2,0:0:0:0:
416,56,77314,2,0,P|376:56|344:72,1,70,8|2,0:0|0:0,0:0:0:0:
272,128,77689,1,2,0:0:0:0:
272,128,78251,5,2,0:0:0:0:
192,72,78439,2,0,L|184:24,2,35,2|2|2,0:0|0:0|0:0,0:0:0:0:
120,128,78814,2,0,L|112:248,1,105,8|0,0:0|0:0,0:0:0:0:
344,328,79564,6,0,P|416:328|464:272,1,140,6|2,0:0|0:0,0:0:0:0:
488,184,80126,1,2,0:0:0:0:
432,104,80314,2,0,P|384:104|352:120,1,70,8|2,0:0|0:0,0:0:0:0:
288,168,80689,1,2,0:0:0:0:
288,168,81251,5,2,0:0:0:0:
320,256,81439,2,0,L|336:304,2,35,2|2|2,0:0|0:0|0:0,0:0:0:0:
224,232,81814,2,0,L|104:240,1,105,8|0,0:0|0:0,0:0:0:0:
296,56,82564,6,0,L|440:48,1,140,6|2,0:0|0:0,0:0:0:0:
480,136,83126,1,2,0:0:0:0:
392,176,83314,2,0,P|360:176|320:192,1,70,8|2,0:0|0:0,0:0:0:0:
256,264,83689,2,0,P|223:276|188:277,1,70,2|0,0:0|0:0,0:0:0:0:
96,248,84064,6,0,L|88:200,3,35,8|8|2|2,0:0|0:0|0:0|0:0,0:0:0:0:
48,184,84439,2,0,L|40:136,3,35,8|8|2|2,0:0|0:0|0:0|0:0,0:0:0:0:
40,104,84814,6,0,P|72:88|112:88,1,70,8|4,0:0|0:0,0:0:0:0:
200,120,85189,2,0,L|208:208,1,70,8|0,0:0|0:0,0:0:0:0:
296,280,85564,5,6,0:0:0:0:
376,278,88564,6,0,L|368:190,1,70,12|8,0:0|0:0,0:0:0:0:
284,204,88939,2,0,L|276:116,1,70,8|8,0:0|0:0,0:0:0:0:
216,72,89314,1,0,0:0:0:0:
216,72,89501,1,8,0:0:0:0:
128,72,89689,1,8,0:0:0:0:
128,72,89876,1,8,0:0:0:0:
72,136,90064,6,0,L|80:224,1,70,8|8,0:0|0:0,0:0:0:0:
160,208,90439,2,0,L|168:296,1,70,8|8,0:0|0:0,0:0:0:0:
228,336,90814,1,8,0:0:0:0:
288,280,91001,1,8,0:0:0:0:
352,336,91189,2,0,L|408:336,3,35,8|8|8|8,0:0|0:0|0:0|0:0,0:0:0:0:
424,336,91564,6,0,P|472:296|472:208,1,140,6|8,0:0|0:0,0:0:0:0:
448,128,92148,1,2,0:0:0:0:
368,192,92343,2,0,P|328:192|288:176,1,70,2|2,0:0|0:0,0:0:0:0:
248,104,92732,1,8,0:0:0:0:
168,160,92927,6,0,P|137:220|158:285,1,140,2|2,0:0|0:0,0:0:0:0:
248,336,93512,2,0,P|281:325|316:326,1,70,8|0,0:0|0:0,0:0:0:0:
416,336,93901,2,0,P|464:296|464:208,1,140,2|8,0:0|0:0,0:0:0:0:
448,128,94486,1,0,0:0:0:0:
336,72,94680,6,0,B|304:112|304:112|296:216,1,140,2|8,0:0|0:0,0:0:0:0:
288,296,95265,1,0,0:0:0:0:
192,264,95460,2,0,P|160:264|120:280,1,70,2|2,0:0|0:0,0:0:0:0:
56,344,95849,1,8,0:0:0:0:
32,248,96044,6,0,B|24:200|24:200|48:112,1,140,2|2,0:0|0:0,0:0:0:0:
112,40,96628,2,0,L|192:40,1,70,8|0,0:0|0:0,0:0:0:0:
248,112,97018,2,0,B|272:200|272:200|264:248,1,140,2|8,0:0|0:0,0:0:0:0:
232,344,97602,1,0,0:0:0:0:
336,273,97797,6,0,B|351:216|351:216|421:151,1,140,6|8,0:0|0:0,0:0:0:0:
483,94,98382,1,0,0:0:0:0:
397,47,98576,2,0,P|360:56|326:83,1,70,2|2,0:0|0:0,0:0:0:0:
265,145,98966,1,8,0:0:0:0:
200,72,99161,6,0,P|144:72|80:152,1,140,2|2,0:0|0:0,0:0:0:0:
120,216,99745,2,0,P|136:256|136:296,1,70,8|0,0:0|0:0,0:0:0:0:
224,328,100135,2,0,P|272:288|360:288,1,140,2|8,0:0|0:0,0:0:0:0:
440,304,100719,1,0,0:0:0:0:
408,184,100914,6,0,B|392:136|392:136|312:72,1,140,2|8,0:0|0:0,0:0:0:0:
240,32,101499,1,0,0:0:0:0:
232,128,101693,2,0,P|200:144|152:144,1,70,2|2,0:0|0:0,0:0:0:0:
80,104,102083,1,8,0:0:0:0:
72,200,102278,6,0,P|72:272|120:320,1,140,2|8,0:0|0:0,0:0:0:0:
216,320,102862,1,8,0:0:0:0:
288,256,103057,1,2,0:0:0:0:
360,320,103252,1,8,0:0:0:0:
432,256,103447,2,0,L|480:256,2,35,2|2|8,0:0|0:0|0:0,0:0:0:0:
360,192,103836,1,0,0:0:0:0:
424,88,104031,6,0,P|368:56|288:56,1,140,6|0,0:0|0:0,0:0:0:0:
224,96,104615,1,0,0:0:0:0:
152,56,104810,2,0,L|72:56,2,70,8|0|0,0:0|0:0|0:0,0:0:0:0:
120,160,105395,6,0,P|88:216|88:304,1,140,2|8,0:0|0:0,0:0:0:0:
152,344,105979,2,0,L|224:344,1,70,2|0,0:0|0:0,0:0:0:0:
284,284,106369,1,8,0:0:0:0:
344,344,106564,1,2,0:0:0:0:
404,284,106758,1,8,0:0:0:0:
464,72,107148,6,0,P|392:72|336:120,1,140,6|0,0:0|0:0,0:0:0:0:
280,192,107732,1,0,0:0:0:0:
200,136,107927,2,0,P|168:120|120:120,2,70,8|0|0,0:0|0:0|0:0,0:0:0:0:
128,240,108512,6,0,P|128:304|192:344,1,140,2|8,0:0|0:0,0:0:0:0:
280,328,109096,2,0,L|288:256,1,70,2|0,0:0|0:0,0:0:0:0:
360,192,109486,1,8,0:0:0:0:
296,120,109680,1,2,0:0:0:0:
368,56,109875,1,8,0:0:0:0:
456,264,110265,6,0,B|368:272|368:272|320:304,1,140,6|0,0:0|0:0,0:0:0:0:
256,352,110849,1,0,0:0:0:0:
184,304,111044,2,0,L|96:304,2,70,8|0|0,0:0|0:0|0:0,0:0:0:0:
256,216,111628,6,0,P|256:144|216:88,1,140,2|8,0:0|0:0,0:0:0:0:
144,48,112213,2,0,L|72:48,1,70,2|0,0:0|0:0,0:0:0:0:
40,128,112602,1,8,0:0:0:0:
120,160,112797,1,2,0:0:0:0:
80,232,112992,1,8,0:0:0:0:
280,336,113382,6,0,P|344:336|408:280,1,140,6|0,0:0|0:0,0:0:0:0:
456,224,113966,1,0,0:0:0:0:
400,160,114161,2,0,L|328:160,2,70,8|0|0,0:0|0:0|0:0,0:0:0:0:
448,56,114745,6,0,L|304:56,1,140,2|8,0:0|0:0,0:0:0:0:
224,56,115330,2,0,P|192:56|144:80,1,70,8|2,0:0|0:0,0:0:0:0:
96,128,115719,1,8,0:0:0:0:
160,184,115914,2,0,L|208:184,2,35,8|4|4,0:0|0:0|0:0,0:0:0:0:
100,244,116304,1,0,0:0:0:0:
192,312,116499,6,0,P|248:272|317:273,1,140,6|0,0:0|0:0,0:0:0:0:
472,344,117249,2,0,L|464:200,1,140,8|0,0:0|0:0,0:0:0:0:
456,120,117811,1,0,0:0:0:0:
360,176,117999,6,0,P|291:176|235:136,1,140,2|0,0:0|0:0,0:0:0:0:
80,64,118749,2,0,L|87:203,1,140,8|0,0:0|0:0,0:0:0:0:
88,288,119311,1,0,0:0:0:0:
192,240,119499,6,0,P|260:239|316:279,1,140,2|0,0:0|0:0,0:0:0:0:
472,344,120249,2,0,L|464:192,1,140,8|0,0:0|0:0,0:0:0:0:
456,120,120811,1,0,0:0:0:0:
360,176,120999,6,0,B|296:200|296:144|224:176,1,140,2|0,0:0|0:0,0:0:0:0:
88,272,121749,2,0,B|160:304|160:248|224:272,1,140,8|0,0:0|0:0,0:0:0:0:
288,328,122311,1,0,0:0:0:0:
384,272,122499,6,0,P|408:208|384:144,1,140,2|0,0:0|0:0,0:0:0:0:
248,40,123249,2,0,P|223:104|247:168,1,140,8|0,0:0|0:0,0:0:0:0:
320,208,123811,1,0,0:0:0:0:
248,296,123999,6,0,P|176:296|112:248,1,140,2|0,0:0|0:0,0:0:0:0:
64,104,124749,2,0,P|122:66|191:67,1,140,8|0,0:0|0:0,0:0:0:0:
264,104,125311,1,0,0:0:0:0:
320,200,125499,6,0,B|376:208|408:176|408:176|456:208,1,140,2|0,0:0|0:0,0:0:0:0:
320,312,126249,2,0,B|264:304|232:336|232:336|194:310,1,140,8|0,0:0|0:0,0:0:0:0:
128,256,126811,1,0,0:0:0:0:
192,160,126999,5,6,0:0:0:0:
192,160,127186,2,0,P|232:144|272:144,1,70,2|8,0:0|0:0,0:0:0:0:
344,200,127561,2,0,P|378:196|410:182,1,70,2|0,0:0|0:0,0:0:0:0:
440,88,127936,2,0,P|471:73|506:70,1,70,2|8,0:0|0:0,0:0:0:0:
504,200,128311,6,0,P|504:272|456:320,1,140,6|2,0:0|0:0,0:0:0:0:
368,288,128874,1,8,0:0:0:0:
256,344,129061,2,0,P|184:344|136:296,1,140,4|2,0:0|0:0,0:0:0:0:
56,248,129624,2,0,L|48:168,1,70,8|0,0:0|0:0,0:0:0:0:
104,64,129999,6,0,B|208:16|208:120|320:64,1,210.000008010865,6|0,0:0|0:0,0:0:0:0:
472,40,131124,1,0,0:0:0:0:
400,192,131499,2,0,B|360:232|360:288|360:288|336:328|264:328,1,210.000008010865,8|0,0:0|0:0,0:0:0:0:
104,328,132624,1,0,0:0:0:0:
176,176,132999,6,0,B|176:120|144:80|144:80|192:80|248:56,1,210.000008010865,2|0,0:0|0:0,0:0:0:0:
416,56,134124,1,0,0:0:0:0:
448,224,134499,2,0,P|432:320|320:320,1,210.000008010865,8|0,0:0|0:0,0:0:0:0:
256,184,135624,1,2,0:0:0:0:
256,184,135811,1,2,0:0:0:0:
256,184,135998,6,0,B|160:128|152:232|56:184,1,210.000008010865,2|8,0:0|0:0,0:0:0:0:
152,48,137124,1,2,0:0:0:0:
152,48,137311,1,2,0:0:0:0:
152,48,137498,6,0,B|248:104|256:0|352:48,1,210.000008010865,0|8,0:0|0:0,0:0:0:0:
448,184,138624,1,2,0:0:0:0:
448,184,138811,1,2,0:0:0:0:
448,184,138999,6,0,P|432:280|320:280,1,210.000008010865,2|8,0:0|0:0,0:0:0:0:
296,216,139936,1,0,0:0:0:0:
216,200,140124,1,8,0:0:0:0:
128,328,140499,5,8,0:0:0:0:
128,328,140686,2,0,L|56:328,1,70,8|2,0:0|0:0,0:0:0:0:
96,240,141061,2,0,P|102:207|92:168,1,70,8|2,0:0|0:0,0:0:0:0:
56,80,141436,2,0,L|126:80,1,70,8|2,0:0|0:0,0:0:0:0:
216,168,141811,6,0,P|264:216|352:216,1,140,8|8,0:0|0:0,0:0:0:0:
424,192,142374,1,8,0:0:0:0:
456,288,142561,1,2,0:0:0:0:
360,320,142749,2,0,L|312:320,3,35,8|8|8|8,0:0|0:0|0:0|0:0,0:0:0:0:
280,336,143124,2,0,L|232:336,3,35,8|8|4|4,0:0|0:0|0:0|0:0,0:0:0:0:
200,336,143499,5,6,0:0:0:0:
200,336,146031,6,0,L|128:336,2,70,2|8|0,0:0|0:0|0:0,0:0:0:0:
312,336,146615,6,0,P|384:336|432:288,1,140,6|0,0:0|0:0,0:0:0:0:
460,212,147200,1,0,0:0:0:0:
376,216,147395,2,0,P|344:216|304:200,1,70,8|0,0:0|0:0,0:0:0:0:
248,144,147784,2,0,P|215:131|180:130,1,70,0|2,0:0|0:0,0:0:0:0:
96,112,148174,5,0,0:0:0:0:
40,176,148369,1,2,0:0:0:0:
120,192,148563,1,2,0:0:0:0:
64,256,148758,1,0,0:0:0:0:
144,272,148953,2,0,B|204:284|204:284|280:328,1,140,8|2,0:0|0:0,0:0:0:0:
464,208,149732,6,0,B|403:195|403:195|328:160,1,140,6|0,0:0|0:0,0:0:0:0:
272,104,150317,1,2,0:0:0:0:
208,160,150511,2,0,P|176:176|128:176,1,70,8|0,0:0|0:0,0:0:0:0:
80,232,150901,2,0,L|88:320,1,70,0|2,0:0|0:0,0:0:0:0:
160,344,151291,6,0,P|224:344|296:304,1,140,0|2,0:0|0:0,0:0:0:0:
408,184,152070,1,8,0:0:0:0:
384,104,152265,1,0,0:0:0:0:
328,168,152460,2,0,P|296:184|248:184,1,70
160,144,152849,6,0,L|144:64,2,70,6|0|0,0:0|0:0|0:0,0:0:0:0:
112,216,153434,2,0,P|64:264|64:360,1,140,2|0,0:0|0:0,0:0:0:0:
128,376,154018,2,0,L|224:376,1,70,0|2,0:0|0:0,0:0:0:0:
296,320,154408,5,6,0:0:0:0:
376,352,154602,1,8,0:0:0:0:
376,352,154700,1,8,0:0:0:0:
376,352,154797,2,0,L|424:352,3,35,8|8|8|8,0:0|0:0|0:0|0:0,0:0:0:0:
448,328,155187,2,0,L|448:280,3,35,6|0|8|8,0:0|0:0|0:0|0:0,0:0:0:0:
416,264,155576,2,0,L|416:216,3,35,8|8|4|0,0:0|0:0|0:0|0:0,0:0:0:0:
448,200,155966,6,0,P|448:136|384:72,1,154.000004699707,6|0,0:0|0:0,0:0:0:0:
288,32,156550,1,2,0:0:0:0:
304,136,156745,2,0,P|272:152|224:152,1,77.0000023498536,8|2,0:0|0:0,0:0:0:0:
136,104,157135,2,0,P|97:105|63:121,1,77.0000023498536,0|2,0:0|0:0,0:0:0:0:
128,240,157524,6,0,B|152:272|152:312|152:312|176:344|224:344,1,154.000004699707,2|0,0:0|0:0,0:0:0:0:
304,280,158109,1,2,0:0:0:0:
392,344,158304,2,0,P|432:344|472:320,1,77.0000023498536,8|2,0:0|0:0,0:0:0:0:
464,216,158693,2,0,P|448:184|448:144,1,77.0000023498536,0|2,0:0|0:0,0:0:0:0:
336,56,159083,6,0,P|280:96|184:96,1,154.000004699707,2|0,0:0|0:0,0:0:0:0:
96,64,159667,1,2,0:0:0:0:
64,168,159862,2,0,P|64:208|88:248,1,77.0000023498536,8|2,0:0|0:0,0:0:0:0:
160,312,160252,2,0,P|200:296|256:296,1,77.0000023498536,0|2,0:0|0:0,0:0:0:0:
368,336,160641,6,0,P|432:296|432:208,1,154.000004699707,2|0,0:0|0:0,0:0:0:0:
416,120,161226,1,2,0:0:0:0:
328,184,161421,1,8,0:0:0:0:
304,80,161615,1,2,0:0:0:0:
213,139,161810,2,0,P|180:158|149:188,1,77.0000023498536,0|2,0:0|0:0,0:0:0:0:
64,288,162200,6,0,P|120:336|200:336,1,154.000004699707,6|0,0:0|0:0,0:0:0:0:
296,288,162784,1,2,0:0:0:0:
392,336,162979,2,0,P|432:336|464:320,1,77.0000023498536,8|2,0:0|0:0,0:0:0:0:
408,224,163369,2,0,P|396:188|396:148,1,77.0000023498536,0|2,0:0|0:0,0:0:0:0:
304,48,163758,6,0,P|224:48|160:96,1,154.000004699707,2|0,0:0|0:0,0:0:0:0:
120,184,164343,1,2,0:0:0:0:
208,248,164537,2,0,P|248:248|296:224,1,77.0000023498536,8|2,0:0|0:0,0:0:0:0:
380,189,164927,2,0,P|415:175|453:175,1,77.0000023498536,0|2,0:0|0:0,0:0:0:0:
496,328,165317,6,0,P|416:328|360:280,1,154.000004699707,2|0,0:0|0:0,0:0:0:0:
296,200,165901,1,2,0:0:0:0:
360,112,166096,2,0,P|360:72|344:40,1,77.0000023498536,8|2,0:0|0:0,0:0:0:0:
256,96,166486,2,0,P|216:112|168:112,1,77.0000023498536,0|2,0:0|0:0,0:0:0:0:
48,96,166875,6,0,L|40:152,3,38.5000011749268,8|8|8|8,0:0|0:0|0:0|0:0,0:0:0:0:
80,176,167265,2,0,L|72:232,3,38.5000011749268,8|8|8|8,0:0|0:0|0:0|0:0,0:0:0:0:
64,264,167654,2,0,L|104:272,3,38.5000011749268,8|8|8|8,0:0|0:0|0:0|0:0,0:0:0:0:
128,320,168044,2,0,L|168:328,3,38.5000011749268,4|4|0|0,0:0|0:0|0:0|0:0,0:0:0:0:
216,336,168434,5,6,0:0:0:0:
256,192,168531,12,0,174667,0:0:0:0:
