osu file format v14

[General]
AudioFilename: audio.mp3
AudioLeadIn: 0
PreviewTime: 5188
Countdown: 0
SampleSet: Soft
StackLeniency: 0.7
Mode: 0
LetterboxInBreaks: 0
WidescreenStoryboard: 0

[Editor]
DistanceSpacing: 0.5
BeatDivisor: 4
GridSize: 32
TimelineZoom: 2

[Metadata]
Title:Hope
TitleUnicode:희망
Artist:Park Seah
ArtistUnicode:박세아
Creator:Luscent
Version:Wish
Source:그랜드체이스
Tags:Grand Chase heemang huimang 그체 그랜드 체이스 KOG 티에스앤컴퍼니 TSN Company 박윤나 Park Yoonna 박재성 Park Jaesung korean pop video game 404 aimnotfound
BeatmapID:2770278
BeatmapSetID:1337323

[Difficulty]
HPDrainRate:4
CircleSize:4
OverallDifficulty:7
ApproachRate:8
SliderMultiplier:1.6
SliderTickRate:1

[Events]
//Background and Video events
0,0,"grandchase.jpg",0,0
//Break Periods
//Storyboard Layer 0 (Background)
//Storyboard Layer 1 (Fail)
//Storyboard Layer 2 (Pass)
//Storyboard Layer 3 (Foreground)
//Storyboard Layer 4 (Overlay)
//Storyboard Sound Samples

[TimingPoints]
1807,483.870967741935,4,2,1,30,1,0
1807,-100,4,2,1,30,0,0
5677,-100,4,2,1,40,0,0
21161,-100,4,2,1,50,0,0
35677,-83.3333333333333,4,2,1,60,0,0
36645,-90.9090909090909,4,2,1,70,0,0
51403,-71.4285714285714,4,2,1,70,0,0
52129,-90.9090909090909,4,2,1,70,0,0
67129,-71.4285714285714,4,2,1,70,0,0
67613,-90.9090909090909,4,2,1,70,0,0
82613,-125,4,2,1,70,0,0
83097,-90.9090909090909,4,2,1,80,0,1
106323,-90.9090909090909,4,2,1,90,0,1
113460,-133.333333333333,4,2,1,80,0,1
114065,-90.9090909090909,4,2,1,70,0,0
128823,-71.4285714285714,4,2,1,70,0,0
129548,-90.9090909090909,4,2,1,80,0,1
144306,-71.4285714285714,4,2,1,80,0,1
145032,-90.9090909090909,4,2,1,70,0,0
159790,-71.4285714285714,4,2,1,70,0,0
160516,-90.9090909090909,4,2,1,70,0,0
191484,-90.9090909090909,4,2,1,50,0,0
197290,-133.333333333333,4,2,1,50,0,0
199226,-111.111111111111,4,2,1,60,0,0
206968,-83.3333333333333,4,2,1,80,0,1
217613,-111.111111111111,4,2,1,80,0,1
218581,-83.3333333333333,4,2,1,80,0,1
221726,-71.4285714285714,4,2,1,80,0,1
222452,-83.3333333333333,4,2,1,80,0,1
226323,-83.3333333333333,4,2,1,80,0,1
230194,-83.3333333333333,4,2,1,90,0,1
237936,-83.3333333333333,4,2,1,70,0,0
239871,-83.3333333333333,4,2,1,85,0,1
253419,-100,4,2,1,80,0,1
255355,-100,4,2,1,70,0,0
255597,-100,4,2,1,40,0,0
255839,-100,4,2,1,30,0,0
256323,-100,4,2,1,20,0,0
256806,-100,4,2,1,10,0,0
257290,-100,4,2,1,5,0,0

[Colours]
Combo1 : 219,220,201
Combo2 : 111,230,242
Combo3 : 255,88,100
Combo4 : 255,94,55
Combo5 : 215,130,247
Combo6 : 252,238,141

[HitObjects]
96,168,1807,5,2,0:0:0:0:
83,214,2048,1,0,0:0:0:0:
87,261,2290,2,0,P|90:291|116:347,1,80,2|0,0:0|0:0,0:0:0:0:
386,263,2774,5,2,0:0:0:0:
399,217,3015,1,0,0:0:0:0:
395,170,3258,2,0,P|392:140|366:84,1,80,2|0,0:0|0:0,0:0:0:0:
196,116,3742,6,0,P|142:123|111:124,1,80,2|0,0:0|0:0,0:0:0:0:
41,108,4226,1,2,0:0:0:0:
41,108,4468,1,0,0:0:0:0:
209,299,4710,6,0,P|229:248|244:221,1,80,2|0,0:0|0:0,0:0:0:0:
300,174,5194,1,2,0:0:0:0:
300,174,5436,1,0,0:0:0:0:
49,283,5677,6,0,P|100:280|154:282,1,80,2|0,0:0|0:0,0:0:0:0:
197,353,6161,2,0,P|238:284|306:216,1,160,2|0,0:0|0:0,0:0:0:0:
368,198,6887,1,2,0:0:0:0:
445,217,7129,1,2,0:0:0:0:
498,276,7371,1,0,0:0:0:0:
346,358,7613,6,0,P|345:313|347:270,1,80,2|0,0:0|0:0,0:0:0:0:
430,312,8097,1,0,0:0:0:0:
255,239,8339,2,0,P|336:232|408:147,1,160,2|0,0:0|0:0,0:0:0:0:
417,105,9065,1,2,0:0:0:0:
392,29,9306,1,2,0:0:0:0:
207,144,9548,6,0,P|250:164|297:168,1,80,2|0,0:0|0:0,0:0:0:0:
99,5,10032,2,0,P|80:50|79:94,1,80,2|0,0:0|0:0,0:0:0:0:
260,244,10516,2,0,P|279:199|280:155,1,80,2|0,0:0|0:0,0:0:0:0:
14,134,11000,2,0,P|59:158|99:161,1,80,2|0,0:0|0:0,0:0:0:0:
123,373,11484,5,2,0:0:0:0:
156,223,11726,1,2,0:0:0:0:
20,290,11968,1,2,0:0:0:0:
140,383,12210,2,0,P|219:368|271:362,1,80,2|0,0:0|0:0,0:0:0:0:
320,302,12694,1,2,0:0:0:0:
230,208,12936,2,0,P|204:238|196:277,1,80,0|2,0:0|0:0,0:0:0:0:
391,378,13419,6,0,P|402:288|415:201,1,160,2|0,0:0|0:0,0:0:0:0:
412,122,14145,1,0,0:0:0:0:
503,238,14387,1,0,0:0:0:0:
493,91,14629,1,2,0:0:0:0:
343,171,14871,1,2,0:0:0:0:
481,162,15113,5,2,0:0:0:0:
338,93,15355,2,0,P|291:100|232:102,1,80
73,220,15839,2,0,P|120:213|179:211,1,80
345,299,16323,2,0,P|298:306|239:308,1,80
141,350,16806,1,2,0:0:0:0:
141,350,17048,1,0,0:0:0:0:
9,267,17290,5,2,0:0:0:0:
73,220,17532,1,2,0:0:0:0:
120,155,17774,2,0,P|132:116|135:59,1,80,2|0,0:0|0:0,0:0:0:0:
242,203,18258,5,2,0:0:0:0:
263,161,18500,1,2,0:0:0:0:
271,115,18742,2,0,P|265:82|247:39,1,80,2|0,0:0|0:0,0:0:0:0:
133,267,19226,6,0,P|201:276|300:301,3,160,2|2|2|2,0:0|0:0|0:0|0:0,0:0:0:0:
481,130,21161,6,0,P|438:134|401:133,1,80,6|0,1:0|0:0,0:0:0:0:
372,133,21524,1,0,1:0:0:0:
372,133,21645,1,0,0:0:0:0:
243,38,21887,2,0,P|276:92|282:200,1,160,2|0,1:0|0:0,0:0:0:0:
191,294,22613,1,0,0:0:0:0:
134,155,22855,1,0,0:0:0:0:
271,254,23097,5,2,1:0:0:0:
93,228,23339,1,0,0:0:0:0:
93,228,23460,1,2,1:0:0:0:
221,156,23702,1,0,0:0:0:0:
221,156,23823,1,2,1:0:0:0:
118,299,24065,6,0,P|117:348|117:368,2,40,0|0|0,3:0|3:0|3:0,3:0:0:0:
193,324,24427,1,0,3:0:0:0:
193,324,24548,2,0,P|254:344|292:368,1,80
365,379,25032,5,2,1:0:0:0:
430,196,25274,1,0,3:0:0:0:
430,196,25395,1,2,1:0:0:0:
512,284,25637,1,0,3:0:0:0:
512,284,25758,1,2,1:0:0:0:
335,253,26000,6,0,P|294:259|243:273,1,80
147,155,26484,2,0,P|207:134|251:73,1,120
251,56,26968,5,2,1:0:0:0:
187,236,27210,1,0,3:0:0:0:
187,236,27331,1,2,1:0:0:0:
158,70,27573,1,0,3:0:0:0:
158,70,27694,1,2,1:0:0:0:
325,154,27936,2,0,P|384:158|420:165,1,80
439,174,28298,1,0,3:0:0:0:
462,193,28419,5,0,3:0:0:0:
451,154,28540,1,0,3:0:0:0:
456,114,28661,1,0,3:0:0:0:
472,77,28782,1,0,3:0:0:0:
495,44,28903,2,0,P|435:56|396:53,1,80,6|0,1:0|0:0,0:0:0:0:
379,49,29266,1,0,1:0:0:0:
379,49,29387,1,0,3:0:0:0:
290,194,29629,2,0,P|295:240|291:301,1,80,2|0,1:0|0:0,0:0:0:0:
219,358,30113,1,0,0:0:0:0:
126,311,30355,2,0,P|122:263|128:212,1,80
185,154,30839,5,2,1:0:0:0:
11,192,31081,1,0,3:0:0:0:
11,192,31202,1,2,1:0:0:0:
193,192,31444,1,0,3:0:0:0:
193,192,31565,1,2,1:0:0:0:
15,162,31806,5,0,0:0:0:0:
195,226,32048,1,0,0:0:0:0:
43,114,32290,1,0,0:0:0:0:
142,286,32532,1,0,0:0:0:0:
118,110,32774,6,0,P|118:52|122:7,1,80,2|0,1:0|0:0,0:0:0:0:
122,0,33137,1,2,1:0:0:0:
122,0,33258,1,0,3:0:0:0:
72,187,33500,2,0,P|133:146|233:129,1,160,2|0,1:0|0:0,0:0:0:0:
328,157,34226,1,0,1:0:0:0:
395,62,34468,1,0,1:0:0:0:
243,199,34710,5,2,3:0:0:0:
243,218,34831,1,2,3:0:0:0:
246,237,34952,1,2,3:0:0:0:
246,256,35073,1,2,3:0:0:0:
248,275,35194,1,2,3:0:0:0:
248,294,35315,1,2,3:0:0:0:
252,313,35436,1,2,3:0:0:0:
252,332,35557,1,2,3:0:0:0:
253,352,35677,6,0,P|286:338|313:332,1,47.9999985351563,0|0,1:0|0:0,0:0:0:0:
75,258,35919,2,0,P|43:251|11:248,1,47.9999985351563,0|0,1:0|0:0,0:0:0:0:
329,248,36161,2,0,L|356:246,6,23.9999992675781,0|0|0|0|0|0|0,1:0|3:0|3:0|3:0|3:0|3:0|3:0,3:0:0:0:
386,265,36645,6,0,P|394:201|409:163,1,88.000002685547,6|0,1:0|0:0,0:0:0:0:
413,155,37008,1,0,3:0:0:0:
420,129,37129,2,0,P|419:75|408:39,1,88.000002685547,10|2,1:0|0:1,0:0:0:0:
499,205,37613,1,0,1:0:0:0:
310,133,37855,1,0,3:0:0:0:
310,133,37976,1,0,3:0:0:0:
310,133,38097,2,0,P|258:149|210:154,1,88.000002685547,8|0,1:0|0:0,0:0:0:0:
52,147,38581,5,2,1:0:0:0:
202,227,38823,1,0,3:0:0:0:
202,227,38944,1,2,1:0:0:0:
270,67,39186,1,0,3:0:0:0:
270,67,39306,1,2,1:0:0:0:
110,273,39548,5,0,1:0:0:0:
270,179,39790,1,0,0:0:0:0:
120,102,40032,2,0,P|130:157|133:199,1,88.000002685547,8|0,1:0|0:0,0:0:0:0:
427,294,40516,5,2,1:1:0:0:
321,245,40758,1,0,3:0:0:0:
321,245,40879,1,2,3:1:0:0:
321,245,41000,1,8,1:0:0:0:
205,321,41242,1,2,0:1:0:0:
329,384,41484,2,0,P|371:372|417:366,1,88.000002685547,0|0,1:0|0:0,0:0:0:0:
258,165,41968,2,0,P|247:207|229:250,1,88.000002685547,8|0,1:0|0:0,0:0:0:0:
481,232,42452,6,0,P|436:180|398:67,1,176.000005371094,2|8,1:0|1:0,0:0:0:0:
301,104,43177,1,0,0:0:0:0:
151,44,43419,2,0,P|203:38|241:27,1,88.000002685547,2|0,1:0|0:0,0:0:0:0:
26,137,43903,2,0,P|72:144|121:155,1,88.000002685547,8|0,1:0|1:0,0:0:0:0:
151,165,44266,1,0,3:0:0:0:
151,165,44387,6,0,P|161:225|156:282,1,88.000002685547,6|0,1:0|0:0,0:0:0:0:
155,282,44750,1,0,3:0:0:0:
145,311,44871,2,0,P|119:362|86:392,1,88.000002685547,8|2,1:0|0:1,0:0:0:0:
52,247,45355,1,0,1:0:0:0:
253,278,45597,1,0,3:0:0:0:
253,278,45718,1,0,3:0:0:0:
253,278,45839,2,0,P|306:286|349:296,1,88.000002685547,8|0,1:0|0:0,0:0:0:0:
493,250,46323,5,2,1:0:0:0:
299,208,46565,1,0,3:0:0:0:
299,208,46686,1,2,1:0:0:0:
453,318,46927,1,0,3:0:0:0:
453,318,47048,1,2,1:0:0:0:
421,185,47290,5,0,1:0:0:0:
323,322,47532,1,0,0:0:0:0:
512,261,47774,2,0,P|513:208|507:151,1,88.000002685547,8|0,1:0|0:0,0:0:0:0:
400,118,48258,5,2,1:1:0:0:
505,100,48500,1,0,3:0:0:0:
505,100,48621,1,2,3:1:0:0:
505,100,48742,1,8,1:0:0:0:
366,8,48984,1,2,0:1:0:0:
337,194,49226,2,0,P|343:245|346:293,1,88.000002685547,0|0,1:0|0:0,0:0:0:0:
194,116,49710,2,0,P|200:65|203:17,1,88.000002685547,8|0,1:0|0:0,0:0:0:0:
11,227,50194,6,0,P|76:236|152:269,2,132.00000402832,2|2|2,1:0|1:0|1:0,0:0:0:0:
191,354,51161,5,0,1:0:0:0:
274,183,51403,1,2,1:0:0:0:
274,183,51524,1,0,1:0:0:0:
274,183,51645,2,0,P|214:242|116:226,1,167.999994873047,2|0,1:0|0:0,0:0:0:0:
121,224,52129,6,0,P|108:172|106:125,1,88.000002685547,4|2,1:0|0:1,0:0:0:0:
234,75,52613,1,10,1:1:0:0:
185,171,52855,1,0,0:0:0:0:
191,10,53097,1,2,1:0:0:0:
318,109,53339,1,0,3:0:0:0:
318,109,53460,1,0,3:0:0:0:
318,109,53581,1,10,1:1:0:0:
424,52,53823,1,2,0:1:0:0:
493,97,54065,6,0,P|495:149|494:192,1,88.000002685547,2|0,1:0|0:0,0:0:0:0:
426,343,54548,1,8,1:0:0:0:
358,186,54790,1,2,0:1:0:0:
512,288,55032,2,0,P|457:271|314:261,1,176.000005371094,2|8,1:0|1:0,0:0:0:0:
272,299,55758,1,0,0:0:0:0:
26,167,56000,5,0,1:0:0:0:
165,215,56242,1,2,3:1:0:0:
165,215,56363,1,0,3:0:0:0:
165,215,56484,1,10,1:1:0:0:
5,206,56726,1,0,0:0:0:0:
172,132,56968,1,2,1:0:0:0:
108,278,57210,1,0,0:0:0:0:
41,139,57452,2,0,P|41:92|45:42,1,88.000002685547,10|0,1:0|0:0,0:0:0:0:
242,224,57936,6,0,P|242:271|238:321,1,88.000002685547,2|0,1:0|0:0,0:0:0:0:
219,330,58298,1,2,3:1:0:0:
198,346,58419,2,0,P|251:363|290:382,1,88.000002685547,8|2,1:0|0:1,0:0:0:0:
470,260,58903,1,0,1:0:0:0:
470,260,59024,1,0,3:0:0:0:
470,260,59145,1,0,3:0:0:0:
310,307,59387,1,8,1:0:0:0:
512,320,59629,1,2,1:0:0:0:
329,194,59871,6,0,B|249:207|241:146|160:157,1,176.000005371094,6|8,1:0|1:0,0:0:0:0:
322,29,60597,2,0,P|307:78|303:129,1,88.000002685547,2|0,0:1|1:0,0:0:0:0:
512,162,61081,2,2,P|490:106|376:100,1,176.000005371094,2|2,0:1|0:1,0:1:0:0:
290,258,61806,5,0,1:0:0:0:
433,158,62048,1,2,0:1:0:0:
375,326,62290,1,10,1:1:0:0:
312,152,62532,1,2,0:1:0:0:
473,260,62774,1,0,1:0:0:0:
473,260,62895,1,0,3:0:0:0:
473,260,63016,1,0,3:0:0:0:
283,338,63258,1,10,1:1:0:0:
187,269,63500,1,2,0:1:0:0:
92,331,63742,6,0,P|153:336|196:348,1,88.000002685547,2|0,1:0|0:0,0:0:0:0:
97,203,64226,2,0,P|157:190|202:172,1,88.000002685547,10|0,1:0|0:0,0:0:0:0:
0,41,64710,2,2,P|61:91|173:70,1,176.000005371094,2|10,1:1|1:1,0:1:0:0:
200,13,65436,1,0,0:1:0:0:
246,253,65677,5,4,1:0:0:0:
300,163,65919,1,0,3:0:0:0:
300,163,66040,1,0,3:0:0:0:
300,163,66161,1,0,1:0:0:0:
432,299,66403,1,0,3:0:0:0:
432,299,66524,1,0,3:0:0:0:
432,299,66645,1,0,1:0:0:0:
512,202,66887,1,0,1:0:0:0:
512,202,67008,1,0,1:0:0:0:
512,202,67129,2,0,P|456:247|343:233,1,167.999994873047,0|0,1:0|0:0,0:0:0:0:
340,230,67613,5,6,1:0:0:0:
138,344,67855,1,2,3:2:0:0:
138,344,67976,2,0,P|194:309|269:310,1,132.00000402832,2|0,3:1|0:0,0:0:0:0:
71,290,68581,1,2,1:1:0:0:
242,220,68823,1,0,0:1:0:0:
32,219,69065,1,10,1:1:0:0:
238,134,69306,1,2,0:1:0:0:
15,143,69548,6,0,P|9:90|15:43,1,88.000002685547,2|0,1:0|0:0,0:0:0:0:
18,24,69911,1,2,3:1:0:0:
18,24,70032,1,8,1:0:0:0:
155,178,70274,1,2,0:1:0:0:
257,90,70516,2,0,P|214:94|168:101,1,88.000002685547,0|0,1:0|0:0,0:0:0:0:
56,260,71000,2,0,P|99:256|145:249,1,88.000002685547,8|0,1:0|0:0,0:0:0:0:
342,346,71484,6,0,P|369:285|365:235,1,88.000002685547,0|2,1:0|0:1,0:0:0:0:
364,231,71847,1,0,3:0:0:0:
364,231,71968,1,10,1:0:0:0:
440,319,72210,1,0,0:0:0:0:
376,154,72452,1,2,1:0:0:0:
288,281,72694,1,0,0:0:0:0:
512,221,72936,1,10,1:1:0:0:
256,187,73177,1,2,0:1:0:0:
438,236,73419,6,0,P|444:180|453:130,1,88.000002685547,2|0,1:1|0:0,0:0:0:0:
459,117,73782,1,2,3:1:0:0:
459,117,73903,2,0,P|401:144|348:141,1,88.000002685547,8|2,1:0|0:1,0:0:0:0:
200,10,74387,2,0,P|245:42|272:77,1,88.000002685547,0|0,1:0|0:0,0:0:0:0:
245,279,74871,2,0,P|250:224|267:183,1,88.000002685547,8|2,1:0|1:0,0:0:0:0:
274,165,75234,1,0,3:0:0:0:
274,165,75355,6,0,P|204:159|93:99,1,176.000005371094,6|8,1:0|1:0,0:0:0:0:
10,325,76081,2,0,P|62:304|117:297,1,88.000002685547,2|0,0:1|1:0,0:0:0:0:
181,203,76565,1,2,0:1:0:0:
9,149,76806,2,0,P|17:207|20:248,1,88.000002685547,8|2,1:0|0:1,0:0:0:0:
194,338,77290,1,0,1:0:0:0:
93,226,77532,1,2,0:1:0:0:
213,134,77774,1,10,1:1:0:0:
314,246,78016,1,2,0:1:0:0:
122,295,78258,6,0,P|73:307|30:324,1,88.000002685547,0|0,1:0|0:0,0:0:0:0:
273,327,78742,1,10,1:1:0:0:
329,171,78984,1,2,0:1:0:0:
482,272,79226,6,0,L|502:164,1,88.000002685547,2|0,1:0|0:0,0:0:0:0:
300,215,79710,6,0,L|304:105,1,88.000002685547,10|0,1:0|0:0,0:0:0:0:
171,155,80194,5,2,1:0:0:0:
196,73,80436,1,0,0:0:0:0:
0,137,80677,5,10,1:1:0:0:
92,0,80919,1,2,0:0:0:0:
122,216,81161,6,0,P|125:262|120:320,1,88.000002685547,4|0,1:0|0:0,0:0:0:0:
113,324,81524,1,0,3:0:0:0:
99,346,81645,2,0,P|152:357|201:375,1,88.000002685547,2|0,1:0|0:0,0:0:0:0:
210,369,82008,1,0,3:0:0:0:
236,364,82129,2,0,P|240:330|250:291,1,44.0000013427735,2|0,1:1|0:0,0:0:0:0:
350,222,82371,2,0,P|353:243|355:265,1,44.0000013427735,0|0,1:0|0:0,0:0:0:0:
487,303,82613,6,0,P|495:241|506:195,1,96,2|0,1:0|0:0,0:0:0:0:
507,176,83097,5,6,1:0:0:0:
475,382,83339,1,2,1:0:0:0:
424,200,83581,2,0,P|416:147|405:103,1,88.000002685547,8|0,1:0|0:0,0:0:0:0:
165,191,84065,1,2,1:0:0:0:
341,78,84306,1,2,0:1:0:0:
183,20,84548,2,0,P|191:65|196:124,1,88.000002685547,10|0,1:0|0:0,0:0:0:0:
6,249,85032,6,0,P|48:239|92:233,1,88.000002685547,2|8,1:0|1:0,0:0:0:0:
93,112,85516,1,10,1:0:0:0:
207,202,85758,2,0,P|190:242|179:285,1,88.000002685547,2|0,0:1|1:0,0:1:0:0:
280,359,86242,1,2,0:1:0:0:
380,280,86484,2,0,P|369:237|352:196,1,88.000002685547,8|2,1:0|0:1,0:0:0:0:
99,172,86968,5,2,1:1:0:0:
286,227,87210,1,0,3:0:0:0:
286,227,87331,1,2,1:1:0:0:
473,161,87573,1,0,3:0:0:0:
473,161,87694,1,2,1:1:0:0:
308,36,87936,2,0,P|289:93|287:142,1,88.000002685547,0|0,1:0|0:0,0:0:0:0:
485,314,88419,2,0,P|504:257|506:208,1,88.000002685547,8|0,1:0|0:0,0:0:0:0:
247,311,88903,5,2,1:0:0:0:
247,311,89024,1,0,3:0:0:0:
247,311,89145,2,0,P|316:327|397:372,1,146.666671142578,2|2,1:0|0:0,0:0:0:0:
363,235,89750,2,0,P|358:174|361:129,1,88.000002685547,2|0,0:1|0:0,0:0:0:0:
360,111,90113,1,0,1:0:0:0:
424,284,90355,5,10,1:0:0:0:
419,61,90597,1,0,1:0:0:0:
213,213,90839,5,6,1:0:0:0:
425,181,91081,2,0,P|471:174|522:172,1,88.000002685547,10|8,0:1|0:1,0:0:0:0:
147,180,91565,5,2,0:1:0:0:
367,231,91806,1,2,1:1:0:0:
119,250,92048,1,2,3:1:0:0:
119,250,92169,2,0,P|72:258|21:270,1,88.000002685547,2|0,0:0|0:0,0:0:0:0:
3,273,92532,1,2,0:1:0:0:
249,357,92774,5,2,1:0:0:0:
319,234,93016,1,8,0:1:0:0:
202,142,93258,1,10,1:1:0:0:
121,267,93500,1,2,0:1:0:0:
346,318,93742,5,0,1:0:0:0:
414,262,93984,2,0,P|416:209|412:158,2,88.000002685547,2|10|2,0:1|1:1|0:1,0:0:0:0:
194,244,94710,6,0,P|245:226|293:223,1,88.000002685547,0|8,1:0|1:0,0:0:0:0:
493,130,95194,2,0,P|386:124|327:47,1,176.000005371094,8|0,1:0|1:0,0:0:0:0:
127,93,95919,1,0,3:0:0:0:
127,93,96040,1,0,3:0:0:0:
127,93,96161,1,8,1:0:0:0:
261,189,96403,1,0,0:0:0:0:
195,1,96645,6,0,P|198:50|208:105,1,88.000002685547,2|0,1:0|0:0,0:0:0:0:
190,290,97129,2,0,P|187:241|177:186,1,88.000002685547,10|0,1:0|0:0,0:0:0:0:
64,144,97613,6,0,P|113:141|168:131,1,88.000002685547,2|0,1:0|3:0,0:0:0:0:
190,147,97976,1,0,3:0:0:0:
231,158,98097,2,0,P|274:151|318:148,1,88.000002685547,10|0,1:0|0:0,0:0:0:0:
512,197,98581,5,6,1:0:0:0:
421,27,98823,1,10,1:0:0:0:
343,215,99065,2,0,P|353:264|358:317,1,88.000002685547,8|2,1:0|0:1,0:0:0:0:
301,367,99548,1,2,1:0:0:0:
62,253,99790,1,0,3:1:0:0:
62,253,99911,1,2,0:1:0:0:
62,253,100032,2,0,P|107:276|168:276,1,88.000002685547,8|2,1:0|0:1,0:0:0:0:
253,253,100516,5,2,1:0:0:0:
113,100,100758,1,8,3:1:0:0:
113,100,100879,1,0,3:0:0:0:
113,100,101000,1,10,1:0:0:0:
299,191,101242,2,0,P|354:199|417:208,1,88.000002685547,2|0,0:1|1:0,0:0:0:0:
512,126,101726,1,2,0:1:0:0:
407,22,101968,1,10,1:1:0:0:
284,92,102210,1,2,0:1:0:0:
448,273,102452,6,0,P|458:214|484:158,1,88.000002685547,0|8,1:0|0:1,0:0:0:0:
228,282,102936,2,0,P|320:306|411:354,1,176.000005371094,8|0,1:0|1:0,0:0:0:0:
109,342,103661,1,2,0:1:0:0:
310,221,103903,1,10,1:1:0:0:
162,152,104145,1,2,0:1:0:0:
225,296,104387,6,0,P|228:342|229:391,1,88.000002685547,2|8,1:1|1:0,0:0:0:0:
229,384,104750,1,2,0:1:0:0:
229,384,104871,1,8,1:0:0:0:
34,214,105113,1,2,0:1:0:0:
34,214,105234,1,0,0:0:0:0:
34,214,105355,2,0,P|93:207|136:179,1,88.000002685547,0|2,1:0|0:1,0:0:0:0:
90,43,105839,2,0,P|63:85|59:133,1,88.000002685547,10|0,1:1|1:0,0:0:0:0:
284,233,106323,5,6,1:0:0:0:
199,55,106565,1,2,1:0:0:0:
220,274,106806,2,0,P|221:327|220:370,1,88.000002685547,8|2,1:0|0:1,0:0:0:0:
102,204,107290,2,0,P|63:232|4:251,1,88.000002685547,2|0,1:1|0:0,0:0:0:0:
10,148,107774,1,10,1:1:0:0:
187,99,108016,6,2,P|184:194|144:280,1,176.000005371094,2|10,1:1|1:1,0:1:0:0:
231,357,108742,1,8,1:0:0:0:
398,286,108984,2,0,P|353:284|311:281,1,88.000002685547,2|0,1:1|0:1,0:1:0:0:
506,166,109468,2,0,P|457:178|414:186,1,88.000002685547,2|8,1:1|1:1,0:1:0:0:
192,16,109952,6,0,P|185:61|189:111,1,88.000002685547,2|0,1:0|1:0,0:0:0:0:
310,68,110436,1,8,1:0:0:0:
87,157,110677,2,0,P|178:187|247:278,1,176.000005371094,8|0,1:1|1:1,0:1:0:0:
236,342,111403,1,2,3:1:0:0:
236,342,111524,1,0,3:0:0:0:
236,342,111645,1,10,1:1:0:0:
294,134,111887,1,0,0:0:0:0:
53,278,112129,6,0,P|110:274|146:271,1,88.000002685547,6|0,1:0|0:0,0:0:0:0:
420,216,112613,2,0,P|363:212|327:209,1,88.000002685547,10|0,1:0|0:0,0:0:0:0:
129,141,113097,2,0,P|186:137|222:134,1,88.000002685547,2|0,1:0|3:0,0:0:0:0:
238,118,113460,1,0,3:0:0:0:
256,99,113581,6,0,L|191:96,1,60.0000022888184,10|0,1:0|0:0,0:0:0:0:
25,18,114065,6,0,P|12:67|24:124,1,88.000002685547,6|0,1:0|0:0,0:0:0:0:
30,131,114427,1,0,3:0:0:0:
30,131,114548,1,10,1:0:0:0:
186,202,114790,2,0,P|192:134|196:96,1,88.000002685547,2|0,0:1|1:0,0:0:0:0:
24,226,115274,1,0,0:0:0:0:
159,306,115516,2,0,P|213:292|253:287,1,88.000002685547,8|0,1:0|0:0,0:0:0:0:
397,178,116000,5,2,1:0:0:0:
331,356,116242,1,0,3:0:0:0:
331,356,116363,1,2,1:0:0:0:
261,216,116605,1,0,3:0:0:0:
261,216,116726,1,2,1:0:0:0:
426,283,116968,6,0,P|488:293|518:301,1,88.000002685547,0|0,1:0|0:0,0:0:0:0:
512,180,117331,1,0,3:0:0:0:
512,180,117452,2,0,P|469:190|425:196,1,88.000002685547,8|0,1:0|0:0,0:0:0:0:
369,90,117936,5,2,1:1:0:0:
228,150,118177,1,0,3:0:0:0:
228,150,118298,1,2,3:1:0:0:
228,150,118419,1,8,1:0:0:0:
114,75,118661,1,2,0:1:0:0:
308,18,118903,2,0,P|296:71|294:122,1,88.000002685547,0|0,1:0|0:0,0:0:0:0:
170,268,119387,2,0,P|166:224|155:181,1,88.000002685547,8|0,1:0|0:0,0:0:0:0:
91,348,119871,6,0,P|158:314|261:308,1,176.000005371094,2|8,1:0|1:0,0:0:0:0:
405,271,120597,1,0,0:0:0:0:
268,232,120839,1,2,1:0:0:0:
370,371,121081,1,0,3:0:0:0:
370,371,121202,1,0,3:0:0:0:
370,371,121323,1,8,1:0:0:0:
491,274,121565,1,0,1:0:0:0:
369,156,121806,6,0,P|375:204|378:258,1,88.000002685547,6|0,1:0|0:0,0:0:0:0:
292,44,122290,1,8,1:0:0:0:
397,82,122532,2,0,P|330:137|227:125,1,176.000005371094,2|0,0:1|0:0,0:0:0:0:
66,41,123258,2,0,P|64:84|67:128,1,88.000002685547,8|0,1:0|0:0,0:0:0:0:
209,251,123742,5,2,1:0:0:0:
142,91,123984,1,0,3:0:0:0:
142,91,124105,1,2,1:0:0:0:
13,178,124347,1,0,3:0:0:0:
13,178,124468,1,2,1:0:0:0:
191,326,124710,5,0,1:0:0:0:
291,264,124952,1,0,3:0:0:0:
291,264,125073,1,0,3:0:0:0:
291,264,125194,2,0,P|294:205|288:160,1,88.000002685547,8|0,1:0|0:0,0:0:0:0:
465,297,125677,6,0,P|369:313|296:382,1,176.000005371094,2|8,1:1|1:0,0:0:0:0:
204,340,126403,1,2,0:1:0:0:
56,262,126645,2,0,P|112:259|158:256,1,88.000002685547,0|0,1:0|0:0,0:0:0:0:
315,145,127129,2,0,P|259:142|213:139,1,88.000002685547,8|0,1:0|0:0,0:0:0:0:
2,37,127613,5,8,3:0:0:0:
17,78,127734,1,8,3:0:0:0:
58,91,127855,1,8,3:0:0:0:
106,85,127976,5,8,3:1:0:0:
141,111,128097,1,8,3:0:0:0:
154,152,128218,1,8,3:0:0:0:
127,202,128339,5,8,3:1:0:0:
191,26,128581,1,0,1:0:0:0:
16,216,128823,1,4,3:0:0:0:
16,216,128944,1,4,3:0:0:0:
16,216,129065,2,0,P|98:235|161:291,1,167.999994873047,4|0,1:3|0:0,0:0:0:0:
165,307,129548,6,0,P|158:342|152:366,2,44.0000013427735,6|0|0,1:0|0:0|0:0,0:0:0:0:
235,266,129911,1,2,3:1:0:0:
235,266,130032,2,0,P|218:208|217:142,1,88.000002685547,0|2,1:0|0:1,0:0:0:0:
245,68,130516,1,2,1:1:0:0:
245,68,130758,1,2,0:1:0:0:
339,136,131000,2,0,P|390:136|437:119,1,88.000002685547,8|2,1:0|0:1,0:0:0:0:
456,43,131484,5,2,1:1:0:0:
445,78,131604,1,0,3:0:0:0:
448,116,131725,1,0,3:0:0:0:
462,150,131846,1,2,3:1:0:0:
496,172,131968,5,0,1:0:0:0:
507,208,132088,1,0,3:0:0:0:
504,245,132209,1,2,3:1:0:0:
490,279,132330,1,0,3:0:0:0:
451,302,132452,6,0,P|413:294|364:290,2,88.000002685547,2|2|8,1:0|0:1|1:0,0:0:0:0:
269,381,133177,1,2,0:1:0:0:
124,193,133419,5,2,1:0:0:0:
277,218,133661,1,0,3:0:0:0:
277,218,133782,1,2,1:0:0:0:
178,338,134024,1,0,3:0:0:0:
178,338,134145,1,2,1:0:0:0:
113,184,134387,5,2,1:0:0:0:
285,212,134629,1,0,3:0:0:0:
285,212,134750,1,2,1:0:0:0:
174,347,134992,1,0,3:0:0:0:
174,347,135113,1,2,1:0:0:0:
51,235,135355,6,0,P|70:174|69:121,1,88.000002685547,2|2,1:0|0:0,0:0:0:0:
24,80,135718,2,0,P|60:105|154:100,1,132.00000402832,2|2,0:1|0:0,0:0:0:0:
178,81,136202,1,2,3:2:0:0:
202,50,136323,6,0,P|229:46|263:43,1,44.0000013427735,2|0,1:0|0:0,0:0:0:0:
317,116,136565,2,0,P|336:89|356:67,1,44.0000013427735
444,47,136806,2,0,P|436:93|432:137,1,88.000002685547,10|0,1:1|1:0,0:0:0:0:
179,214,137290,5,6,1:0:0:0:
209,245,137411,1,0,3:0:0:0:
252,251,137532,1,0,3:0:0:0:
295,242,137653,2,0,P|353:237|402:256,2,88.000002685547,2|2|0,3:1|0:1|0:0,0:0:0:0:
133,339,138379,5,2,3:1:0:0:
148,297,138500,1,0,3:1:0:0:
163,255,138621,1,2,3:1:0:0:
179,214,138742,1,8,1:0:0:0:
36,232,138984,6,0,L|87:222,1,44.0000013427735,2|0,0:1|0:0,0:0:0:0:
153,215,139226,1,2,1:1:0:0:
0,165,139468,1,0,3:0:0:0:
0,165,139589,1,2,3:1:0:0:
223,199,139831,2,0,L|274:206,2,44.0000013427735,0|2|0,0:0|0:1|0:0,0:0:0:0:
170,143,140194,5,2,1:1:0:0:
303,293,140436,1,2,0:1:0:0:
446,183,140677,1,10,1:1:0:0:
311,38,140919,5,2,0:1:0:0:
265,105,141161,2,0,P|280:154|288:206,1,88.000002685547,2|2,1:1|0:0,0:0:0:0:
364,208,141524,2,0,P|296:224|215:273,1,132.00000402832,2|2,0:1|0:1,0:0:0:0:
422,364,142129,1,2,1:0:0:0:
502,297,142371,1,2,3:2:0:0:
502,297,142492,2,0,P|507:222|500:150,1,132.00000402832,2|0,0:1|0:0,0:0:0:0:
491,131,142976,1,0,3:0:0:0:
483,96,143097,6,0,P|483:67|488:29,1,44.0000013427735,2|0,1:1|0:0,0:0:0:0:
307,97,143339,2,0,P|308:118|308:140,1,44.0000013427735,2|0,0:1|0:0,0:0:0:0:
403,144,143581,6,0,P|408:114|411:81,1,44.0000013427735,2|0,1:1|0:0,0:0:0:0:
221,68,143823,2,0,P|216:98|213:131,1,44.0000013427735,2|0,0:1|0:0,0:0:0:0:
231,285,144065,5,2,1:0:0:0:
15,229,144306,1,0,1:0:0:0:
15,229,144427,1,0,1:0:0:0:
15,229,144548,2,0,P|108:220|157:160,1,167.999994873047,2|0,1:0|0:0,0:0:0:0:
158,143,145032,5,4,1:0:0:0:
16,58,145274,2,0,P|13:107|14:154,1,88.000002685547,2|10,0:1|1:1,0:0:0:0:
85,310,145758,1,0,0:0:0:0:
226,213,146000,1,2,1:0:0:0:
181,378,146242,1,0,3:0:0:0:
181,378,146363,1,0,3:0:0:0:
181,378,146484,1,10,1:1:0:0:
110,220,146726,1,2,0:1:0:0:
250,301,146968,6,0,P|296:305|345:303,1,88.000002685547,2|0,1:0|0:1,0:0:0:0:
491,279,147452,1,8,1:0:0:0:
334,211,147694,1,2,0:1:0:0:
436,365,147936,2,0,P|419:310|409:167,1,176.000005371094,2|8,1:0|1:0,0:0:0:0:
447,125,148662,1,0,0:0:0:0:
255,31,148903,5,0,1:0:0:0:
300,189,149145,1,2,3:1:0:0:
300,189,149266,1,0,3:0:0:0:
300,189,149387,1,10,1:1:0:0:
288,23,149629,1,0,0:0:0:0:
224,168,149871,1,2,1:0:0:0:
363,54,150113,1,0,0:0:0:0:
182,104,150355,2,0,P|144:109|85:110,1,88.000002685547,10|0,1:0|0:0,0:0:0:0:
22,264,150839,6,0,P|90:252|127:256,1,88.000002685547,2|0,1:0|0:0,0:0:0:0:
142,262,151202,1,2,3:1:0:0:
173,277,151323,2,0,P|218:313|251:359,1,88.000002685547,8|2,1:0|0:1,0:0:0:0:
62,320,151806,1,0,1:0:0:0:
62,320,151927,1,0,3:0:0:0:
62,320,152048,1,0,3:0:0:0:
265,232,152290,1,8,1:0:0:0:
127,232,152532,1,2,1:0:0:0:
313,307,152774,6,0,P|365:302|408:296,1,88.000002685547,6|0,1:0|0:0,0:0:0:0:
475,231,153258,1,8,1:0:0:0:
382,146,153500,2,0,P|353:194|350:245,1,88.000002685547,2|0,0:1|1:0,0:0:0:0:
329,61,153984,6,2,P|381:109|487:90,1,176.000005371094,2|2,0:1|0:1,0:1:0:0:
490,13,154710,1,0,1:0:0:0:
431,160,154952,1,2,0:1:0:0:
341,57,155194,1,10,1:1:0:0:
260,112,155436,1,2,0:1:0:0:
123,91,155677,5,0,1:0:0:0:
123,91,155798,1,0,3:0:0:0:
123,91,155919,1,0,3:0:0:0:
226,211,156161,1,10,1:1:0:0:
172,22,156403,1,2,0:1:0:0:
51,155,156645,6,0,P|108:172|153:174,1,88.000002685547,2|0,1:0|0:0,0:0:0:0:
170,266,157129,2,0,P|227:249|272:247,1,88.000002685547,10|0,1:0|0:0,0:0:0:0:
38,342,157613,2,2,P|129:354|217:390,1,176.000005371094,2|10,1:1|1:1,0:1:0:0:
298,367,158339,1,0,0:1:0:0:
493,257,158581,5,4,1:0:0:0:
404,335,158823,1,0,3:0:0:0:
404,335,158944,1,0,3:0:0:0:
404,335,159065,1,0,1:0:0:0:
322,197,159307,1,0,3:0:0:0:
322,197,159428,1,0,3:0:0:0:
322,197,159549,1,0,1:0:0:0:
236,284,159791,1,2,1:0:0:0:
236,284,159912,1,0,1:0:0:0:
236,284,160033,2,0,P|292:239|405:253,1,167.999994873047,2|0,1:0|0:0,0:0:0:0:
408,256,160517,5,6,1:0:0:0:
501,108,160758,1,2,3:2:0:0:
501,108,160879,2,0,P|447:140|369:129,1,132.00000402832,2|2,0:1|0:1,0:0:0:0:
344,35,161484,1,2,1:1:0:0:
313,176,161726,1,0,0:1:0:0:
272,19,161968,1,10,1:1:0:0:
175,145,162210,1,2,0:1:0:0:
21,89,162452,6,0,P|68:85|123:83,1,88.000002685547,2|0,1:0|0:0,0:0:0:0:
140,82,162815,1,2,3:1:0:0:
140,82,162936,1,8,1:0:0:0:
16,12,163177,1,2,0:1:0:0:
155,170,163419,2,0,P|171:84|207:4,1,176.000005371094,0|8,1:0|1:0,0:0:0:0:
248,147,164145,1,0,0:0:0:0:
18,216,164387,6,0,P|78:234|118:257,1,88.000002685547,0|2,1:0|0:1,0:0:0:0:
126,269,164750,1,0,3:0:0:0:
147,296,164871,2,0,P|169:342|178:380,1,88.000002685547,10|0,1:0|0:0,0:0:0:0:
214,155,165355,5,2,1:0:0:0:
284,317,165597,1,0,0:0:0:0:
371,171,165839,1,10,1:1:0:0:
201,238,166081,1,2,0:1:0:0:
366,254,166323,2,0,P|414:266|459:283,1,88.000002685547,2|0,1:1|0:0,0:0:0:0:
499,222,166686,1,2,3:1:0:0:
499,222,166806,2,0,P|485:163|482:109,1,88.000002685547,0|2,1:0|0:1,0:0:0:0:
500,63,167290,5,0,1:0:0:0:
500,63,167411,1,0,3:0:0:0:
500,63,167532,1,0,3:0:0:0:
259,107,167774,1,8,1:0:0:0:
411,157,168016,1,2,1:0:0:0:
194,35,168258,6,0,P|225:114|235:218,1,176.000005371094,6|8,1:0|1:0,0:0:0:0:
37,194,168984,2,0,P|88:177|139:173,1,88.000002685547,2|0,0:1|1:0,0:0:0:0:
255,277,169468,1,2,0:1:0:0:
115,347,169710,2,0,P|100:290|98:240,1,88.000002685547,8|2,1:0|0:1,0:0:0:0:
286,373,170194,5,0,1:0:0:0:
385,264,170436,1,2,0:1:0:0:
270,167,170677,1,10,1:1:0:0:
170,275,170919,1,2,0:1:0:0:
364,336,171161,6,0,P|414:344|454:355,1,88.000002685547,0|0,1:0|0:0,0:0:0:0:
347,163,171645,1,10,1:1:0:0:
288,256,171887,1,2,0:1:0:0:
495,260,172129,6,0,L|507:163,1,88.000002685547,2|0,1:0|0:0,0:0:0:0:
314,182,172613,6,0,L|321:77,1,88.000002685547,10|0,1:0|0:0,0:0:0:0:
127,261,173097,6,0,L|112:77,1,176.000005371094,2|10,1:0|1:1,0:0:0:0:
106,10,173823,1,2,0:0:0:0:
7,151,174065,6,0,P|19:194|25:249,1,88.000002685547,4|0,1:0|0:0,0:0:0:0:
16,266,174427,1,0,3:0:0:0:
1,293,174548,2,0,P|56:303|111:320,1,88.000002685547,2|0,1:0|0:0,0:0:0:0:
115,324,174911,1,0,3:0:0:0:
141,339,175032,2,0,P|147:305|153:279,1,44.0000013427735,2|0,1:1|0:0,0:0:0:0:
258,187,175274,2,0,P|262:208|265:230,1,44.0000013427735,0|0,1:0|0:0,0:0:0:0:
407,299,175516,5,2,1:0:0:0:
407,299,175637,1,0,3:0:0:0:
407,299,175758,1,0,3:0:0:0:
407,299,175879,1,0,3:0:0:0:
407,299,176000,1,6,1:0:0:0:
156,213,176242,1,2,1:0:0:0:
252,360,176484,2,0,P|305:348|350:343,1,88.000002685547,8|0,1:0|0:0,0:0:0:0:
475,218,176968,5,2,1:0:0:0:
288,134,177210,1,2,3:2:0:0:
288,134,177331,1,2,0:1:0:0:
288,134,177452,2,0,P|285:193|287:241,1,88.000002685547,8|2,1:0|0:1,0:0:0:0:
172,152,177936,5,2,1:0:0:0:
207,45,178177,1,8,1:0:0:0:
392,182,178419,5,10,1:0:0:0:
346,25,178661,1,2,0:1:0:0:
157,222,178903,5,0,1:0:0:0:
312,299,179145,2,0,P|318:240|309:188,1,88.000002685547,2|8,0:1|1:0,0:0:0:0:
263,149,179629,1,2,0:1:0:0:
0,298,179871,5,2,1:1:0:0:
146,366,180113,1,0,3:0:0:0:
146,366,180234,1,2,1:1:0:0:
244,251,180476,1,0,3:0:0:0:
244,251,180597,1,2,1:1:0:0:
66,162,180839,6,0,P|55:216|59:263,1,88.000002685547,0|0,1:0|0:0,0:0:0:0:
277,351,181323,1,8,1:0:0:0:
208,178,181565,1,2,0:1:0:0:
128,260,181806,2,0,P|181:278|224:279,1,88.000002685547,2|10,1:0|1:0,0:0:0:0:
323,156,182290,5,10,0:1:0:0:
192,39,182532,2,0,P|134:103|137:208,1,176.000005371094,2|0,0:1|1:0,0:0:0:0:
291,249,183258,1,10,1:0:0:0:
291,249,183500,1,0,1:0:0:0:
394,121,183742,5,6,1:0:0:0:
203,184,183984,1,10,0:1:0:0:
425,195,184226,2,0,P|481:202|528:210,1,88.000002685547,8|2,0:1|0:1,0:0:0:0:
449,19,184710,1,2,1:1:0:0:
304,96,184952,1,2,0:0:0:0:
304,96,185073,1,2,1:0:0:0:
304,96,185194,2,0,P|313:151|313:209,1,88.000002685547,8|2,1:0|0:1,0:0:0:0:
255,345,185677,5,2,1:0:0:0:
216,207,185919,1,8,0:1:0:0:
82,293,186161,5,10,1:1:0:0:
133,112,186403,1,2,0:1:0:0:
172,295,186645,6,0,P|175:346|171:390,1,88.000002685547,0|2,1:0|0:1,0:0:0:0:
17,243,187129,1,10,1:1:0:0:
144,191,187371,1,2,3:1:0:0:
144,191,187492,1,0,3:0:0:0:
144,191,187613,2,0,P|201:195|254:218,1,88.000002685547,0|8,1:1|1:0,0:0:0:0:
77,114,188097,1,8,1:0:0:0:
278,142,188339,1,0,3:0:0:0:
278,142,188460,1,0,3:0:0:0:
278,142,188581,2,0,P|318:158|367:190,1,88.000002685547,0|2,1:0|0:1,0:0:0:0:
255,36,189065,1,8,1:0:0:0:
462,118,189306,5,2,3:1:0:0:
462,118,189427,1,0,3:0:0:0:
462,118,189548,2,0,P|441:180|430:253,1,132.00000402832,2|0,1:0|0:0,0:0:0:0:
437,270,190032,2,0,P|387:255|336:246,1,88.000002685547,10|0,1:0|0:0,0:0:0:0:
320,249,190395,1,0,3:0:0:0:
289,251,190516,6,0,P|259:256|233:263,1,44.0000013427735,2|0,1:0|0:0,0:0:0:0:
174,151,190758,2,0,P|204:156|230:163,1,44.0000013427735,0|0,3:0|3:0,0:0:0:0:
310,320,191000,2,0,P|249:333|199:346,1,88.000002685547,10|0,1:0|0:0,0:0:0:0:
46,296,191484,5,4,1:0:0:0:
61,218,191968,1,2,0:0:0:0:
120,270,192452,1,0,0:0:0:0:
105,348,192936,1,2,0:0:0:0:
13,148,193419,5,0,1:0:0:0:
91,140,193903,1,2,0:0:0:0:
154,92,194387,1,0,0:0:0:0:
232,84,194871,1,2,0:0:0:0:
394,16,195355,5,0,1:0:0:0:
454,66,195839,1,2,0:0:0:0:
473,142,196323,1,0,0:0:0:0:
442,215,196806,1,2,0:0:0:0:
282,311,197290,6,0,P|339:326|385:346,2,90.0000034332277,2|2|2,1:2|0:0|0:0,0:0:0:0:
209,340,198258,1,2,1:2:0:0:
209,340,198500,1,2,0:2:0:0:
350,251,198742,1,2,0:2:0:0:
0,136,199226,6,0,P|7:175|14:229,1,71.9999978027344,4|0,1:0|0:0,0:0:0:0:
107,257,199710,1,2,0:0:0:0:
189,184,199952,1,0,0:0:0:0:
16,285,200194,2,0,P|89:302|162:345,1,143.999995605469,0|2,1:0|0:0,0:0:0:0:
260,22,201161,5,4,1:0:0:0:
174,97,201403,1,0,3:0:0:0:
174,97,201524,1,0,3:0:0:0:
174,97,201645,2,0,P|168:146|174:189,1,71.9999978027344,2|0,0:0|0:0,0:0:0:0:
342,168,202129,2,0,P|343:132|338:97,1,71.9999978027344,0|0,1:0|0:0,0:0:0:0:
249,249,202613,1,2,0:0:0:0:
85,257,202855,6,0,P|132:254|167:252,1,71.9999978027344,0|4,0:0|1:0,0:0:0:0:
368,317,203339,1,0,0:0:0:0:
368,317,203581,2,0,P|321:320|286:322,1,71.9999978027344,2|0,0:0|0:0,0:0:0:0:
512,259,204065,2,0,P|463:332|443:409,1,143.999995605469,4|2,1:0|0:0,0:0:0:0:
383,200,204790,1,0,3:0:0:0:
383,200,204911,1,0,3:0:0:0:
383,200,205032,1,4,1:0:0:0:
256,192,205153,12,6,206968,1:0:0:0:
256,192,207210,5,2,1:0:0:0:
256,192,207452,1,8,1:0:0:0:
39,186,207936,5,2,1:0:0:0:
192,83,208177,1,2,0:1:0:0:
71,28,208419,2,0,P|81:82|83:133,1,95.9999970703126,10|0,1:0|0:0,0:0:0:0:
196,261,208903,2,0,P|258:271|305:287,1,95.9999970703126,2|8,1:0|1:0,0:0:0:0:
249,129,209387,1,10,1:0:0:0:
105,227,209629,2,0,P|122:271|135:317,1,95.9999970703126,2|0,0:1|1:0,0:1:0:0:
266,372,210113,1,2,0:1:0:0:
386,302,210355,2,0,P|442:298|495:297,1,95.9999970703126,8|2,1:0|0:1,0:0:0:0:
377,139,210839,5,2,1:1:0:0:
304,280,211081,1,0,3:0:0:0:
304,280,211202,1,2,1:1:0:0:
427,384,211444,1,0,3:0:0:0:
427,384,211565,1,2,1:1:0:0:
512,226,211806,6,0,P|514:166|510:109,1,95.9999970703126,0|0,1:0|0:0,0:0:0:0:
298,46,212290,2,0,P|296:106|300:163,1,95.9999970703126,8|0,1:0|0:0,0:0:0:0:
284,297,212774,5,2,1:0:0:0:
284,297,212895,1,0,3:0:0:0:
284,297,213016,2,0,P|215:313|116:368,1,159.999995117188,2|2,1:0|0:0,0:0:0:0:
0,242,213621,2,0,P|57:244|106:249,1,95.9999970703126,2|0,0:1|0:0,0:0:0:0:
129,229,213984,1,0,3:0:0:0:
156,202,214105,1,0,3:0:0:0:
176,169,214226,2,0,P|179:110|178:55,1,95.9999970703126,10|0,1:0|1:0,0:0:0:0:
121,14,214710,5,6,1:0:0:0:
255,151,214952,2,0,P|296:175|339:195,1,95.9999970703126,10|8,0:1|0:1,0:0:0:0:
346,42,215436,1,2,0:1:0:0:
209,171,215677,5,2,1:1:0:0:
401,270,215919,1,2,3:1:0:0:
401,270,216040,2,0,P|431:191|430:98,1,143.999995605469,2|2,0:0|0:1,0:0:0:0:
357,346,216645,5,2,1:0:0:0:
322,158,216887,1,0,0:0:0:0:
169,314,217129,5,10,1:1:0:0:
193,192,217371,1,2,0:1:0:0:
71,256,217613,6,0,P|39:258|-20:267,2,71.9999978027344,0|2|10,1:0|0:1|1:1,0:0:0:0:
259,356,218339,1,2,3:1:0:0:
259,356,218460,1,0,3:0:0:0:
259,356,218581,2,0,P|271:293|292:229,1,95.9999970703126,0|8,1:0|1:0,0:0:0:0:
225,167,219065,2,0,P|295:229|388:225,1,191.999994140625,8|0,1:0|1:0,0:0:0:0:
452,101,219790,1,0,3:0:0:0:
452,101,219911,1,0,3:0:0:0:
452,101,220032,1,8,1:0:0:0:
332,143,220274,1,0,0:0:0:0:
493,283,220516,6,0,P|505:224|520:165,1,95.9999970703126,2|0,1:0|0:0,0:0:0:0:
299,340,221000,2,0,P|294:288|289:242,1,95.9999970703126,10|0,1:0|0:0,0:0:0:0:
276,207,221363,1,0,3:0:0:0:
263,170,221484,2,0,P|265:145|272:95,1,47.9999985351563,2|0,1:0|0:0,0:0:0:0:
116,324,221726,5,0,1:0:0:0:
116,324,221847,1,0,1:0:0:0:
116,324,221968,2,0,P|106:243|89:148,1,167.999994873047,10|0,1:0|0:0,0:0:0:0:
83,124,222452,5,14,1:0:0:0:
34,293,222694,1,10,1:0:0:0:
12,106,222936,2,0,P|9:50|3:7,1,95.9999970703126,0|2,1:0|0:1,0:0:0:0:
184,68,223419,5,2,1:0:0:0:
26,184,223661,1,2,3:2:0:0:
26,184,223782,2,0,P|105:210|187:258,1,143.999995605469,2|2,0:1|0:1,0:0:0:0:
243,314,224387,5,2,1:0:0:0:
323,199,224629,1,8,3:1:0:0:
323,199,224750,1,0,3:1:0:0:
323,199,224871,1,10,1:0:0:0:
203,99,225113,1,2,0:1:0:0:
121,226,225355,1,0,1:0:0:0:
136,62,225597,5,2,0:1:0:0:
191,260,225839,1,10,1:1:0:0:
333,119,226081,1,2,3:1:0:0:
333,119,226202,1,0,3:0:0:0:
333,119,226323,2,0,P|341:57|340:20,1,95.9999970703126,0|8,1:0|0:1,0:0:0:0:
188,194,226806,2,0,P|260:212|356:279,1,191.999994140625,8|0,1:0|1:0,0:0:0:0:
494,303,227532,1,2,0:1:0:0:
375,186,227774,1,10,1:1:0:0:
459,329,228016,1,2,0:1:0:0:
510,178,228258,6,0,P|512:128|511:76,1,95.9999970703126,2|8,1:1|1:0,0:0:0:0:
512,51,228621,1,2,0:1:0:0:
512,51,228742,1,8,1:0:0:0:
349,205,228984,1,2,0:1:0:0:
349,205,229105,1,0,0:0:0:0:
349,205,229226,2,0,P|283:190|232:156,1,95.9999970703126,0|2,1:0|0:1,0:0:0:0:
91,204,229710,1,10,1:1:0:0:
277,103,229952,1,0,1:0:0:0:
66,133,230194,5,6,1:0:0:0:
251,251,230436,1,10,1:0:0:0:
389,128,230677,2,0,P|396:71|393:11,1,95.9999970703126,8|2,1:0|0:1,0:0:0:0:
277,103,231161,1,2,1:1:0:0:
437,207,231403,2,0,P|475:156|487:100,1,95.9999970703126,0|10,0:0|1:1,0:0:0:0:
142,22,231887,6,2,P|130:106|156:221,1,191.999994140625,2|10,1:1|1:1,0:1:0:0:
267,295,232613,1,8,1:0:0:0:
382,208,232855,2,0,P|395:154|388:83,1,95.9999970703126,2|0,1:1|0:1,0:1:0:0:
138,306,233339,2,0,P|162:355|196:388,1,95.9999970703126,2|8,1:1|1:1,0:1:0:0:
174,147,233823,6,0,P|73:154|16:240,1,191.999994140625,2|8,1:0|1:0,0:0:0:0:
236,308,234548,2,0,P|295:299|359:278,1,95.9999970703126,8|0,1:0|0:0,0:0:0:0:
254,118,235032,1,0,1:0:0:0:
134,271,235274,1,2,3:1:0:0:
134,271,235395,1,0,3:0:0:0:
134,271,235516,2,0,P|151:333|158:384,1,95.9999970703126,10|0,1:1|0:0,0:0:0:0:
441,226,236000,6,0,L|340:213,1,95.9999970703126,2|0,1:0|0:0,0:0:0:0:
59,166,236484,2,0,L|160:153,1,95.9999970703126,10|0,1:0|0:0,0:0:0:0:
385,62,236968,1,2,1:0:0:0:
236,110,237210,1,0,1:0:0:0:
236,110,237331,1,0,1:0:0:0:
236,110,237452,2,0,P|224:47|224:-8,1,95.9999970703126,10|0,1:0|0:0,0:0:0:0:
252,272,237936,5,6,1:0:0:0:
256,192,238056,12,6,239871,1:0:0:0:
256,189,240113,5,2,1:0:0:0:
256,189,240355,1,8,1:0:0:0:
23,258,240839,5,2,1:0:0:0:
118,355,241081,1,2,3:1:0:0:
118,355,241202,1,0,3:0:0:0:
118,355,241323,2,0,P|169:344|248:340,1,95.9999970703126,8|0,1:0|0:0,0:0:0:0:
227,153,241806,2,0,P|216:204|213:263,1,95.9999970703126,2|8,1:0|1:0,0:0:0:0:
349,375,242290,1,10,1:0:0:0:
443,267,242532,2,0,P|396:244|339:239,1,95.9999970703126,2|0,0:1|1:0,0:1:0:0:
151,139,243016,1,2,0:1:0:0:
297,101,243258,2,0,P|306:49|301:-9,1,95.9999970703126,8|2,1:0|0:1,0:0:0:0:
100,14,243742,5,2,1:1:0:0:
22,155,243984,1,0,3:0:0:0:
22,155,244105,1,2,1:1:0:0:
142,259,244347,1,0,3:0:0:0:
142,259,244468,2,0,P|192:253|248:249,1,95.9999970703126,2|0,1:1|1:0,0:0:0:0:
343,313,244952,1,0,0:0:0:0:
446,242,245194,1,8,1:0:0:0:
251,177,245436,5,0,3:0:0:0:
251,177,245556,1,0,3:0:0:0:
251,177,245677,1,2,1:0:0:0:
434,320,245919,1,2,1:2:0:0:
434,320,246040,2,0,P|451:263|450:194,1,95.9999970703126,2|2,0:1|0:1,0:0:0:0:
512,147,246403,1,2,0:2:0:0:
512,147,246524,2,0,P|446:174|345:163,1,143.999995605469,2|0,0:1|1:0,0:0:0:0:
315,223,247129,1,10,1:0:0:0:
275,10,247371,1,0,1:0:0:0:
123,171,247613,5,6,1:0:0:0:
293,121,247855,1,10,0:1:0:0:
95,97,248097,2,0,P|48:90|-13:87,1,95.9999970703126,8|2,0:1|0:1,0:0:0:0:
101,247,248581,2,0,P|55:259|10:275,1,95.9999970703126,2|2,1:1|0:1,0:0:0:0:
128,363,249065,1,8,1:0:0:0:
253,328,249306,6,0,P|275:238|261:165,1,95.9999970703126,2|2,0:1|1:0,0:0:0:0:
149,174,249790,1,8,0:1:0:0:
352,213,250032,2,0,P|349:150|323:82,1,95.9999970703126,10|2,1:1|0:1,0:0:0:0:
265,21,250516,2,0,P|336:86|442:62,1,191.999994140625,2|10,1:0|1:1,0:0:0:0:
508,152,251242,5,2,3:1:0:0:
508,152,251363,1,0,3:0:0:0:
508,152,251484,1,2,1:0:0:0:
393,268,251726,1,0,1:0:0:0:
393,268,251847,1,2,3:1:0:0:
272,178,252089,1,0,3:0:0:0:
272,178,252210,1,2,3:1:0:0:
201,346,252452,5,0,1:0:0:0:
116,201,252694,1,0,3:0:0:0:
116,201,252815,1,0,3:0:0:0:
116,201,252936,1,8,1:0:0:0:
0,271,253177,5,0,3:0:0:0:
0,271,253298,1,0,3:0:0:0:
0,271,253419,2,0,P|73:286|119:307,2,120,6|2|2,1:0|1:0|1:0,0:0:0:0:
183,148,254387,5,6,1:0:0:0:
270,246,254629,1,0,3:0:0:0:
270,246,254750,1,0,3:0:0:0:
270,246,254871,1,14,1:0:0:0:
203,35,255113,5,0,0:0:0:0:
60,192,255355,5,6,1:0:0:0:
256,192,255597,12,0,257290,2:2:0:0:
