osu file format v14

[General]
AudioFilename: CELEPRETTY.mp3
AudioLeadIn: 0
PreviewTime: 50291
Countdown: 0
SampleSet: None
StackLeniency: 0.7
Mode: 0
LetterboxInBreaks: 0
WidescreenStoryboard: 0

[Editor]
Bookmarks: 9715
DistanceSpacing: 0.8
BeatDivisor: 4
GridSize: 8
TimelineZoom: 1

[Metadata]
Title:CELEPRETTY
TitleUnicode:연예할래
Artist:Park Boram
ArtistUnicode:박보람
Creator:PostScr1pt
Version:Celepretty!
Source:
Tags:
BeatmapID:829804
BeatmapSetID:379071

[Difficulty]
HPDrainRate:6
CircleSize:4
OverallDifficulty:7
ApproachRate:9
SliderMultiplier:2
SliderTickRate:2

[Events]
//Background and Video events
0,0,"photo-1444838229728-e1653ba7631a.jpg",0,0
//Break Periods
2,78980,83360
//Storyboard Layer 0 (Background)
//Storyboard Layer 1 (Fail)
//Storyboard Layer 2 (Pass)
//Storyboard Layer 3 (Foreground)
//Storyboard Sound Samples

[TimingPoints]
2809,431.654676258993,4,3,0,40,1,0
23528,-100,4,3,0,50,0,0
29571,-90.9090909090909,4,3,0,50,0,0
30003,-83.3333333333333,4,3,0,50,0,0
30434,-100,4,3,0,50,0,0
37341,-100,4,3,0,70,0,0
51154,-83.3333333333333,4,3,0,70,0,1
75326,-111.111111111111,4,3,0,70,0,1
78780,-83.3333333333333,4,3,0,50,0,0
85686,-100,4,3,0,50,0,0
97557,-200,4,3,0,50,0,0
97880,-200,4,3,0,5,0,0
97988,-200,4,3,0,50,0,0
99499,-100,4,3,0,50,0,0
113312,-83.3333333333333,4,3,0,70,0,1
137485,-100,4,3,0,70,0,1
140938,-100,4,3,0,60,0,0
154751,-200,4,3,0,20,0,0
155830,-200,4,3,0,50,0,0
156909,-76.9230769230769,4,3,0,70,0,1
182161,-100,4,3,0,70,0,1
184103,-100,4,3,0,50,0,0
188420,-133.333333333333,4,3,0,30,0,0
188852,-200,4,3,0,10,0,0

[Colours]
Combo1 : 0,154,239
Combo2 : 240,152,0
Combo3 : 220,0,240
Combo4 : 240,0,0

[HitObjects]
256,192,6909,12,0,9499,0:0:0:0:
181,190,9715,6,0,P|235:159|310:218,1,150
319,228,10147,2,0,L|335:114,1,100
248,31,10578,1,0,0:0:0:0:
239,235,10794,1,0,0:0:0:0:
332,128,11010,2,0,L|227:139,1,100
119,204,11442,6,0,B|105:232|105:232|124:248|124:248|110:268|107:302|126:333|159:351|193:345,1,200
304,232,12089,1,0,0:0:0:0:
134,105,12305,2,0,L|115:223,1,100
252,124,12737,2,0,L|236:25,1,100
118,203,13168,6,0,P|144:265|236:275,1,150
269,259,13600,2,0,L|278:376,1,100
200,178,14032,1,0,0:0:0:0:
382,129,14247,1,0,0:0:0:0:
236,23,14463,1,0,0:0:0:0:
259,200,14679,1,0,0:0:0:0:
400,161,14895,5,0,0:0:0:0:
400,161,15003,2,0,P|408:222|333:288,1,150
227,131,15542,1,0,0:0:0:0:
143,252,15758,2,0,L|160:304,2,50
87,202,16082,2,0,P|69:148|93:100,1,100
115,42,16406,1,0,0:0:0:0:
227,189,16621,6,0,P|281:159|226:131,1,150
192,183,17053,2,0,L|221:314,1,100
307,129,17485,2,0,L|328:226,1,100
421,88,17916,1,0,0:0:0:0:
240,32,18132,1,0,0:0:0:0:
279,218,18348,6,0,P|276:282|192:322,1,150
163,291,18780,2,0,P|81:288|58:277,1,100
25,171,19211,1,0,0:0:0:0:
91,60,19427,1,0,0:0:0:0:
217,31,19643,2,0,L|277:32,1,50
295,49,19859,2,0,L|348:49,1,50
373,66,20075,6,0,B|378:80|378:80|367:97|367:97|390:112|408:133|415:163|411:195|397:218|372:237,1,200
313,167,20722,1,0,0:0:0:0:
201,246,20938,1,0,0:0:0:0:
152,238,21046,1,0,0:0:0:0:
103,232,21154,1,0,0:0:0:0:
213,155,21370,2,0,L|320:167,1,100
119,305,21801,1,0,0:0:0:0:
256,192,21909,12,0,23312,0:0:0:0:
199,156,23528,6,0,P|183:204|199:252,1,100
309,224,23960,2,0,P|325:176|309:128,1,100
209,121,24391,1,0,0:0:0:0:
256,330,24607,1,0,0:0:0:0:
345,236,24823,1,0,0:0:0:0:
192,193,25039,1,0,0:0:0:0:
293,86,25255,2,0,P|314:131|314:184,1,100
380,278,25686,2,0,P|380:228|401:183,1,100
367,61,26118,2,0,P|293:7|216:83,1,200
250,187,26765,5,0,0:0:0:0:
386,155,26981,1,0,0:0:0:0:
403,62,27197,1,0,0:0:0:0:
329,218,27413,1,0,0:0:0:0:
346,311,27629,1,0,0:0:0:0:
459,189,27844,2,0,P|418:154|372:154,1,100
417,295,28276,1,0,0:0:0:0:
469,98,28492,2,0,B|402:58|320:79|307:110|303:139,1,200
287,213,29139,6,0,L|269:80,1,100
189,249,29571,6,0,L|172:123,1,110.000003356934
87,283,30003,6,0,L|66:144,1,119.999996337891
271,307,30434,6,0,L|404:325,1,100
276,167,30866,1,0,0:0:0:0:
212,358,31082,1,0,0:0:0:0:
338,251,31298,2,0,P|375:210|372:117,1,150
356,74,31729,2,0,P|301:83|254:71,1,100
144,37,32161,1,0,0:0:0:0:
73,133,32377,1,0,0:0:0:0:
144,230,32593,1,0,0:0:0:0:
258,193,32809,1,0,0:0:0:0:
258,73,33024,2,0,P|320:62|397:170,1,200
258,193,33672,5,0,0:0:0:0:
143,88,33888,1,0,0:0:0:0:
308,26,34103,1,0,0:0:0:0:
362,208,34319,1,0,0:0:0:0:
197,146,34534,1,0,0:0:0:0:
120,264,34751,2,0,L|111:384,1,100
205,245,35183,1,0,0:0:0:0:
197,146,35398,2,0,L|189:46,1,100
280,123,35830,2,0,B|289:164|273:200|239:221|239:221|265:234|265:234|278:253|278:253|299:264|299:264|313:280|313:280|335:284|335:284|360:305|360:305|395:314,1,300
350,208,36693,1,0,0:0:0:0:
264,345,36909,1,0,0:0:0:0:
123,312,37125,1,0,0:0:0:0:
47,215,37341,6,0,P|89:132|179:154,1,200
164,228,37988,1,0,0:0:0:0:
179,154,38204,2,0,P|96:196|119:287,1,200
238,201,38852,1,0,0:0:0:0:
274,265,39067,2,0,P|285:324|265:369,1,100
119,287,39499,2,0,P|108:228|128:183,1,100
207,82,39931,2,0,B|291:82|291:82|322:70|322:70|409:70,1,200
480,125,40578,1,0,0:0:0:0:
496,218,40794,6,0,P|479:278|350:283,1,200
274,151,41442,1,0,0:0:0:0:
274,151,41657,2,0,P|367:140|412:223,1,200
329,219,42305,1,0,0:0:0:0:
453,154,42521,1,0,0:0:0:0:
445,294,42737,1,0,0:0:0:0:
375,153,42952,1,0,0:0:0:0:
491,228,43168,1,0,0:0:0:0:
367,293,43384,1,0,0:0:0:0:
295,146,43600,2,0,L|195:155,1,100
100,175,44032,6,0,P|191:254|283:108,1,300
256,69,44895,1,0,0:0:0:0:
195,136,45326,2,0,L|295:145,1,100
390,165,45758,2,0,P|299:244|207:98,1,300
256,69,46621,1,0,0:0:0:0:
256,315,47053,2,0,L|151:315,2,100
387,274,47701,6,0,B|413:229|413:229|415:167|389:128|330:127,1,200
256,199,48348,1,0,0:0:0:0:
179,127,48564,2,0,B|123:128|97:167|99:229|99:229|125:274,1,200
208,339,49211,6,0,L|312:339,1,100
256,192,50506,5,0,0:0:0:0:
294,162,50722,5,0,0:0:0:0:
259,247,50938,5,0,0:0:0:0:
176,152,51154,6,0,P|160:104|272:48,1,179.999994506836
324,76,51585,2,0,B|388:76|388:76|444:44,1,119.999996337891
411,153,52017,2,0,B|411:256|411:256|472:304,1,179.999994506836
471,303,52449,2,0,P|408:319|345:298,1,119.999996337891
230,257,52880,1,0,0:0:0:0:
210,115,53096,1,0,0:0:0:0:
376,162,53312,1,0,0:0:0:0:
356,304,53528,1,0,0:0:0:0:
230,257,53744,2,0,B|248:200|248:200|288:152,1,119.999996337891
168,176,54175,1,0,0:0:0:0:
307,284,54391,1,0,0:0:0:0:
168,176,54607,6,0,P|104:160|64:304,1,239.999992675781
208,248,55255,1,0,0:0:0:0:
232,112,55470,2,0,B|208:56|208:56|152:24,1,119.999996337891
328,200,55902,2,0,B|384:176|384:176|416:120,1,119.999996337891
240,272,56334,2,0,P|280:336|376:312,1,179.999994506836
362,309,56765,2,0,L|354:181,1,119.999996337891
310,68,57197,1,0,0:0:0:0:
187,112,57412,1,0,0:0:0:0:
231,233,57628,1,0,0:0:0:0:
354,189,57844,1,0,0:0:0:0:
443,259,58060,6,0,B|448:331|448:331|428:286,1,119.999996337891
291,109,58492,6,0,P|333:78|416:84,1,119.999996337891
328,200,58924,2,0,P|209:178|208:47,1,239.999992675781
295,30,59571,1,0,0:0:0:0:
398,76,59787,2,0,L|386:210,1,119.999996337891
239,221,60219,2,0,L|251:87,1,119.999996337891
387,195,60650,2,0,L|406:348,2,119.999996337891
239,221,61298,1,0,0:0:0:0:
387,195,61514,6,0,P|393:136|340:94,1,119.999996337891
250,101,61945,1,0,0:0:0:0:
387,195,62161,1,0,0:0:0:0:
327,45,62377,1,0,0:0:0:0:
284,187,62593,2,0,L|292:319,1,119.999996337891
210,230,63024,2,0,P|207:152|346:129,2,239.999992675781
358,181,64103,1,0,0:0:0:0:
158,188,64319,1,0,0:0:0:0:
285,290,64535,1,0,0:0:0:0:
235,106,64751,2,0,L|96:95,1,119.999996337891
278,183,65183,5,0,0:0:0:0:
321,109,65398,2,0,P|334:63|305:0,1,119.999996337891
278,183,65830,2,0,P|265:229|294:292,1,119.999996337891
409,138,66262,1,0,0:0:0:0:
237,111,66478,1,0,0:0:0:0:
237,111,66693,2,0,L|103:123,1,119.999996337891
278,183,67124,2,0,L|412:195,1,119.999996337891
195,200,67557,2,0,P|155:257|162:312,1,119.999996337891
341,310,67988,2,0,P|282:310|237:273,1,119.999996337891
248,160,68420,5,0,0:0:0:0:
298,77,68636,1,0,0:0:0:0:
391,99,68852,1,0,0:0:0:0:
400,195,69067,1,0,0:0:0:0:
311,232,69283,2,0,P|224:250|157:183,1,179.999994506836
147,168,69715,2,0,L|129:305,1,119.999996337891
48,204,70147,1,0,0:0:0:0:
48,204,70255,2,0,B|40:153|81:132|81:132|80:84|132:58,1,179.999994506836
272,153,70794,1,0,0:0:0:0:
141,287,71010,2,0,L|147:160,1,119.999996337891
246,324,71442,2,0,L|364:305,1,119.999996337891
272,153,71873,6,0,P|197:124|121:217,1,179.999994506836
117,200,72305,2,0,L|89:62,1,119.999996337891
273,153,72737,1,0,0:0:0:0:
141,287,72952,1,0,0:0:0:0:
29,181,73168,1,0,0:0:0:0:
174,131,73384,1,0,0:0:0:0:
246,324,73600,2,0,P|348:348|422:243,2,239.999992675781
196,215,74679,1,0,0:0:0:0:
233,101,74895,1,0,0:0:0:0:
329,28,75111,1,0,0:0:0:0:
424,96,75326,6,0,B|440:136|424:168|424:168|384:176|352:216|352:216|304:216|304:216|272:232|296:272|256:208|216:272|240:232|208:216|208:216|160:216|160:216|128:176|88:168|88:168|72:136|88:88,1,539.999983520508
256,192,76837,12,0,78780,0:0:0:0:
133,157,83960,6,0,P|243:195|320:99,1,239.999992675781
319,115,84607,5,0,0:0:0:0:
319,115,84823,5,0,0:0:0:0:
328,128,85039,6,0,L|320:256,2,119.999996337891
224,40,85686,6,0,B|200:32|168:48|168:48|136:32|88:40|88:40|80:64|104:88|136:64,1,200
192,120,86334,2,0,P|208:160|192:224,1,100
111,168,86765,1,0,0:0:0:0:
192,120,86981,1,0,0:0:0:0:
197,214,87197,1,0,0:0:0:0:
111,168,87413,2,0,L|91:61,1,100
197,214,87844,2,0,L|177:321,1,100
283,165,88276,2,0,P|283:67|196:19,1,200
384,96,88924,1,0,0:0:0:0:
328,240,89139,6,0,P|336:288|368:328,1,100
472,280,89571,2,0,P|464:232|432:192,1,100
350,135,90003,1,0,0:0:0:0:
251,118,90219,1,0,0:0:0:0:
156,149,90434,1,0,0:0:0:0:
102,233,90650,1,0,0:0:0:0:
218,177,90866,1,0,0:0:0:0:
318,316,91945,5,0,0:0:0:0:
186,335,92161,1,0,0:0:0:0:
318,316,92377,1,0,0:0:0:0:
384,200,92593,2,0,P|400:160|336:72,1,150
312,64,93024,2,0,L|213:77,1,100
87,112,93456,2,0,B|81:176|81:176|105:210,1,100
223,263,93888,2,0,B|244:234|244:234|238:170,1,100
176,36,94319,5,0,0:0:0:0:
132,221,94535,1,0,0:0:0:0:
276,98,94751,1,0,0:0:0:0:
87,112,94967,1,0,0:0:0:0:
247,212,95183,2,0,B|288:248|352:248|384:208,1,150
376,186,95614,2,0,P|424:210|472:186,1,100
405,92,96046,5,0,0:0:0:0:
304,48,96262,1,0,0:0:0:0:
197,72,96478,1,0,0:0:0:0:
119,149,96693,1,0,0:0:0:0:
188,236,96909,2,0,L|194:109,1,100
314,269,97341,1,0,0:0:0:0:
268,169,97557,2,0,B|272:94|272:94|272:88,1,75
273,63,97988,2,0,B|305:69|305:69|328:85|338:118|334:157|318:174|318:174|291:176|274:193|274:193|237:197|206:176,1,250
214,153,99283,5,0,0:0:0:0:
275,107,99499,2,0,P|349:89|439:201,1,200
345,295,100147,5,0,0:0:0:0:
271,313,100363,2,0,P|200:247|213:152,1,200
306,45,101010,1,0,0:0:0:0:
448,37,101226,1,0,0:0:0:0:
471,147,101442,1,0,0:0:0:0:
331,137,101657,1,0,0:0:0:0:
381,259,101873,1,0,0:0:0:0:
249,249,102089,2,0,P|223:192|262:93,1,150
266,83,102521,2,0,B|217:91|217:91|167:84,1,100
80,160,102952,6,0,B|72:176|80:192|80:192|104:216|168:216|200:240|200:240|208:256|200:280,1,200
151,318,103600,1,0,0:0:0:0:
151,318,103816,2,0,P|162:256|207:333,1,200
83,242,104463,1,0,0:0:0:0:
246,179,104679,2,0,L|389:159,1,100
161,110,105111,2,0,L|18:90,1,100
290,56,105542,2,0,P|352:52|399:61,1,100
406,72,105866,1,0,0:0:0:0:
419,89,105974,1,0,0:0:0:0:
352,188,106190,6,0,P|280:163|328:39,1,200
421,91,106837,2,0,B|435:143|435:143|426:206,1,100
91,293,107485,2,0,B|77:241|77:241|86:178,1,100
193,114,107916,2,0,P|275:155|255:246,1,200
190,301,108564,2,0,L|83:292,1,100
199,124,108996,1,0,0:0:0:0:
199,124,109211,1,0,0:0:0:0:
248,125,109319,1,0,0:0:0:0:
297,130,109427,1,0,0:0:0:0:
346,134,109535,1,0,0:0:0:0:
395,138,109643,1,0,0:0:0:0:
256,192,109859,12,0,111585,0:0:0:0:
413,172,112665,5,0,0:0:0:0:
296,139,112880,5,0,0:0:0:0:
413,172,113096,5,0,0:0:0:0:
296,139,113312,6,0,B|191:104|191:104|118:132,1,179.999994506836
71,202,113744,2,0,P|53:263|70:316,1,119.999996337891
220,252,114175,2,0,P|238:191|221:138,1,119.999996337891
176,32,114607,1,0,0:0:0:0:
347,107,114823,1,0,0:0:0:0:
388,288,115039,2,0,P|349:336|284:341,1,119.999996337891
220,252,115470,2,0,P|259:204|324:199,1,119.999996337891
441,238,115902,2,0,P|466:171|416:54,1,179.999994506836
366,30,116334,2,0,L|240:29,1,119.999996337891
113,101,116765,5,0,0:0:0:0:
70,232,116981,1,0,0:0:0:0:
141,351,117197,2,0,L|256:318,1,119.999996337891
403,262,117629,1,0,0:0:0:0:
256,213,117844,2,0,L|132:175,1,119.999996337891
363,109,118276,1,0,0:0:0:0:
418,215,118492,5,0,0:0:0:0:
403,262,118600,2,0,P|315:274|256:210,1,179.999994506836
363,109,119139,1,0,0:0:0:0:
191,144,119355,1,0,0:0:0:0:
162,221,119571,1,0,0:0:0:0:
211,333,119787,1,0,0:0:0:0:
350,377,120003,1,0,0:0:0:0:
496,285,120219,6,0,P|477:195|397:156,1,179.999994506836
376,125,120650,2,0,L|241:117,1,119.999996337891
100,203,121082,2,0,L|235:211,1,119.999996337891
431,273,121514,1,0,0:0:0:0:
299,213,121729,1,0,0:0:0:0:
171,144,121945,2,0,P|112:111|72:66,1,119.999996337891
299,213,122377,2,0,L|427:226,1,119.999996337891
189,269,122809,1,0,0:0:0:0:
315,107,123024,1,0,0:0:0:0:
299,214,123240,2,0,L|321:337,1,119.999996337891
437,333,123672,5,0,0:0:0:0:
231,294,123888,2,0,P|172:298|136:343,1,119.999996337891
386,203,124319,1,0,0:0:0:0:
160,167,124535,2,0,L|36:154,1,119.999996337891
308,55,124967,1,0,0:0:0:0:
386,203,125183,2,0,P|408:277|354:360,1,179.999994506836
287,340,125614,2,0,P|265:266|319:183,1,179.999994506836
370,137,126046,5,0,0:0:0:0:
297,110,126262,1,0,0:0:0:0:
220,119,126478,1,0,0:0:0:0:
174,181,126693,1,0,0:0:0:0:
152,258,126909,2,0,L|162:324,1,59.9999981689454
160,315,127125,6,0,L|150:128,1,179.999994506836
146,102,127557,2,0,P|102:128|32:119,1,119.999996337891
211,53,127988,2,0,P|255:27|325:36,1,119.999996337891
346,109,128420,1,0,0:0:0:0:
136,20,128636,1,0,0:0:0:0:
48,170,128852,2,0,P|41:244|59:297,1,119.999996337891
221,237,129283,2,0,P|228:163|210:110,1,119.999996337891
119,57,129715,1,0,0:0:0:0:
151,281,129931,1,0,0:0:0:0:
333,142,130147,2,0,L|206:118,1,119.999996337891
304,46,130578,6,0,P|365:49|410:83,1,119.999996337891
360,242,131010,2,0,P|299:239|254:205,1,119.999996337891
205,90,131442,2,0,B|187:180|187:180|151:223|151:223|133:323,1,239.999992675781
253,204,132089,1,0,0:0:0:0:
113,146,132305,2,0,L|45:142,1,59.9999981689454
302,59,132737,2,0,L|438:66,1,119.999996337891
249,155,133168,1,0,0:0:0:0:
209,44,133384,1,0,0:0:0:0:
349,129,133600,2,0,P|350:185|316:239,1,119.999996337891
147,291,134032,6,0,B|102:262|102:262|90:219|90:219|172:268,1,179.999994506836
225,300,134463,2,0,B|240:242|240:242|228:170,1,119.999996337891
198,103,134895,1,0,0:0:0:0:
76,150,135111,1,0,0:0:0:0:
308,216,135326,1,0,0:0:0:0:
430,263,135542,1,0,0:0:0:0:
372,129,135758,2,0,B|346:68|346:68|307:28|213:52|196:108,2,239.999992675781
437,278,136837,1,0,0:0:0:0:
292,271,137053,1,0,0:0:0:0:
372,129,137269,1,0,0:0:0:0:
279,191,137485,6,0,B|213:207|191:271|232:326|232:326|196:326|158:301|170:254|170:254|180:209|178:165|155:134|155:134|173:68|173:68|223:109|290:103,1,600
256,192,138996,12,0,140938,0:0:0:0:
173,161,141370,5,0,0:0:0:0:
345,92,141585,1,0,0:0:0:0:
300,273,141801,1,0,0:0:0:0:
282,189,142017,1,0,0:0:0:0:
386,248,142233,1,0,0:0:0:0:
368,332,142449,1,0,0:0:0:0:
218,240,142665,2,0,B|97:205|97:205|26:231,2,200
286,184,143744,1,0,0:0:0:0:
320,103,143960,1,0,0:0:0:0:
287,22,144175,1,0,0:0:0:0:
304,146,144391,1,0,0:0:0:0:
288,137,144823,6,0,P|235:117|183:131,1,100
392,200,145255,2,0,P|412:147|398:95,1,100
283,256,145686,2,0,P|306:307|353:334,1,100
392,200,146118,2,0,P|326:138|209:163,2,200
288,238,147197,1,0,0:0:0:0:
379,312,147413,2,0,P|431:312|471:285,1,100
437,139,147844,1,0,0:0:0:0:
437,139,148276,6,0,L|305:119,1,100
223,151,148708,2,0,L|91:171,1,100
300,236,149139,1,0,0:0:0:0:
247,63,149355,1,0,0:0:0:0:
194,221,149571,2,0,B|242:313|242:313|337:338,2,200
258,151,150650,1,0,0:0:0:0:
355,157,150866,1,0,0:0:0:0:
395,245,151082,1,0,0:0:0:0:
300,236,151298,1,0,0:0:0:0:
183,166,151729,6,0,L|66:176,1,100
176,254,152161,1,0,0:0:0:0:
262,215,152377,1,0,0:0:0:0:
267,121,152593,1,0,0:0:0:0:
195,63,152809,2,0,P|184:157|292:213,1,200
411,135,153456,1,0,0:0:0:0:
267,121,153672,1,0,0:0:0:0:
325,268,153888,2,0,B|313:325|313:325|287:359,1,100
213,274,154319,1,0,0:0:0:0:
334,184,154535,5,0,0:0:0:0:
413,219,154751,2,0,P|416:155|299:107,1,200
256,148,155830,5,0,0:0:0:0:
253,215,156046,5,0,0:0:0:0:
320,215,156262,5,0,0:0:0:0:
322,148,156478,5,0,0:0:0:0:
322,148,156909,6,0,L|175:141,1,129.999994049073
366,228,157341,1,0,0:0:0:0:
319,53,157557,1,0,0:0:0:0:
192,141,157773,2,0,B|178:199|178:199|197:286,1,129.999994049073
307,295,158204,1,0,0:0:0:0:
435,285,158420,1,0,0:0:0:0:
427,156,158636,1,0,0:0:0:0:
296,165,158852,1,0,0:0:0:0:
189,240,159067,2,0,P|180:285|293:347,1,194.999991073609
329,371,159499,2,0,L|354:231,1,129.999994049073
344,128,159931,5,0,0:0:0:0:
248,24,160147,2,0,L|115:58,1,129.999994049073
354,202,160578,5,0,0:0:0:0:
299,71,160794,2,0,L|162:57,1,129.999994049073
224,189,161226,2,0,L|360:202,1,129.999994049073
247,62,161657,1,0,0:0:0:0:
247,62,161765,2,0,P|161:50|86:133,1,194.999991073609
280,250,162305,1,0,0:0:0:0:
187,140,162521,1,0,0:0:0:0:
139,274,162737,1,0,0:0:0:0:
299,136,162952,1,0,0:0:0:0:
89,175,163168,1,0,0:0:0:0:
225,338,163384,6,0,B|337:332|337:332|426:282,1,194.999991073609
478,205,163816,2,0,P|482:140|460:72,1,129.999994049073
299,136,164247,2,0,P|295:201|317:269,1,129.999994049073
414,137,164679,1,0,0:0:0:0:
265,56,164895,1,0,0:0:0:0:
143,174,165111,2,0,P|159:267|253:292,1,194.999991073609
313,262,165542,2,0,L|452:262,1,129.999994049073
338,120,165974,1,0,0:0:0:0:
143,174,166190,1,0,0:0:0:0:
137,222,166298,1,0,0:0:0:0:
158,265,166406,1,0,0:0:0:0:
198,290,166514,1,0,0:0:0:0:
245,293,166621,1,0,0:0:0:0:
355,219,166837,6,0,L|344:88,1,129.999994049073
230,204,167269,1,0,0:0:0:0:
422,74,167485,2,0,P|325:10|269:112,1,259.999988098145
416,187,168132,1,0,0:0:0:0:
188,106,168348,2,0,B|120:101|120:101|77:117|53:164|53:222|91:264,2,259.999988098145
275,149,169427,1,0,0:0:0:0:
312,239,169643,1,0,0:0:0:0:
275,330,169859,1,0,0:0:0:0:
184,367,170075,1,0,0:0:0:0:
94,330,170291,6,0,P|64:240|196:171,1,259.999988098145
280,228,170938,1,0,0:0:0:0:
361,153,171154,2,0,L|342:25,1,129.999994049073
186,167,171585,2,0,L|167:39,1,129.999994049073
361,154,172017,1,0,0:0:0:0:
280,228,172233,1,0,0:0:0:0:
416,211,172449,1,0,0:0:0:0:
254,144,172665,1,0,0:0:0:0:
162,234,172880,2,0,P|151:277|184:359,1,129.999994049073
378,274,173312,2,0,P|389:231|356:149,1,129.999994049073
201,58,173744,6,0,L|59:97,1,129.999994049073
106,254,174175,1,0,0:0:0:0:
179,132,174391,1,0,0:0:0:0:
304,177,174607,2,0,P|372:208|378:330,1,194.999991073609
322,379,175039,2,0,B|303:292|303:292|384:216,1,194.999991073609
435,167,175470,2,0,L|470:31,1,129.999994049073
327,81,175902,2,0,L|292:217,1,129.999994049073
206,131,176334,1,0,0:0:0:0:
327,81,176550,1,0,0:0:0:0:
294,206,176765,1,0,0:0:0:0:
209,305,176981,1,0,0:0:0:0:
120,178,177197,6,0,B|128:110|128:110|155:49,1,129.999994049073
327,81,177629,2,0,B|319:149|319:149|292:210,1,129.999994049073
120,178,178060,1,0,0:0:0:0:
294,205,178276,1,0,0:0:0:0:
225,151,178492,1,0,0:0:0:0:
252,325,178708,1,0,0:0:0:0:
373,243,178924,2,0,P|372:161|218:164,1,259.999988098145
308,47,179571,1,0,0:0:0:0:
158,209,179787,2,0,P|153:262|191:330,1,129.999994049073
238,350,180111,1,0,0:0:0:0:
292,351,180219,1,0,0:0:0:0:
344,339,180326,2,0,L|423:320,1,64.9999970245363
345,222,180650,6,0,P|281:236|226:280,1,129.999994049073
270,151,181082,1,0,0:0:0:0:
270,151,181298,2,0,P|356:123|435:251,1,259.999988098145
262,342,181945,1,0,0:0:0:0:
161,215,182161,6,0,P|225:64|183:276,1,900
254,152,184535,5,0,0:0:0:0:
361,129,184751,1,0,0:0:0:0:
384,236,184967,1,0,0:0:0:0:
276,259,185183,1,0,0:0:0:0:
191,199,185398,2,0,P|177:147|200:98,1,100
259,40,185830,2,0,B|359:38|359:38|451:98,1,200
487,192,186478,1,0,0:0:0:0:
442,291,186693,2,0,B|359:346|359:346|259:344,1,200
104,188,187557,1,0,0:0:0:0:
202,44,187988,6,0,L|323:39,1,100
328,137,188420,6,0,L|248:141,1,75.0000028610231
207,230,188852,6,0,L|268:226,1,50
256,192,189283,12,0,190362,0:0:0:0:
448,24,190578,6,0,L|456:88,1,50
