osu file format v14

[General]
AudioFilename: audio.mp3
AudioLeadIn: 0
PreviewTime: 69818
Countdown: 0
SampleSet: None
StackLeniency: 0.7
Mode: 3
LetterboxInBreaks: 0
SpecialStyle: 0
WidescreenStoryboard: 1

[Editor]
Bookmarks: 11636,17454,20363,21090,21818,23272,24727,25090,26181,26545,27636,28000,30545,30909,32000,32363,33454,33818,36363,36727,37818,38181,39272,39636,40181,42181,42545,43636,44000,45090,45454,46545,58181,64000,66909,67636,68363,69818,71272,71636,72727,73090,74181,74545,77090,77454,78545,78909,80000,80363,82909,83272,84363,84727,85818,86181,88727,89090,90181,90545,91636,92000,93090,114909,122181
DistanceSpacing: 0.8
BeatDivisor: 4
GridSize: 4
TimelineZoom: 1

[Metadata]
Title:Drat
TitleUnicode:Drat
Artist:Park
ArtistUnicode:Park
Creator:Leniane
Version:Irritation
Source:
Tags:sv
BeatmapID:1951906
BeatmapSetID:934964

[Difficulty]
HPDrainRate:9.3
CircleSize:4
OverallDifficulty:9
ApproachRate:10
SliderMultiplier:1.4
SliderTickRate:1

[Events]
//Background and Video events
0,0,"bg.jpg",0,0
//Break Periods
//Storyboard Layer 0 (Background)
//Storyboard Layer 1 (Fail)
//Storyboard Layer 2 (Pass)
//Storyboard Layer 3 (Foreground)
//Storyboard Sound Samples

[TimingPoints]
0,363.636363636364,4,2,0,40,1,0
0,-125,4,2,0,40,0,0
363,-500,4,2,0,40,0,0
393,-55.5555555555556,4,2,0,40,0,0
424,-500,4,2,0,40,0,0
454,-55.5555555555556,4,2,0,40,0,0
484,-500,4,2,0,40,0,0
499,-55.5555555555556,4,2,0,40,0,0
515,-166.666666666667,4,2,0,40,0,0
1454,-136.425648021828,4,2,0,40,0,0
2909,-115.393491807062,4,2,0,40,0,0
4363,-100.0100010001,4,2,0,40,0,0
5090,-1000,4,2,0,40,0,0
6181,-500,4,2,0,40,0,0
6211,-55.5555555555556,4,2,0,40,0,0
6242,-500,4,2,0,40,0,0
6272,-55.5555555555556,4,2,0,40,0,0
6302,-500,4,2,0,40,0,0
6317,-55.5555555555556,4,2,0,40,0,0
6333,-166.666666666667,4,2,0,40,0,0
7272,-136.425648021828,4,2,0,40,0,0
8727,-115.393491807062,4,2,0,40,0,0
10181,-100.0100010001,4,2,0,40,0,0
10909,-250,4,2,0,40,0,0
13090,-136.425648021828,4,2,0,40,0,0
14545,-115.393491807062,4,2,0,40,0,0
15999,-100.0100010001,4,2,0,40,0,0
22545,-166.666666666667,4,2,0,40,0,0
23272,-66.6666666666667,4,2,0,40,0,0
23454,-133.333333333333,4,2,0,40,0,0
23545,-400,4,2,0,40,0,0
23636,-100,4,2,0,40,0,0
23818,-166.666666666667,4,2,0,40,0,0
24727,-1000,4,2,0,40,0,0
25060,-25.6410256410256,4,2,0,40,0,0
25090,-500,4,2,0,40,0,0
25121,-55.5555555555556,4,2,0,40,0,0
25151,-500,4,2,0,40,0,0
25166,-55.5555555555556,4,2,0,40,0,0
25181,-500,4,2,0,40,0,0
25196,-55.5555555555556,4,2,0,40,0,0
25212,-500,4,2,0,40,0,0
25227,-55.5555555555556,4,2,0,40,0,0
25242,-500,4,2,0,40,0,0
25273,-55.5555555555556,4,2,0,40,0,0
25303,-500,4,2,0,40,0,0
25318,-55.5555555555556,4,2,0,40,0,0
25333,-500,4,2,0,40,0,0
25348,-55.5555555555556,4,2,0,40,0,0
25363,-500,4,2,0,40,0,0
25378,-55.5555555555556,4,2,0,40,0,0
25393,-500,4,2,0,40,0,0
25424,-55.5555555555556,4,2,0,40,0,0
25454,-166.666666666667,4,2,0,40,0,0
26181,-1000,4,2,0,40,0,0
26514,-25.6410256410256,4,2,0,40,0,0
26544,-500,4,2,0,40,0,0
26575,-55.5555555555556,4,2,0,40,0,0
26605,-500,4,2,0,40,0,0
26620,-55.5555555555556,4,2,0,40,0,0
26635,-500,4,2,0,40,0,0
26650,-55.5555555555556,4,2,0,40,0,0
26666,-500,4,2,0,40,0,0
26681,-55.5555555555556,4,2,0,40,0,0
26696,-500,4,2,0,40,0,0
26727,-55.5555555555556,4,2,0,40,0,0
26757,-500,4,2,0,40,0,0
26772,-55.5555555555556,4,2,0,40,0,0
26787,-500,4,2,0,40,0,0
26802,-55.5555555555556,4,2,0,40,0,0
26817,-500,4,2,0,40,0,0
26832,-55.5555555555556,4,2,0,40,0,0
26847,-500,4,2,0,40,0,0
26878,-55.5555555555556,4,2,0,40,0,0
26908,-166.666666666667,4,2,0,40,0,0
27636,-1000,4,2,0,40,0,0
27969,-25.6410256410256,4,2,0,40,0,0
27999,-500,4,2,0,40,0,0
28030,-55.5555555555556,4,2,0,40,0,0
28060,-500,4,2,0,40,0,0
28075,-55.5555555555556,4,2,0,40,0,0
28090,-500,4,2,0,40,0,0
28105,-55.5555555555556,4,2,0,40,0,0
28121,-500,4,2,0,40,0,0
28136,-55.5555555555556,4,2,0,40,0,0
28151,-500,4,2,0,40,0,0
28182,-55.5555555555556,4,2,0,40,0,0
28212,-500,4,2,0,40,0,0
28227,-55.5555555555556,4,2,0,40,0,0
28242,-500,4,2,0,40,0,0
28257,-55.5555555555556,4,2,0,40,0,0
28272,-500,4,2,0,40,0,0
28287,-55.5555555555556,4,2,0,40,0,0
28302,-500,4,2,0,40,0,0
28333,-55.5555555555556,4,2,0,40,0,0
28363,-166.666666666667,4,2,0,40,0,0
28545,-125,4,2,0,40,0,0
28727,-100,4,2,0,40,0,0
28909,-55.5555555555556,4,2,0,40,0,0
28924,-500,4,2,0,40,0,0
28939,-55.5555555555556,4,2,0,40,0,0
28954,-500,4,2,0,40,0,0
28969,-55.5555555555556,4,2,0,40,0,0
28984,-500,4,2,0,40,0,0
29000,-55.5555555555556,4,2,0,40,0,0
29015,-500,4,2,0,40,0,0
29030,-55.5555555555556,4,2,0,40,0,0
29045,-500,4,2,0,40,0,0
29060,-55.5555555555556,4,2,0,40,0,0
29075,-500,4,2,0,40,0,0
29090,-100,4,2,0,40,0,0
29454,-55.5555555555556,4,2,0,40,0,0
29469,-500,4,2,0,40,0,0
29484,-55.5555555555556,4,2,0,40,0,0
29499,-500,4,2,0,40,0,0
29515,-55.5555555555556,4,2,0,40,0,0
29530,-500,4,2,0,40,0,0
29545,-55.5555555555556,4,2,0,40,0,0
29575,-500,4,2,0,40,0,0
29606,-55.5555555555556,4,2,0,40,0,0
29621,-500,4,2,0,40,0,0
29636,-55.5555555555556,4,2,0,40,0,0
29666,-500,4,2,0,40,0,0
29696,-55.5555555555556,4,2,0,40,0,0
29711,-500,4,2,0,40,0,0
29727,-55.5555555555556,4,2,0,40,0,0
29757,-500,4,2,0,40,0,0
29787,-166.666666666667,4,2,0,40,0,0
30545,-1000,4,2,0,40,0,0
30878,-25.6410256410256,4,2,0,40,0,0
30908,-500,4,2,0,40,0,0
30939,-55.5555555555556,4,2,0,40,0,0
30969,-500,4,2,0,40,0,0
30984,-55.5555555555556,4,2,0,40,0,0
30999,-500,4,2,0,40,0,0
31014,-55.5555555555556,4,2,0,40,0,0
31030,-500,4,2,0,40,0,0
31045,-55.5555555555556,4,2,0,40,0,0
31060,-500,4,2,0,40,0,0
31091,-55.5555555555556,4,2,0,40,0,0
31121,-500,4,2,0,40,0,0
31136,-55.5555555555556,4,2,0,40,0,0
31151,-500,4,2,0,40,0,0
31166,-55.5555555555556,4,2,0,40,0,0
31181,-500,4,2,0,40,0,0
31196,-55.5555555555556,4,2,0,40,0,0
31211,-500,4,2,0,40,0,0
31242,-55.5555555555556,4,2,0,40,0,0
31272,-166.666666666667,4,2,0,40,0,0
32000,-1000,4,2,0,40,0,0
32333,-25.6410256410256,4,2,0,40,0,0
32363,-500,4,2,0,40,0,0
32394,-55.5555555555556,4,2,0,40,0,0
32424,-500,4,2,0,40,0,0
32439,-55.5555555555556,4,2,0,40,0,0
32454,-500,4,2,0,40,0,0
32469,-55.5555555555556,4,2,0,40,0,0
32485,-500,4,2,0,40,0,0
32500,-55.5555555555556,4,2,0,40,0,0
32515,-500,4,2,0,40,0,0
32546,-55.5555555555556,4,2,0,40,0,0
32576,-500,4,2,0,40,0,0
32591,-55.5555555555556,4,2,0,40,0,0
32606,-500,4,2,0,40,0,0
32621,-55.5555555555556,4,2,0,40,0,0
32636,-500,4,2,0,40,0,0
32651,-55.5555555555556,4,2,0,40,0,0
32666,-500,4,2,0,40,0,0
32697,-55.5555555555556,4,2,0,40,0,0
32727,-166.666666666667,4,2,0,40,0,0
33454,-1000,4,2,0,40,0,0
33787,-25.6410256410256,4,2,0,40,0,0
33817,-500,4,2,0,40,0,0
33848,-55.5555555555556,4,2,0,40,0,0
33878,-500,4,2,0,40,0,0
33893,-55.5555555555556,4,2,0,40,0,0
33908,-500,4,2,0,40,0,0
33923,-55.5555555555556,4,2,0,40,0,0
33939,-500,4,2,0,40,0,0
33954,-55.5555555555556,4,2,0,40,0,0
33969,-500,4,2,0,40,0,0
34000,-55.5555555555556,4,2,0,40,0,0
34030,-500,4,2,0,40,0,0
34045,-55.5555555555556,4,2,0,40,0,0
34060,-500,4,2,0,40,0,0
34075,-55.5555555555556,4,2,0,40,0,0
34090,-500,4,2,0,40,0,0
34105,-55.5555555555556,4,2,0,40,0,0
34120,-500,4,2,0,40,0,0
34151,-55.5555555555556,4,2,0,40,0,0
34181,-166.666666666667,4,2,0,40,0,0
35272,-500,4,2,0,40,0,0
35287,-55.5555555555556,4,2,0,40,0,0
35302,-500,4,2,0,40,0,0
35318,-55.5555555555556,4,2,0,40,0,0
35333,-500,4,2,0,40,0,0
35348,-55.5555555555556,4,2,0,40,0,0
35378,-500,4,2,0,40,0,0
35409,-55.5555555555556,4,2,0,40,0,0
35424,-500,4,2,0,40,0,0
35439,-55.5555555555556,4,2,0,40,0,0
35469,-500,4,2,0,40,0,0
35499,-55.5555555555556,4,2,0,40,0,0
35514,-500,4,2,0,40,0,0
35530,-55.5555555555556,4,2,0,40,0,0
35560,-500,4,2,0,40,0,0
35590,-166.666666666667,4,2,0,40,0,0
36363,-1000,4,2,0,40,0,0
36696,-25.6410256410256,4,2,0,40,0,0
36726,-500,4,2,0,40,0,0
36757,-55.5555555555556,4,2,0,40,0,0
36787,-500,4,2,0,40,0,0
36802,-55.5555555555556,4,2,0,40,0,0
36817,-500,4,2,0,40,0,0
36832,-55.5555555555556,4,2,0,40,0,0
36848,-500,4,2,0,40,0,0
36863,-55.5555555555556,4,2,0,40,0,0
36878,-500,4,2,0,40,0,0
36909,-55.5555555555556,4,2,0,40,0,0
36939,-500,4,2,0,40,0,0
36954,-55.5555555555556,4,2,0,40,0,0
36969,-500,4,2,0,40,0,0
36984,-55.5555555555556,4,2,0,40,0,0
36999,-500,4,2,0,40,0,0
37014,-55.5555555555556,4,2,0,40,0,0
37029,-500,4,2,0,40,0,0
37060,-55.5555555555556,4,2,0,40,0,0
37090,-166.666666666667,4,2,0,40,0,0
37818,-1000,4,2,0,40,0,0
38151,-25.6410256410256,4,2,0,40,0,0
38181,-500,4,2,0,40,0,0
38212,-55.5555555555556,4,2,0,40,0,0
38242,-500,4,2,0,40,0,0
38257,-55.5555555555556,4,2,0,40,0,0
38272,-500,4,2,0,40,0,0
38287,-55.5555555555556,4,2,0,40,0,0
38303,-500,4,2,0,40,0,0
38318,-55.5555555555556,4,2,0,40,0,0
38333,-500,4,2,0,40,0,0
38364,-55.5555555555556,4,2,0,40,0,0
38394,-500,4,2,0,40,0,0
38409,-55.5555555555556,4,2,0,40,0,0
38424,-500,4,2,0,40,0,0
38439,-55.5555555555556,4,2,0,40,0,0
38454,-500,4,2,0,40,0,0
38469,-55.5555555555556,4,2,0,40,0,0
38484,-500,4,2,0,40,0,0
38515,-55.5555555555556,4,2,0,40,0,0
38545,-166.666666666667,4,2,0,40,0,0
39272,-1000,4,2,0,40,0,0
39605,-25.6410256410256,4,2,0,40,0,0
39635,-500,4,2,0,40,0,0
39666,-55.5555555555556,4,2,0,40,0,0
39696,-500,4,2,0,40,0,0
39711,-55.5555555555556,4,2,0,40,0,0
39726,-500,4,2,0,40,0,0
39741,-55.5555555555556,4,2,0,40,0,0
39757,-500,4,2,0,40,0,0
39772,-55.5555555555556,4,2,0,40,0,0
39787,-500,4,2,0,40,0,0
39818,-55.5555555555556,4,2,0,40,0,0
39848,-500,4,2,0,40,0,0
39863,-55.5555555555556,4,2,0,40,0,0
39878,-500,4,2,0,40,0,0
39893,-55.5555555555556,4,2,0,40,0,0
39908,-500,4,2,0,40,0,0
39923,-55.5555555555556,4,2,0,40,0,0
39938,-500,4,2,0,40,0,0
39969,-55.5555555555556,4,2,0,40,0,0
39999,-166.666666666667,4,2,0,40,0,0
40545,-55.5555555555556,4,2,0,40,0,0
40560,-500,4,2,0,40,0,0
40575,-55.5555555555556,4,2,0,40,0,0
40590,-500,4,2,0,40,0,0
40605,-55.5555555555556,4,2,0,40,0,0
40620,-500,4,2,0,40,0,0
40636,-55.5555555555556,4,2,0,40,0,0
40651,-500,4,2,0,40,0,0
40666,-55.5555555555556,4,2,0,40,0,0
40681,-500,4,2,0,40,0,0
40696,-55.5555555555556,4,2,0,40,0,0
40711,-500,4,2,0,40,0,0
40726,-100,4,2,0,40,0,0
41090,-500,4,2,0,40,0,0
41105,-55.5555555555556,4,2,0,40,0,0
41120,-500,4,2,0,40,0,0
41136,-55.5555555555556,4,2,0,40,0,0
41151,-500,4,2,0,40,0,0
41166,-55.5555555555556,4,2,0,40,0,0
41196,-500,4,2,0,40,0,0
41227,-55.5555555555556,4,2,0,40,0,0
41242,-500,4,2,0,40,0,0
41257,-55.5555555555556,4,2,0,40,0,0
41287,-500,4,2,0,40,0,0
41317,-55.5555555555556,4,2,0,40,0,0
41332,-500,4,2,0,40,0,0
41348,-55.5555555555556,4,2,0,40,0,0
41378,-500,4,2,0,40,0,0
41408,-166.666666666667,4,2,0,40,0,0
42181,-1000,4,2,0,40,0,0
42514,-25.6410256410256,4,2,0,40,0,0
42544,-500,4,2,0,40,0,0
42575,-55.5555555555556,4,2,0,40,0,0
42605,-500,4,2,0,40,0,0
42620,-55.5555555555556,4,2,0,40,0,0
42635,-500,4,2,0,40,0,0
42650,-55.5555555555556,4,2,0,40,0,0
42666,-500,4,2,0,40,0,0
42681,-55.5555555555556,4,2,0,40,0,0
42696,-500,4,2,0,40,0,0
42727,-55.5555555555556,4,2,0,40,0,0
42757,-500,4,2,0,40,0,0
42772,-55.5555555555556,4,2,0,40,0,0
42787,-500,4,2,0,40,0,0
42802,-55.5555555555556,4,2,0,40,0,0
42817,-500,4,2,0,40,0,0
42832,-55.5555555555556,4,2,0,40,0,0
42847,-500,4,2,0,40,0,0
42878,-55.5555555555556,4,2,0,40,0,0
42908,-166.666666666667,4,2,0,40,0,0
43636,-1000,4,2,0,40,0,0
43969,-25.6410256410256,4,2,0,40,0,0
43999,-500,4,2,0,40,0,0
44030,-55.5555555555556,4,2,0,40,0,0
44060,-500,4,2,0,40,0,0
44075,-55.5555555555556,4,2,0,40,0,0
44090,-500,4,2,0,40,0,0
44105,-55.5555555555556,4,2,0,40,0,0
44121,-500,4,2,0,40,0,0
44136,-55.5555555555556,4,2,0,40,0,0
44151,-500,4,2,0,40,0,0
44182,-55.5555555555556,4,2,0,40,0,0
44212,-500,4,2,0,40,0,0
44227,-55.5555555555556,4,2,0,40,0,0
44242,-500,4,2,0,40,0,0
44257,-55.5555555555556,4,2,0,40,0,0
44272,-500,4,2,0,40,0,0
44287,-55.5555555555556,4,2,0,40,0,0
44302,-500,4,2,0,40,0,0
44333,-55.5555555555556,4,2,0,40,0,0
44363,-166.666666666667,4,2,0,40,0,0
45090,-1000,4,2,0,40,0,0
45423,-25.6410256410256,4,2,0,40,0,0
45453,-500,4,2,0,40,0,0
45484,-55.5555555555556,4,2,0,40,0,0
45514,-500,4,2,0,40,0,0
45529,-55.5555555555556,4,2,0,40,0,0
45544,-500,4,2,0,40,0,0
45559,-55.5555555555556,4,2,0,40,0,0
45575,-500,4,2,0,40,0,0
45590,-55.5555555555556,4,2,0,40,0,0
45605,-500,4,2,0,40,0,0
45636,-55.5555555555556,4,2,0,40,0,0
45666,-500,4,2,0,40,0,0
45681,-55.5555555555556,4,2,0,40,0,0
45696,-500,4,2,0,40,0,0
45711,-55.5555555555556,4,2,0,40,0,0
45726,-500,4,2,0,40,0,0
45741,-55.5555555555556,4,2,0,40,0,0
45756,-500,4,2,0,40,0,0
45787,-55.5555555555556,4,2,0,40,0,0
45817,-166.666666666667,4,2,0,40,0,0
45939,-66.6666666666667,4,2,0,40,0,0
46000,-200,4,2,0,40,0,0
46060,-62.5,4,2,0,40,0,0
46121,-250,4,2,0,40,0,0
46181,-76.9230769230769,4,2,0,40,0,0
46272,-142.857142857143,4,2,0,40,0,0
46363,-100,4,2,0,40,0,0
46545,-125,4,2,0,40,0,0
46909,-500,4,2,0,40,0,0
46939,-55.5555555555556,4,2,0,40,0,0
46970,-500,4,2,0,40,0,0
47000,-55.5555555555556,4,2,0,40,0,0
47030,-500,4,2,0,40,0,0
47045,-55.5555555555556,4,2,0,40,0,0
47061,-166.666666666667,4,2,0,40,0,0
48000,-136.425648021828,4,2,0,40,0,0
49455,-115.393491807062,4,2,0,40,0,0
50909,-100.0100010001,4,2,0,40,0,0
51636,-1000,4,2,0,40,0,0
52727,-500,4,2,0,40,0,0
52757,-55.5555555555556,4,2,0,40,0,0
52788,-500,4,2,0,40,0,0
52818,-55.5555555555556,4,2,0,40,0,0
52848,-500,4,2,0,40,0,0
52863,-55.5555555555556,4,2,0,40,0,0
52879,-166.666666666667,4,2,0,40,0,0
53818,-136.425648021828,4,2,0,40,0,0
55273,-115.393491807062,4,2,0,40,0,0
56727,-100.0100010001,4,2,0,40,0,0
57454,-166.666666666667,4,2,0,40,0,0
59636,-136.425648021828,4,2,0,40,0,0
61091,-115.393491807062,4,2,0,40,0,0
62545,-100.0100010001,4,2,0,40,0,0
69090,-166.666666666667,4,2,0,40,0,0
69817,-66.6666666666667,4,2,0,40,0,0
69999,-133.333333333333,4,2,0,40,0,0
70090,-400,4,2,0,40,0,0
70181,-100,4,2,0,40,0,0
70363,-166.666666666667,4,2,0,40,0,0
71272,-1000,4,2,0,40,0,0
71605,-25.6410256410256,4,2,0,40,0,0
71635,-500,4,2,0,40,0,0
71666,-55.5555555555556,4,2,0,40,0,0
71696,-500,4,2,0,40,0,0
71711,-55.5555555555556,4,2,0,40,0,0
71726,-500,4,2,0,40,0,0
71741,-55.5555555555556,4,2,0,40,0,0
71757,-500,4,2,0,40,0,0
71772,-55.5555555555556,4,2,0,40,0,0
71787,-500,4,2,0,40,0,0
71818,-55.5555555555556,4,2,0,40,0,0
71848,-500,4,2,0,40,0,0
71863,-55.5555555555556,4,2,0,40,0,0
71878,-500,4,2,0,40,0,0
71893,-55.5555555555556,4,2,0,40,0,0
71908,-500,4,2,0,40,0,0
71923,-55.5555555555556,4,2,0,40,0,0
71938,-500,4,2,0,40,0,0
71969,-55.5555555555556,4,2,0,40,0,0
71999,-166.666666666667,4,2,0,40,0,0
72727,-1000,4,2,0,40,0,0
73060,-25.6410256410256,4,2,0,40,0,0
73090,-500,4,2,0,40,0,0
73121,-55.5555555555556,4,2,0,40,0,0
73151,-500,4,2,0,40,0,0
73166,-55.5555555555556,4,2,0,40,0,0
73181,-500,4,2,0,40,0,0
73196,-55.5555555555556,4,2,0,40,0,0
73212,-500,4,2,0,40,0,0
73227,-55.5555555555556,4,2,0,40,0,0
73242,-500,4,2,0,40,0,0
73273,-55.5555555555556,4,2,0,40,0,0
73303,-500,4,2,0,40,0,0
73318,-55.5555555555556,4,2,0,40,0,0
73333,-500,4,2,0,40,0,0
73348,-55.5555555555556,4,2,0,40,0,0
73363,-500,4,2,0,40,0,0
73378,-55.5555555555556,4,2,0,40,0,0
73393,-500,4,2,0,40,0,0
73424,-55.5555555555556,4,2,0,40,0,0
73454,-166.666666666667,4,2,0,40,0,0
74181,-1000,4,2,0,40,0,0
74514,-25.6410256410256,4,2,0,40,0,0
74544,-500,4,2,0,40,0,0
74575,-55.5555555555556,4,2,0,40,0,0
74605,-500,4,2,0,40,0,0
74620,-55.5555555555556,4,2,0,40,0,0
74635,-500,4,2,0,40,0,0
74650,-55.5555555555556,4,2,0,40,0,0
74666,-500,4,2,0,40,0,0
74681,-55.5555555555556,4,2,0,40,0,0
74696,-500,4,2,0,40,0,0
74727,-55.5555555555556,4,2,0,40,0,0
74757,-500,4,2,0,40,0,0
74772,-55.5555555555556,4,2,0,40,0,0
74787,-500,4,2,0,40,0,0
74802,-55.5555555555556,4,2,0,40,0,0
74817,-500,4,2,0,40,0,0
74832,-55.5555555555556,4,2,0,40,0,0
74847,-500,4,2,0,40,0,0
74878,-55.5555555555556,4,2,0,40,0,0
74908,-166.666666666667,4,2,0,40,0,0
75454,-55.5555555555556,4,2,0,40,0,0
75469,-500,4,2,0,40,0,0
75484,-55.5555555555556,4,2,0,40,0,0
75499,-500,4,2,0,40,0,0
75514,-55.5555555555556,4,2,0,40,0,0
75529,-500,4,2,0,40,0,0
75545,-55.5555555555556,4,2,0,40,0,0
75560,-500,4,2,0,40,0,0
75575,-55.5555555555556,4,2,0,40,0,0
75590,-500,4,2,0,40,0,0
75605,-55.5555555555556,4,2,0,40,0,0
75620,-500,4,2,0,40,0,0
75635,-100,4,2,0,40,0,0
76000,-500,4,2,0,40,0,0
76015,-55.5555555555556,4,2,0,40,0,0
76030,-500,4,2,0,40,0,0
76046,-55.5555555555556,4,2,0,40,0,0
76061,-500,4,2,0,40,0,0
76076,-55.5555555555556,4,2,0,40,0,0
76106,-500,4,2,0,40,0,0
76137,-55.5555555555556,4,2,0,40,0,0
76152,-500,4,2,0,40,0,0
76167,-55.5555555555556,4,2,0,40,0,0
76197,-500,4,2,0,40,0,0
76227,-55.5555555555556,4,2,0,40,0,0
76242,-500,4,2,0,40,0,0
76258,-55.5555555555556,4,2,0,40,0,0
76288,-500,4,2,0,40,0,0
76318,-166.666666666667,4,2,0,40,0,0
77090,-1000,4,2,0,40,0,0
77423,-25.6410256410256,4,2,0,40,0,0
77453,-500,4,2,0,40,0,0
77484,-55.5555555555556,4,2,0,40,0,0
77514,-500,4,2,0,40,0,0
77529,-55.5555555555556,4,2,0,40,0,0
77544,-500,4,2,0,40,0,0
77559,-55.5555555555556,4,2,0,40,0,0
77575,-500,4,2,0,40,0,0
77590,-55.5555555555556,4,2,0,40,0,0
77605,-500,4,2,0,40,0,0
77636,-55.5555555555556,4,2,0,40,0,0
77666,-500,4,2,0,40,0,0
77681,-55.5555555555556,4,2,0,40,0,0
77696,-500,4,2,0,40,0,0
77711,-55.5555555555556,4,2,0,40,0,0
77726,-500,4,2,0,40,0,0
77741,-55.5555555555556,4,2,0,40,0,0
77756,-500,4,2,0,40,0,0
77787,-55.5555555555556,4,2,0,40,0,0
77817,-166.666666666667,4,2,0,40,0,0
78545,-1000,4,2,0,40,0,0
78878,-25.6410256410256,4,2,0,40,0,0
78908,-500,4,2,0,40,0,0
78939,-55.5555555555556,4,2,0,40,0,0
78969,-500,4,2,0,40,0,0
78984,-55.5555555555556,4,2,0,40,0,0
78999,-500,4,2,0,40,0,0
79014,-55.5555555555556,4,2,0,40,0,0
79030,-500,4,2,0,40,0,0
79045,-55.5555555555556,4,2,0,40,0,0
79060,-500,4,2,0,40,0,0
79091,-55.5555555555556,4,2,0,40,0,0
79121,-500,4,2,0,40,0,0
79136,-55.5555555555556,4,2,0,40,0,0
79151,-500,4,2,0,40,0,0
79166,-55.5555555555556,4,2,0,40,0,0
79181,-500,4,2,0,40,0,0
79196,-55.5555555555556,4,2,0,40,0,0
79211,-500,4,2,0,40,0,0
79242,-55.5555555555556,4,2,0,40,0,0
79272,-166.666666666667,4,2,0,40,0,0
80000,-1000,4,2,0,40,0,0
80333,-25.6410256410256,4,2,0,40,0,0
80363,-500,4,2,0,40,0,0
80394,-55.5555555555556,4,2,0,40,0,0
80424,-500,4,2,0,40,0,0
80439,-55.5555555555556,4,2,0,40,0,0
80454,-500,4,2,0,40,0,0
80469,-55.5555555555556,4,2,0,40,0,0
80485,-500,4,2,0,40,0,0
80500,-55.5555555555556,4,2,0,40,0,0
80515,-500,4,2,0,40,0,0
80546,-55.5555555555556,4,2,0,40,0,0
80576,-500,4,2,0,40,0,0
80591,-55.5555555555556,4,2,0,40,0,0
80606,-500,4,2,0,40,0,0
80621,-55.5555555555556,4,2,0,40,0,0
80636,-500,4,2,0,40,0,0
80651,-55.5555555555556,4,2,0,40,0,0
80666,-500,4,2,0,40,0,0
80697,-55.5555555555556,4,2,0,40,0,0
80727,-166.666666666667,4,2,0,40,0,0
81272,-55.5555555555556,4,2,0,40,0,0
81287,-500,4,2,0,40,0,0
81302,-55.5555555555556,4,2,0,40,0,0
81317,-500,4,2,0,40,0,0
81332,-55.5555555555556,4,2,0,40,0,0
81347,-500,4,2,0,40,0,0
81363,-55.5555555555556,4,2,0,40,0,0
81378,-500,4,2,0,40,0,0
81393,-55.5555555555556,4,2,0,40,0,0
81408,-500,4,2,0,40,0,0
81423,-55.5555555555556,4,2,0,40,0,0
81438,-500,4,2,0,40,0,0
81453,-100,4,2,0,40,0,0
81818,-500,4,2,0,40,0,0
81833,-55.5555555555556,4,2,0,40,0,0
81848,-500,4,2,0,40,0,0
81864,-55.5555555555556,4,2,0,40,0,0
81879,-500,4,2,0,40,0,0
81894,-55.5555555555556,4,2,0,40,0,0
81924,-500,4,2,0,40,0,0
81955,-55.5555555555556,4,2,0,40,0,0
81970,-500,4,2,0,40,0,0
81985,-55.5555555555556,4,2,0,40,0,0
82015,-500,4,2,0,40,0,0
82045,-55.5555555555556,4,2,0,40,0,0
82060,-500,4,2,0,40,0,0
82076,-55.5555555555556,4,2,0,40,0,0
82106,-500,4,2,0,40,0,0
82136,-166.666666666667,4,2,0,40,0,0
82909,-1000,4,2,0,40,0,0
83242,-25.6410256410256,4,2,0,40,0,0
83272,-500,4,2,0,40,0,0
83303,-55.5555555555556,4,2,0,40,0,0
83333,-500,4,2,0,40,0,0
83348,-55.5555555555556,4,2,0,40,0,0
83363,-500,4,2,0,40,0,0
83378,-55.5555555555556,4,2,0,40,0,0
83394,-500,4,2,0,40,0,0
83409,-55.5555555555556,4,2,0,40,0,0
83424,-500,4,2,0,40,0,0
83455,-55.5555555555556,4,2,0,40,0,0
83485,-500,4,2,0,40,0,0
83500,-55.5555555555556,4,2,0,40,0,0
83515,-500,4,2,0,40,0,0
83530,-55.5555555555556,4,2,0,40,0,0
83545,-500,4,2,0,40,0,0
83560,-55.5555555555556,4,2,0,40,0,0
83575,-500,4,2,0,40,0,0
83606,-55.5555555555556,4,2,0,40,0,0
83636,-166.666666666667,4,2,0,40,0,0
84363,-1000,4,2,0,40,0,0
84696,-25.6410256410256,4,2,0,40,0,0
84726,-500,4,2,0,40,0,0
84757,-55.5555555555556,4,2,0,40,0,0
84787,-500,4,2,0,40,0,0
84802,-55.5555555555556,4,2,0,40,0,0
84817,-500,4,2,0,40,0,0
84832,-55.5555555555556,4,2,0,40,0,0
84848,-500,4,2,0,40,0,0
84863,-55.5555555555556,4,2,0,40,0,0
84878,-500,4,2,0,40,0,0
84909,-55.5555555555556,4,2,0,40,0,0
84939,-500,4,2,0,40,0,0
84954,-55.5555555555556,4,2,0,40,0,0
84969,-500,4,2,0,40,0,0
84984,-55.5555555555556,4,2,0,40,0,0
84999,-500,4,2,0,40,0,0
85014,-55.5555555555556,4,2,0,40,0,0
85029,-500,4,2,0,40,0,0
85060,-55.5555555555556,4,2,0,40,0,0
85090,-166.666666666667,4,2,0,40,0,0
85818,-1000,4,2,0,40,0,0
86151,-25.6410256410256,4,2,0,40,0,0
86181,-500,4,2,0,40,0,0
86212,-55.5555555555556,4,2,0,40,0,0
86242,-500,4,2,0,40,0,0
86257,-55.5555555555556,4,2,0,40,0,0
86272,-500,4,2,0,40,0,0
86287,-55.5555555555556,4,2,0,40,0,0
86303,-500,4,2,0,40,0,0
86318,-55.5555555555556,4,2,0,40,0,0
86333,-500,4,2,0,40,0,0
86364,-55.5555555555556,4,2,0,40,0,0
86394,-500,4,2,0,40,0,0
86409,-55.5555555555556,4,2,0,40,0,0
86424,-500,4,2,0,40,0,0
86439,-55.5555555555556,4,2,0,40,0,0
86454,-500,4,2,0,40,0,0
86469,-55.5555555555556,4,2,0,40,0,0
86484,-500,4,2,0,40,0,0
86515,-55.5555555555556,4,2,0,40,0,0
86545,-166.666666666667,4,2,0,40,0,0
87090,-55.5555555555556,4,2,0,40,0,0
87105,-500,4,2,0,40,0,0
87120,-55.5555555555556,4,2,0,40,0,0
87135,-500,4,2,0,40,0,0
87150,-55.5555555555556,4,2,0,40,0,0
87165,-500,4,2,0,40,0,0
87181,-55.5555555555556,4,2,0,40,0,0
87196,-500,4,2,0,40,0,0
87211,-55.5555555555556,4,2,0,40,0,0
87226,-500,4,2,0,40,0,0
87241,-55.5555555555556,4,2,0,40,0,0
87256,-500,4,2,0,40,0,0
87271,-100,4,2,0,40,0,0
87636,-500,4,2,0,40,0,0
87651,-55.5555555555556,4,2,0,40,0,0
87666,-500,4,2,0,40,0,0
87682,-55.5555555555556,4,2,0,40,0,0
87697,-500,4,2,0,40,0,0
87712,-55.5555555555556,4,2,0,40,0,0
87742,-500,4,2,0,40,0,0
87773,-55.5555555555556,4,2,0,40,0,0
87788,-500,4,2,0,40,0,0
87803,-55.5555555555556,4,2,0,40,0,0
87833,-500,4,2,0,40,0,0
87863,-55.5555555555556,4,2,0,40,0,0
87878,-500,4,2,0,40,0,0
87894,-55.5555555555556,4,2,0,40,0,0
87924,-500,4,2,0,40,0,0
87954,-166.666666666667,4,2,0,40,0,0
88727,-1000,4,2,0,40,0,0
89060,-25.6410256410256,4,2,0,40,0,0
89090,-500,4,2,0,40,0,0
89121,-55.5555555555556,4,2,0,40,0,0
89151,-500,4,2,0,40,0,0
89166,-55.5555555555556,4,2,0,40,0,0
89181,-500,4,2,0,40,0,0
89196,-55.5555555555556,4,2,0,40,0,0
89212,-500,4,2,0,40,0,0
89227,-55.5555555555556,4,2,0,40,0,0
89242,-500,4,2,0,40,0,0
89273,-55.5555555555556,4,2,0,40,0,0
89303,-500,4,2,0,40,0,0
89318,-55.5555555555556,4,2,0,40,0,0
89333,-500,4,2,0,40,0,0
89348,-55.5555555555556,4,2,0,40,0,0
89363,-500,4,2,0,40,0,0
89378,-55.5555555555556,4,2,0,40,0,0
89393,-500,4,2,0,40,0,0
89424,-55.5555555555556,4,2,0,40,0,0
89454,-166.666666666667,4,2,0,40,0,0
90181,-1000,4,2,0,40,0,0
90514,-25.6410256410256,4,2,0,40,0,0
90544,-500,4,2,0,40,0,0
90575,-55.5555555555556,4,2,0,40,0,0
90605,-500,4,2,0,40,0,0
90620,-55.5555555555556,4,2,0,40,0,0
90635,-500,4,2,0,40,0,0
90650,-55.5555555555556,4,2,0,40,0,0
90666,-500,4,2,0,40,0,0
90681,-55.5555555555556,4,2,0,40,0,0
90696,-500,4,2,0,40,0,0
90727,-55.5555555555556,4,2,0,40,0,0
90757,-500,4,2,0,40,0,0
90772,-55.5555555555556,4,2,0,40,0,0
90787,-500,4,2,0,40,0,0
90802,-55.5555555555556,4,2,0,40,0,0
90817,-500,4,2,0,40,0,0
90832,-55.5555555555556,4,2,0,40,0,0
90847,-500,4,2,0,40,0,0
90878,-55.5555555555556,4,2,0,40,0,0
90908,-166.666666666667,4,2,0,40,0,0
91636,-1000,4,2,0,40,0,0
91969,-25.6410256410256,4,2,0,40,0,0
91999,-500,4,2,0,40,0,0
92030,-55.5555555555556,4,2,0,40,0,0
92060,-500,4,2,0,40,0,0
92075,-55.5555555555556,4,2,0,40,0,0
92090,-500,4,2,0,40,0,0
92105,-55.5555555555556,4,2,0,40,0,0
92121,-500,4,2,0,40,0,0
92136,-55.5555555555556,4,2,0,40,0,0
92151,-500,4,2,0,40,0,0
92182,-55.5555555555556,4,2,0,40,0,0
92212,-500,4,2,0,40,0,0
92227,-55.5555555555556,4,2,0,40,0,0
92242,-500,4,2,0,40,0,0
92257,-55.5555555555556,4,2,0,40,0,0
92272,-500,4,2,0,40,0,0
92287,-55.5555555555556,4,2,0,40,0,0
92302,-500,4,2,0,40,0,0
92333,-55.5555555555556,4,2,0,40,0,0
92363,-166.666666666667,4,2,0,40,0,0
92909,-55.5555555555556,4,2,0,40,0,0
92924,-500,4,2,0,40,0,0
92939,-55.5555555555556,4,2,0,40,0,0
92954,-500,4,2,0,40,0,0
92969,-55.5555555555556,4,2,0,40,0,0
92984,-500,4,2,0,40,0,0
93000,-55.5555555555556,4,2,0,40,0,0
93015,-500,4,2,0,40,0,0
93030,-55.5555555555556,4,2,0,40,0,0
93045,-500,4,2,0,40,0,0
93060,-55.5555555555556,4,2,0,40,0,0
93075,-500,4,2,0,40,0,0
93090,-125,4,2,0,40,0,0
93454,-500,4,2,0,40,0,0
93484,-55.5555555555556,4,2,0,40,0,0
93515,-500,4,2,0,40,0,0
93545,-55.5555555555556,4,2,0,40,0,0
93575,-500,4,2,0,40,0,0
93590,-55.5555555555556,4,2,0,40,0,0
93606,-166.666666666667,4,2,0,40,0,0
94545,-136.425648021828,4,2,0,40,0,0
96000,-115.393491807062,4,2,0,40,0,0
97454,-100.0100010001,4,2,0,40,0,0
98181,-1000,4,2,0,40,0,0
99272,-500,4,2,0,40,0,0
99302,-55.5555555555556,4,2,0,40,0,0
99333,-500,4,2,0,40,0,0
99363,-55.5555555555556,4,2,0,40,0,0
99393,-500,4,2,0,40,0,0
99408,-55.5555555555556,4,2,0,40,0,0
99424,-166.666666666667,4,2,0,40,0,0
100363,-136.425648021828,4,2,0,40,0,0
101818,-115.393491807062,4,2,0,40,0,0
103272,-100.0100010001,4,2,0,40,0,0
104000,-166.666666666667,4,2,0,40,0,0
104727,-100,4,2,0,40,0,0
105090,-500,4,2,0,40,0,0
105120,-55.5555555555556,4,2,0,40,0,0
105151,-500,4,2,0,40,0,0
105181,-55.5555555555556,4,2,0,40,0,0
105211,-500,4,2,0,40,0,0
105226,-55.5555555555556,4,2,0,40,0,0
105242,-166.666666666667,4,2,0,40,0,0
106181,-136.425648021828,4,2,0,40,0,0
107636,-115.393491807062,4,2,0,40,0,0
109090,-100.0100010001,4,2,0,40,0,0
109818,-1000,4,2,0,40,0,0
110909,-500,4,2,0,40,0,0
110939,-55.5555555555556,4,2,0,40,0,0
110970,-500,4,2,0,40,0,0
111000,-55.5555555555556,4,2,0,40,0,0
111030,-500,4,2,0,40,0,0
111045,-55.5555555555556,4,2,0,40,0,0
111061,-166.666666666667,4,2,0,40,0,0
112000,-136.425648021828,4,2,0,40,0,0
113455,-115.393491807062,4,2,0,40,0,0
114909,-100.0100010001,4,2,0,40,0,0

[HitObjects]
448,192,0,5,0,0:0:0:0:
64,192,0,1,0,0:0:0:0:
320,192,363,1,0,0:0:0:0:
192,192,424,1,0,0:0:0:0:
448,192,484,1,0,0:0:0:0:
64,192,515,1,0,0:0:0:0:
64,192,1090,128,0,1454:0:0:0:0:
192,192,1818,1,0,0:0:0:0:
192,192,2000,1,0,0:0:0:0:
64,192,2545,128,0,2909:0:0:0:0:
320,192,3272,1,0,0:0:0:0:
320,192,3454,1,0,0:0:0:0:
64,192,4000,128,0,4363:0:0:0:0:
448,192,4727,1,0,0:0:0:0:
64,192,4909,1,0,0:0:0:0:
192,192,5090,1,0,0:0:0:0:
320,192,5090,1,0,0:0:0:0:
192,192,6181,1,0,0:0:0:0:
320,192,6242,1,0,0:0:0:0:
64,192,6303,1,0,0:0:0:0:
448,192,6333,1,0,0:0:0:0:
64,192,6909,128,0,7272:0:0:0:0:
192,192,7636,1,0,0:0:0:0:
448,192,7818,1,0,0:0:0:0:
64,192,8363,128,0,8727:0:0:0:0:
448,192,9090,1,0,0:0:0:0:
320,192,9272,1,0,0:0:0:0:
64,192,9818,128,0,10181:0:0:0:0:
320,192,10545,1,0,0:0:0:0:
64,192,10727,1,0,0:0:0:0:
192,192,10909,1,0,0:0:0:0:
320,192,10909,1,0,0:0:0:0:
64,192,11636,5,0,0:0:0:0:
192,192,11636,1,0,0:0:0:0:
192,192,12000,1,0,0:0:0:0:
64,192,12000,1,0,0:0:0:0:
64,192,12363,1,0,0:0:0:0:
192,192,12363,1,0,0:0:0:0:
64,192,12727,1,0,0:0:0:0:
192,192,12727,1,0,0:0:0:0:
448,192,12727,128,0,13090:0:0:0:0:
64,192,13090,1,0,0:0:0:0:
192,192,13090,1,0,0:0:0:0:
64,192,13454,1,0,0:0:0:0:
192,192,13454,1,0,0:0:0:0:
320,192,13454,1,0,0:0:0:0:
320,192,13636,1,0,0:0:0:0:
64,192,13818,1,0,0:0:0:0:
192,192,13818,1,0,0:0:0:0:
64,192,14181,1,0,0:0:0:0:
192,192,14181,1,0,0:0:0:0:
448,192,14181,128,0,14545:0:0:0:0:
64,192,14545,1,0,0:0:0:0:
192,192,14545,1,0,0:0:0:0:
64,192,14909,1,0,0:0:0:0:
192,192,14909,1,0,0:0:0:0:
320,192,14909,1,0,0:0:0:0:
448,192,15090,1,0,0:0:0:0:
64,192,15272,1,0,0:0:0:0:
192,192,15272,1,0,0:0:0:0:
64,192,15636,1,0,0:0:0:0:
192,192,15636,1,0,0:0:0:0:
448,192,15636,128,0,16000:0:0:0:0:
64,192,16000,1,0,0:0:0:0:
192,192,16000,1,0,0:0:0:0:
64,192,16363,1,0,0:0:0:0:
192,192,16363,1,0,0:0:0:0:
448,192,16363,1,0,0:0:0:0:
320,192,16545,1,0,0:0:0:0:
64,192,16727,1,0,0:0:0:0:
192,192,16727,1,0,0:0:0:0:
320,192,16727,1,0,0:0:0:0:
64,192,17090,1,0,0:0:0:0:
192,192,17090,1,0,0:0:0:0:
64,192,17454,1,0,0:0:0:0:
192,192,17454,1,0,0:0:0:0:
64,192,17636,1,0,0:0:0:0:
192,192,17636,1,0,0:0:0:0:
64,192,17818,1,0,0:0:0:0:
192,192,17818,1,0,0:0:0:0:
64,192,18000,1,0,0:0:0:0:
192,192,18000,1,0,0:0:0:0:
64,192,18181,1,0,0:0:0:0:
192,192,18181,1,0,0:0:0:0:
64,192,18363,1,0,0:0:0:0:
192,192,18363,1,0,0:0:0:0:
64,192,18545,1,0,0:0:0:0:
192,192,18545,1,0,0:0:0:0:
64,192,18727,1,0,0:0:0:0:
192,192,18727,1,0,0:0:0:0:
320,192,18909,1,0,0:0:0:0:
448,192,18909,1,0,0:0:0:0:
320,192,19090,1,0,0:0:0:0:
448,192,19090,1,0,0:0:0:0:
448,192,19272,1,0,0:0:0:0:
320,192,19272,1,0,0:0:0:0:
320,192,19454,1,0,0:0:0:0:
448,192,19454,1,0,0:0:0:0:
448,192,19636,1,0,0:0:0:0:
320,192,19636,1,0,0:0:0:0:
320,192,19818,1,0,0:0:0:0:
448,192,19818,1,0,0:0:0:0:
448,192,20000,1,0,0:0:0:0:
320,192,20000,1,0,0:0:0:0:
320,192,20181,1,0,0:0:0:0:
448,192,20181,1,0,0:0:0:0:
448,192,20363,1,0,0:0:0:0:
320,192,20363,1,0,0:0:0:0:
192,192,20454,1,0,0:0:0:0:
320,192,20545,1,0,0:0:0:0:
64,192,20545,1,0,0:0:0:0:
448,192,20636,1,0,0:0:0:0:
64,192,20727,1,0,0:0:0:0:
192,192,20727,1,0,0:0:0:0:
320,192,20818,1,0,0:0:0:0:
192,192,20909,1,0,0:0:0:0:
448,192,20909,1,0,0:0:0:0:
64,192,21000,1,0,0:0:0:0:
448,192,21090,1,0,0:0:0:0:
192,192,21136,1,0,0:0:0:0:
320,192,21181,1,0,0:0:0:0:
64,192,21227,1,0,0:0:0:0:
192,192,21272,1,0,0:0:0:0:
448,192,21318,1,0,0:0:0:0:
64,192,21363,1,0,0:0:0:0:
320,192,21409,1,0,0:0:0:0:
448,192,21454,1,0,0:0:0:0:
192,192,21500,1,0,0:0:0:0:
320,192,21545,1,0,0:0:0:0:
64,192,21590,1,0,0:0:0:0:
192,192,21636,1,0,0:0:0:0:
448,192,21681,1,0,0:0:0:0:
64,192,21727,1,0,0:0:0:0:
192,192,21772,1,0,0:0:0:0:
320,192,21818,1,0,0:0:0:0:
448,192,21818,1,0,0:0:0:0:
320,192,22181,1,0,0:0:0:0:
64,192,22363,1,0,0:0:0:0:
64,192,23272,128,0,23636:0:0:0:0:
448,192,23272,128,0,23636:0:0:0:0:
320,192,23636,1,0,0:0:0:0:
320,192,23818,1,0,0:0:0:0:
192,192,24363,128,0,24727:0:0:0:0:
64,192,25090,1,0,0:0:0:0:
192,192,25090,1,0,0:0:0:0:
448,192,25151,1,0,0:0:0:0:
320,192,25181,1,0,0:0:0:0:
64,192,25212,1,0,0:0:0:0:
192,192,25242,1,0,0:0:0:0:
320,192,25303,1,0,0:0:0:0:
448,192,25333,1,0,0:0:0:0:
192,192,25363,1,0,0:0:0:0:
64,192,25393,1,0,0:0:0:0:
320,192,25454,1,0,0:0:0:0:
448,192,25454,1,0,0:0:0:0:
320,192,25818,128,0,26181:0:0:0:0:
448,192,26545,1,0,0:0:0:0:
320,192,26545,1,0,0:0:0:0:
64,192,26606,1,0,0:0:0:0:
192,192,26636,1,0,0:0:0:0:
448,192,26666,1,0,0:0:0:0:
320,192,26696,1,0,0:0:0:0:
192,192,26757,1,0,0:0:0:0:
64,192,26787,1,0,0:0:0:0:
320,192,26818,1,0,0:0:0:0:
448,192,26848,1,0,0:0:0:0:
64,192,26909,1,0,0:0:0:0:
192,192,26909,1,0,0:0:0:0:
192,192,27272,128,0,27636:0:0:0:0:
192,192,28000,1,0,0:0:0:0:
64,192,28000,1,0,0:0:0:0:
448,192,28060,1,0,0:0:0:0:
320,192,28090,1,0,0:0:0:0:
64,192,28121,1,0,0:0:0:0:
192,192,28151,1,0,0:0:0:0:
320,192,28212,1,0,0:0:0:0:
448,192,28242,1,0,0:0:0:0:
192,192,28272,1,0,0:0:0:0:
64,192,28303,1,0,0:0:0:0:
320,192,28363,1,0,0:0:0:0:
448,192,28363,1,0,0:0:0:0:
192,192,28545,1,0,0:0:0:0:
448,192,28727,128,0,28909:0:0:0:0:
192,192,28909,1,0,0:0:0:0:
64,192,28939,1,0,0:0:0:0:
320,192,28969,1,0,0:0:0:0:
192,192,29000,1,0,0:0:0:0:
448,192,29030,1,0,0:0:0:0:
320,192,29060,1,0,0:0:0:0:
64,192,29090,128,0,29454:0:0:0:0:
448,192,29454,1,0,0:0:0:0:
320,192,29484,1,0,0:0:0:0:
192,192,29515,1,0,0:0:0:0:
64,192,29545,1,0,0:0:0:0:
320,192,29606,1,0,0:0:0:0:
448,192,29636,1,0,0:0:0:0:
192,192,29696,1,0,0:0:0:0:
64,192,29727,1,0,0:0:0:0:
320,192,29787,1,0,0:0:0:0:
448,192,29787,1,0,0:0:0:0:
320,192,30181,128,0,30545:0:0:0:0:
320,192,30909,1,0,0:0:0:0:
448,192,30909,1,0,0:0:0:0:
64,192,30969,1,0,0:0:0:0:
192,192,31000,1,0,0:0:0:0:
448,192,31030,1,0,0:0:0:0:
320,192,31060,1,0,0:0:0:0:
192,192,31121,1,0,0:0:0:0:
64,192,31151,1,0,0:0:0:0:
320,192,31181,1,0,0:0:0:0:
448,192,31212,1,0,0:0:0:0:
192,192,31272,1,0,0:0:0:0:
64,192,31272,1,0,0:0:0:0:
192,192,31636,128,0,32000:0:0:0:0:
64,192,32363,1,0,0:0:0:0:
192,192,32363,1,0,0:0:0:0:
448,192,32424,1,0,0:0:0:0:
320,192,32454,1,0,0:0:0:0:
64,192,32484,1,0,0:0:0:0:
192,192,32515,1,0,0:0:0:0:
320,192,32575,1,0,0:0:0:0:
448,192,32606,1,0,0:0:0:0:
192,192,32636,1,0,0:0:0:0:
64,192,32666,1,0,0:0:0:0:
448,192,32727,1,0,0:0:0:0:
320,192,32727,1,0,0:0:0:0:
320,192,33090,128,0,33454:0:0:0:0:
320,192,33818,1,0,0:0:0:0:
448,192,33818,1,0,0:0:0:0:
64,192,33878,1,0,0:0:0:0:
192,192,33909,1,0,0:0:0:0:
448,192,33939,1,0,0:0:0:0:
320,192,33969,1,0,0:0:0:0:
192,192,34030,1,0,0:0:0:0:
64,192,34060,1,0,0:0:0:0:
320,192,34090,1,0,0:0:0:0:
448,192,34121,1,0,0:0:0:0:
192,192,34181,1,0,0:0:0:0:
64,192,34181,1,0,0:0:0:0:
320,192,34303,1,0,0:0:0:0:
448,192,34424,1,0,0:0:0:0:
64,192,34545,1,0,0:0:0:0:
320,192,34727,128,0,34909:0:0:0:0:
192,192,34909,128,0,35272:0:0:0:0:
448,192,35272,1,0,0:0:0:0:
320,192,35303,1,0,0:0:0:0:
64,192,35363,1,0,0:0:0:0:
192,192,35393,1,0,0:0:0:0:
448,192,35454,1,0,0:0:0:0:
320,192,35484,1,0,0:0:0:0:
192,192,35515,1,0,0:0:0:0:
64,192,35545,1,0,0:0:0:0:
448,192,35606,1,0,0:0:0:0:
320,192,35606,1,0,0:0:0:0:
192,192,36000,128,0,36363:0:0:0:0:
64,192,36727,1,0,0:0:0:0:
192,192,36727,1,0,0:0:0:0:
448,192,36787,1,0,0:0:0:0:
320,192,36818,1,0,0:0:0:0:
64,192,36848,1,0,0:0:0:0:
192,192,36878,1,0,0:0:0:0:
320,192,36939,1,0,0:0:0:0:
448,192,36969,1,0,0:0:0:0:
192,192,37000,1,0,0:0:0:0:
64,192,37030,1,0,0:0:0:0:
448,192,37090,1,0,0:0:0:0:
320,192,37090,1,0,0:0:0:0:
320,192,37454,128,0,37818:0:0:0:0:
320,192,38181,1,0,0:0:0:0:
448,192,38181,1,0,0:0:0:0:
64,192,38242,1,0,0:0:0:0:
192,192,38272,1,0,0:0:0:0:
448,192,38303,1,0,0:0:0:0:
320,192,38333,1,0,0:0:0:0:
192,192,38393,1,0,0:0:0:0:
64,192,38424,1,0,0:0:0:0:
320,192,38454,1,0,0:0:0:0:
448,192,38484,1,0,0:0:0:0:
192,192,38545,1,0,0:0:0:0:
64,192,38545,1,0,0:0:0:0:
192,192,38909,128,0,39272:0:0:0:0:
64,192,39636,1,0,0:0:0:0:
192,192,39636,1,0,0:0:0:0:
448,192,39696,1,0,0:0:0:0:
320,192,39727,1,0,0:0:0:0:
64,192,39757,1,0,0:0:0:0:
192,192,39787,1,0,0:0:0:0:
320,192,39848,1,0,0:0:0:0:
448,192,39878,1,0,0:0:0:0:
192,192,39909,1,0,0:0:0:0:
64,192,39939,1,0,0:0:0:0:
448,192,40000,1,0,0:0:0:0:
320,192,40000,1,0,0:0:0:0:
192,192,40181,1,0,0:0:0:0:
448,192,40363,128,0,40545:0:0:0:0:
192,192,40545,1,0,0:0:0:0:
64,192,40575,1,0,0:0:0:0:
320,192,40606,1,0,0:0:0:0:
192,192,40636,1,0,0:0:0:0:
448,192,40666,1,0,0:0:0:0:
320,192,40696,1,0,0:0:0:0:
64,192,40727,128,0,41090:0:0:0:0:
448,192,41090,1,0,0:0:0:0:
320,192,41121,1,0,0:0:0:0:
192,192,41151,1,0,0:0:0:0:
64,192,41181,1,0,0:0:0:0:
320,192,41242,1,0,0:0:0:0:
448,192,41272,1,0,0:0:0:0:
192,192,41333,1,0,0:0:0:0:
64,192,41363,1,0,0:0:0:0:
320,192,41424,1,0,0:0:0:0:
448,192,41424,1,0,0:0:0:0:
320,192,41818,128,0,42181:0:0:0:0:
320,192,42545,1,0,0:0:0:0:
448,192,42545,1,0,0:0:0:0:
64,192,42606,1,0,0:0:0:0:
192,192,42636,1,0,0:0:0:0:
448,192,42666,1,0,0:0:0:0:
320,192,42696,1,0,0:0:0:0:
192,192,42757,1,0,0:0:0:0:
64,192,42787,1,0,0:0:0:0:
320,192,42818,1,0,0:0:0:0:
448,192,42848,1,0,0:0:0:0:
192,192,42909,1,0,0:0:0:0:
64,192,42909,1,0,0:0:0:0:
192,192,43272,128,0,43636:0:0:0:0:
64,192,44000,1,0,0:0:0:0:
192,192,44000,1,0,0:0:0:0:
448,192,44060,1,0,0:0:0:0:
320,192,44090,1,0,0:0:0:0:
64,192,44121,1,0,0:0:0:0:
192,192,44151,1,0,0:0:0:0:
320,192,44212,1,0,0:0:0:0:
448,192,44242,1,0,0:0:0:0:
192,192,44272,1,0,0:0:0:0:
64,192,44303,1,0,0:0:0:0:
448,192,44363,1,0,0:0:0:0:
320,192,44363,1,0,0:0:0:0:
320,192,44727,128,0,45090:0:0:0:0:
320,192,45454,1,0,0:0:0:0:
448,192,45454,1,0,0:0:0:0:
64,192,45515,1,0,0:0:0:0:
192,192,45545,1,0,0:0:0:0:
448,192,45575,1,0,0:0:0:0:
320,192,45606,1,0,0:0:0:0:
192,192,45666,1,0,0:0:0:0:
64,192,45696,1,0,0:0:0:0:
320,192,45727,1,0,0:0:0:0:
448,192,45757,1,0,0:0:0:0:
192,192,45818,1,0,0:0:0:0:
64,192,45818,1,0,0:0:0:0:
320,192,45939,1,0,0:0:0:0:
448,192,46060,1,0,0:0:0:0:
64,192,46181,1,0,0:0:0:0:
320,192,46363,128,0,46545:0:0:0:0:
192,192,46545,1,0,0:0:0:0:
64,192,46545,1,0,0:0:0:0:
320,192,46909,1,0,0:0:0:0:
64,192,46969,1,0,0:0:0:0:
448,192,47030,1,0,0:0:0:0:
192,192,47060,1,0,0:0:0:0:
448,192,47636,128,0,48000:0:0:0:0:
64,192,48363,1,0,0:0:0:0:
64,192,48545,1,0,0:0:0:0:
448,192,49090,128,0,49454:0:0:0:0:
192,192,49818,1,0,0:0:0:0:
192,192,50000,1,0,0:0:0:0:
448,192,50545,128,0,50909:0:0:0:0:
192,192,51636,1,0,0:0:0:0:
320,192,51636,1,0,0:0:0:0:
192,192,52727,1,0,0:0:0:0:
448,192,52787,1,0,0:0:0:0:
64,192,52848,1,0,0:0:0:0:
320,192,52878,1,0,0:0:0:0:
448,192,53454,128,0,53818:0:0:0:0:
320,192,54181,1,0,0:0:0:0:
320,192,54363,1,0,0:0:0:0:
448,192,54909,128,0,55272:0:0:0:0:
192,192,55636,1,0,0:0:0:0:
192,192,55818,1,0,0:0:0:0:
448,192,56363,128,0,56727:0:0:0:0:
64,192,57454,1,0,0:0:0:0:
448,192,57454,1,0,0:0:0:0:
448,192,58181,5,0,0:0:0:0:
320,192,58181,1,0,0:0:0:0:
320,192,58545,1,0,0:0:0:0:
448,192,58545,1,0,0:0:0:0:
448,192,58909,1,0,0:0:0:0:
320,192,58909,1,0,0:0:0:0:
448,192,59272,1,0,0:0:0:0:
320,192,59272,1,0,0:0:0:0:
64,192,59272,128,0,59636:0:0:0:0:
448,192,59636,1,0,0:0:0:0:
320,192,59636,1,0,0:0:0:0:
448,192,60000,1,0,0:0:0:0:
320,192,60000,1,0,0:0:0:0:
192,192,60000,1,0,0:0:0:0:
192,192,60181,1,0,0:0:0:0:
448,192,60363,1,0,0:0:0:0:
320,192,60363,1,0,0:0:0:0:
448,192,60727,1,0,0:0:0:0:
320,192,60727,1,0,0:0:0:0:
64,192,60727,128,0,61090:0:0:0:0:
448,192,61090,1,0,0:0:0:0:
320,192,61090,1,0,0:0:0:0:
448,192,61454,1,0,0:0:0:0:
320,192,61454,1,0,0:0:0:0:
64,192,61454,1,0,0:0:0:0:
64,192,61636,1,0,0:0:0:0:
448,192,61818,1,0,0:0:0:0:
320,192,61818,1,0,0:0:0:0:
448,192,62181,1,0,0:0:0:0:
320,192,62181,1,0,0:0:0:0:
64,192,62181,128,0,62545:0:0:0:0:
448,192,62545,1,0,0:0:0:0:
320,192,62545,1,0,0:0:0:0:
448,192,62909,1,0,0:0:0:0:
320,192,62909,1,0,0:0:0:0:
192,192,62909,1,0,0:0:0:0:
192,192,63090,1,0,0:0:0:0:
448,192,63272,1,0,0:0:0:0:
320,192,63272,1,0,0:0:0:0:
448,192,63636,1,0,0:0:0:0:
320,192,63636,1,0,0:0:0:0:
448,192,64000,1,0,0:0:0:0:
320,192,64000,1,0,0:0:0:0:
448,192,64181,1,0,0:0:0:0:
320,192,64181,1,0,0:0:0:0:
448,192,64363,1,0,0:0:0:0:
320,192,64363,1,0,0:0:0:0:
448,192,64545,1,0,0:0:0:0:
320,192,64545,1,0,0:0:0:0:
448,192,64727,1,0,0:0:0:0:
320,192,64727,1,0,0:0:0:0:
448,192,64909,1,0,0:0:0:0:
320,192,64909,1,0,0:0:0:0:
448,192,65090,1,0,0:0:0:0:
320,192,65090,1,0,0:0:0:0:
448,192,65272,1,0,0:0:0:0:
320,192,65272,1,0,0:0:0:0:
192,192,65454,1,0,0:0:0:0:
64,192,65454,1,0,0:0:0:0:
192,192,65636,1,0,0:0:0:0:
64,192,65636,1,0,0:0:0:0:
64,192,65818,1,0,0:0:0:0:
192,192,65818,1,0,0:0:0:0:
192,192,66000,1,0,0:0:0:0:
64,192,66000,1,0,0:0:0:0:
64,192,66181,1,0,0:0:0:0:
192,192,66181,1,0,0:0:0:0:
192,192,66363,1,0,0:0:0:0:
64,192,66363,1,0,0:0:0:0:
64,192,66545,1,0,0:0:0:0:
192,192,66545,1,0,0:0:0:0:
192,192,66727,1,0,0:0:0:0:
64,192,66727,1,0,0:0:0:0:
64,192,66909,1,0,0:0:0:0:
192,192,66909,1,0,0:0:0:0:
320,192,67000,1,0,0:0:0:0:
192,192,67090,1,0,0:0:0:0:
448,192,67090,1,0,0:0:0:0:
64,192,67181,1,0,0:0:0:0:
448,192,67272,1,0,0:0:0:0:
320,192,67272,1,0,0:0:0:0:
192,192,67363,1,0,0:0:0:0:
320,192,67454,1,0,0:0:0:0:
64,192,67454,1,0,0:0:0:0:
448,192,67545,1,0,0:0:0:0:
64,192,67636,1,0,0:0:0:0:
320,192,67681,1,0,0:0:0:0:
192,192,67727,1,0,0:0:0:0:
448,192,67772,1,0,0:0:0:0:
320,192,67818,1,0,0:0:0:0:
64,192,67863,1,0,0:0:0:0:
448,192,67909,1,0,0:0:0:0:
192,192,67954,1,0,0:0:0:0:
64,192,68000,1,0,0:0:0:0:
320,192,68045,1,0,0:0:0:0:
192,192,68090,1,0,0:0:0:0:
448,192,68136,1,0,0:0:0:0:
320,192,68181,1,0,0:0:0:0:
64,192,68227,1,0,0:0:0:0:
448,192,68272,1,0,0:0:0:0:
320,192,68318,1,0,0:0:0:0:
192,192,68363,1,0,0:0:0:0:
64,192,68363,1,0,0:0:0:0:
192,192,68727,1,0,0:0:0:0:
448,192,68909,1,0,0:0:0:0:
320,192,69818,128,0,70181:0:0:0:0:
192,192,69818,128,0,70181:0:0:0:0:
64,192,70181,1,0,0:0:0:0:
64,192,70363,1,0,0:0:0:0:
448,192,70909,128,0,71272:0:0:0:0:
448,192,71636,1,0,0:0:0:0:
64,192,71636,1,0,0:0:0:0:
320,192,71696,1,0,0:0:0:0:
192,192,71727,1,0,0:0:0:0:
448,192,71757,1,0,0:0:0:0:
64,192,71787,1,0,0:0:0:0:
192,192,71848,1,0,0:0:0:0:
320,192,71878,1,0,0:0:0:0:
64,192,71909,1,0,0:0:0:0:
448,192,71939,1,0,0:0:0:0:
192,192,72000,1,0,0:0:0:0:
320,192,72000,1,0,0:0:0:0:
64,192,72363,128,0,72727:0:0:0:0:
64,192,73090,1,0,0:0:0:0:
448,192,73090,1,0,0:0:0:0:
192,192,73151,1,0,0:0:0:0:
320,192,73181,1,0,0:0:0:0:
64,192,73212,1,0,0:0:0:0:
448,192,73242,1,0,0:0:0:0:
320,192,73303,1,0,0:0:0:0:
192,192,73333,1,0,0:0:0:0:
448,192,73363,1,0,0:0:0:0:
64,192,73393,1,0,0:0:0:0:
320,192,73454,1,0,0:0:0:0:
192,192,73454,1,0,0:0:0:0:
448,192,73818,128,0,74181:0:0:0:0:
64,192,74545,1,0,0:0:0:0:
448,192,74545,1,0,0:0:0:0:
320,192,74606,1,0,0:0:0:0:
192,192,74636,1,0,0:0:0:0:
448,192,74666,1,0,0:0:0:0:
64,192,74696,1,0,0:0:0:0:
192,192,74757,1,0,0:0:0:0:
320,192,74787,1,0,0:0:0:0:
64,192,74818,1,0,0:0:0:0:
448,192,74848,1,0,0:0:0:0:
320,192,74909,1,0,0:0:0:0:
192,192,74909,1,0,0:0:0:0:
448,192,75090,1,0,0:0:0:0:
64,192,75272,128,0,75454:0:0:0:0:
320,192,75454,1,0,0:0:0:0:
448,192,75484,1,0,0:0:0:0:
192,192,75515,1,0,0:0:0:0:
320,192,75545,1,0,0:0:0:0:
64,192,75575,1,0,0:0:0:0:
192,192,75606,1,0,0:0:0:0:
448,192,75636,128,0,76000:0:0:0:0:
64,192,76000,1,0,0:0:0:0:
192,192,76030,1,0,0:0:0:0:
320,192,76060,1,0,0:0:0:0:
448,192,76090,1,0,0:0:0:0:
192,192,76151,1,0,0:0:0:0:
64,192,76181,1,0,0:0:0:0:
320,192,76242,1,0,0:0:0:0:
448,192,76272,1,0,0:0:0:0:
192,192,76333,1,0,0:0:0:0:
64,192,76333,1,0,0:0:0:0:
64,192,76727,128,0,77090:0:0:0:0:
64,192,77454,1,0,0:0:0:0:
448,192,77454,1,0,0:0:0:0:
192,192,77515,1,0,0:0:0:0:
320,192,77545,1,0,0:0:0:0:
64,192,77575,1,0,0:0:0:0:
448,192,77606,1,0,0:0:0:0:
320,192,77666,1,0,0:0:0:0:
192,192,77696,1,0,0:0:0:0:
448,192,77727,1,0,0:0:0:0:
64,192,77757,1,0,0:0:0:0:
320,192,77818,1,0,0:0:0:0:
192,192,77818,1,0,0:0:0:0:
448,192,78181,128,0,78545:0:0:0:0:
64,192,78909,1,0,0:0:0:0:
448,192,78909,1,0,0:0:0:0:
320,192,78969,1,0,0:0:0:0:
192,192,79000,1,0,0:0:0:0:
448,192,79030,1,0,0:0:0:0:
64,192,79060,1,0,0:0:0:0:
192,192,79121,1,0,0:0:0:0:
320,192,79151,1,0,0:0:0:0:
64,192,79181,1,0,0:0:0:0:
448,192,79212,1,0,0:0:0:0:
320,192,79272,1,0,0:0:0:0:
192,192,79272,1,0,0:0:0:0:
64,192,79636,128,0,80000:0:0:0:0:
64,192,80363,1,0,0:0:0:0:
448,192,80363,1,0,0:0:0:0:
192,192,80424,1,0,0:0:0:0:
320,192,80454,1,0,0:0:0:0:
64,192,80484,1,0,0:0:0:0:
448,192,80515,1,0,0:0:0:0:
320,192,80575,1,0,0:0:0:0:
192,192,80606,1,0,0:0:0:0:
448,192,80636,1,0,0:0:0:0:
64,192,80666,1,0,0:0:0:0:
320,192,80727,1,0,0:0:0:0:
192,192,80727,1,0,0:0:0:0:
64,192,80909,1,0,0:0:0:0:
448,192,81090,128,0,81272:0:0:0:0:
192,192,81272,1,0,0:0:0:0:
64,192,81303,1,0,0:0:0:0:
320,192,81333,1,0,0:0:0:0:
192,192,81363,1,0,0:0:0:0:
448,192,81393,1,0,0:0:0:0:
320,192,81424,1,0,0:0:0:0:
64,192,81454,128,0,81818:0:0:0:0:
448,192,81818,1,0,0:0:0:0:
320,192,81848,1,0,0:0:0:0:
192,192,81878,1,0,0:0:0:0:
64,192,81909,1,0,0:0:0:0:
320,192,81969,1,0,0:0:0:0:
448,192,82000,1,0,0:0:0:0:
192,192,82060,1,0,0:0:0:0:
64,192,82090,1,0,0:0:0:0:
320,192,82151,1,0,0:0:0:0:
448,192,82151,1,0,0:0:0:0:
448,192,82545,128,0,82909:0:0:0:0:
448,192,83272,1,0,0:0:0:0:
64,192,83272,1,0,0:0:0:0:
320,192,83333,1,0,0:0:0:0:
192,192,83363,1,0,0:0:0:0:
448,192,83393,1,0,0:0:0:0:
64,192,83424,1,0,0:0:0:0:
192,192,83484,1,0,0:0:0:0:
320,192,83515,1,0,0:0:0:0:
64,192,83545,1,0,0:0:0:0:
448,192,83575,1,0,0:0:0:0:
192,192,83636,1,0,0:0:0:0:
320,192,83636,1,0,0:0:0:0:
64,192,84000,128,0,84363:0:0:0:0:
448,192,84727,1,0,0:0:0:0:
64,192,84727,1,0,0:0:0:0:
192,192,84787,1,0,0:0:0:0:
320,192,84818,1,0,0:0:0:0:
64,192,84848,1,0,0:0:0:0:
448,192,84878,1,0,0:0:0:0:
320,192,84939,1,0,0:0:0:0:
192,192,84969,1,0,0:0:0:0:
448,192,85000,1,0,0:0:0:0:
64,192,85030,1,0,0:0:0:0:
192,192,85090,1,0,0:0:0:0:
320,192,85090,1,0,0:0:0:0:
448,192,85454,128,0,85818:0:0:0:0:
448,192,86181,1,0,0:0:0:0:
64,192,86181,1,0,0:0:0:0:
320,192,86242,1,0,0:0:0:0:
192,192,86272,1,0,0:0:0:0:
448,192,86303,1,0,0:0:0:0:
64,192,86333,1,0,0:0:0:0:
192,192,86393,1,0,0:0:0:0:
320,192,86424,1,0,0:0:0:0:
64,192,86454,1,0,0:0:0:0:
448,192,86484,1,0,0:0:0:0:
192,192,86545,1,0,0:0:0:0:
320,192,86545,1,0,0:0:0:0:
448,192,86727,1,0,0:0:0:0:
64,192,86909,128,0,87090:0:0:0:0:
320,192,87090,1,0,0:0:0:0:
448,192,87121,1,0,0:0:0:0:
192,192,87151,1,0,0:0:0:0:
320,192,87181,1,0,0:0:0:0:
64,192,87212,1,0,0:0:0:0:
192,192,87242,1,0,0:0:0:0:
448,192,87272,128,0,87636:0:0:0:0:
64,192,87636,1,0,0:0:0:0:
192,192,87666,1,0,0:0:0:0:
320,192,87696,1,0,0:0:0:0:
448,192,87727,1,0,0:0:0:0:
192,192,87787,1,0,0:0:0:0:
64,192,87818,1,0,0:0:0:0:
320,192,87878,1,0,0:0:0:0:
448,192,87909,1,0,0:0:0:0:
64,192,87969,1,0,0:0:0:0:
192,192,87969,1,0,0:0:0:0:
64,192,88363,128,0,88727:0:0:0:0:
448,192,89090,1,0,0:0:0:0:
64,192,89090,1,0,0:0:0:0:
192,192,89151,1,0,0:0:0:0:
320,192,89181,1,0,0:0:0:0:
64,192,89212,1,0,0:0:0:0:
448,192,89242,1,0,0:0:0:0:
320,192,89303,1,0,0:0:0:0:
192,192,89333,1,0,0:0:0:0:
448,192,89363,1,0,0:0:0:0:
64,192,89393,1,0,0:0:0:0:
192,192,89454,1,0,0:0:0:0:
320,192,89454,1,0,0:0:0:0:
448,192,89818,128,0,90181:0:0:0:0:
448,192,90545,1,0,0:0:0:0:
64,192,90545,1,0,0:0:0:0:
320,192,90606,1,0,0:0:0:0:
192,192,90636,1,0,0:0:0:0:
448,192,90666,1,0,0:0:0:0:
64,192,90696,1,0,0:0:0:0:
192,192,90757,1,0,0:0:0:0:
320,192,90787,1,0,0:0:0:0:
64,192,90818,1,0,0:0:0:0:
448,192,90848,1,0,0:0:0:0:
192,192,90909,1,0,0:0:0:0:
320,192,90909,1,0,0:0:0:0:
64,192,91272,128,0,91636:0:0:0:0:
448,192,92000,1,0,0:0:0:0:
64,192,92000,1,0,0:0:0:0:
192,192,92060,1,0,0:0:0:0:
320,192,92090,1,0,0:0:0:0:
64,192,92121,1,0,0:0:0:0:
448,192,92151,1,0,0:0:0:0:
320,192,92212,1,0,0:0:0:0:
192,192,92242,1,0,0:0:0:0:
448,192,92272,1,0,0:0:0:0:
64,192,92303,1,0,0:0:0:0:
192,192,92363,1,0,0:0:0:0:
320,192,92363,1,0,0:0:0:0:
64,192,92545,1,0,0:0:0:0:
448,192,92727,128,0,92909:0:0:0:0:
192,192,92909,1,0,0:0:0:0:
64,192,92939,1,0,0:0:0:0:
320,192,92969,1,0,0:0:0:0:
192,192,93000,1,0,0:0:0:0:
448,192,93030,1,0,0:0:0:0:
320,192,93060,1,0,0:0:0:0:
64,192,93090,1,0,0:0:0:0:
64,192,93454,1,0,0:0:0:0:
448,192,93515,1,0,0:0:0:0:
192,192,93575,1,0,0:0:0:0:
320,192,93606,1,0,0:0:0:0:
64,192,94181,128,0,94545:0:0:0:0:
64,192,95636,128,0,96000:0:0:0:0:
64,192,97090,128,0,97454:0:0:0:0:
192,192,98181,1,0,0:0:0:0:
448,192,98181,1,0,0:0:0:0:
448,192,99272,1,0,0:0:0:0:
64,192,99333,1,0,0:0:0:0:
320,192,99393,1,0,0:0:0:0:
192,192,99424,1,0,0:0:0:0:
64,192,100000,128,0,100363:0:0:0:0:
64,192,101454,128,0,101818:0:0:0:0:
64,192,102909,128,0,103272:0:0:0:0:
64,192,104000,1,0,0:0:0:0:
448,192,104000,1,0,0:0:0:0:
192,192,104727,1,0,0:0:0:0:
320,192,104727,1,0,0:0:0:0:
448,192,105090,1,0,0:0:0:0:
64,192,105151,1,0,0:0:0:0:
320,192,105212,1,0,0:0:0:0:
192,192,105242,1,0,0:0:0:0:
64,192,105818,128,0,106181:0:0:0:0:
64,192,107272,128,0,107636:0:0:0:0:
64,192,108727,128,0,109090:0:0:0:0:
64,192,109818,1,0,0:0:0:0:
320,192,109818,1,0,0:0:0:0:
64,192,110909,1,0,0:0:0:0:
448,192,110969,1,0,0:0:0:0:
192,192,111030,1,0,0:0:0:0:
320,192,111060,1,0,0:0:0:0:
64,192,111636,128,0,112000:0:0:0:0:
64,192,113090,128,0,113454:0:0:0:0:
64,192,114545,128,0,114909:0:0:0:0:
