osu file format v14

[General]
AudioFilename: audio.mp3
AudioLeadIn: 0
PreviewTime: 27942
Countdown: 1
SampleSet: None
StackLeniency: 0.7
Mode: 0
LetterboxInBreaks: 0
WidescreenStoryboard: 0

[Editor]
DistanceSpacing: 1
BeatDivisor: 8
GridSize: 4
TimelineZoom: 3.050003

[Metadata]
Title:Car Song
TitleUnicode:Car Song
Artist:Parappa The Rapper
ArtistUnicode:Parappa The Rapper
Creator:sp00kem
Version:
Source:
Tags:
BeatmapID:1439580
BeatmapSetID:680882

[Difficulty]
HPDrainRate:6
CircleSize:5.3
OverallDifficulty:8
ApproachRate:9.5
SliderMultiplier:1.4
SliderTickRate:1

[Events]
//Background and Video events
0,0,"parappa.jpg",0,0
//Break Periods
2,13282,13959
2,17523,18445
2,36554,40875
2,81518,85840
//Storyboard Layer 0 (Background)
//Storyboard Layer 1 (Fail)
//Storyboard Layer 2 (Pass)
//Storyboard Layer 3 (Foreground)
//Storyboard Sound Samples

[TimingPoints]
746,280.373831775701,4,1,0,100,1,0
1027,280.373831775701,4,1,0,100,1,0
41400,281.69014084507,4,1,0,100,1,0
60273,-66.6666666666667,4,1,0,100,0,0
60554,-66.6666666666667,4,1,0,5,0,0
60695,-100,4,1,0,100,0,0
64216,280.373831775701,4,1,0,100,1,0
86365,280.373831775701,4,1,0,100,1,0
90851,-133.333333333333,4,1,0,100,0,0
105150,-100,4,1,0,100,0,0

[Colours]
Combo1 : 253,126,0
Combo2 : 32,60,170
Combo3 : 255,128,0
Combo4 : 35,68,180

[HitObjects]
40,136,5232,6,0,P|44:96|128:48,1,140
344,44,5933,2,0,L|274:44,1,70
140,100,6494,1,0,0:0:0:0:
140,176,6634,1,0,0:0:0:0:
224,100,6774,1,0,0:0:0:0:
224,176,6914,1,0,0:0:0:0:
308,100,7055,1,0,0:0:0:0:
308,176,7195,1,0,0:0:0:0:
112,124,7615,21,0,0:0:0:0:
112,140,7755,2,0,P|128:180|220:200,1,140
228,196,8176,1,0,0:0:0:0:
288,260,8316,2,0,L|344:308,2,70
136,116,8737,2,0,L|256:196,1,140
96,112,9157,2,0,L|212:192,1,140
84,48,9998,21,0,0:0:0:0:
196,48,10279,1,0,0:0:0:0:
232,48,10419,1,0,0:0:0:0:
336,48,10559,2,0,P|392:56|432:124,1,140
428,336,12241,5,0,0:0:0:0:
316,336,12522,1,0,0:0:0:0:
280,336,12662,1,0,0:0:0:0:
176,336,12802,2,0,P|120:328|80:260,1,140
56,52,14484,6,0,L|196:52,1,140
284,52,14905,1,0,0:0:0:0:
376,52,15045,2,0,L|400:52,1,17.5
456,332,16727,6,0,L|316:332,1,140
228,332,17148,1,0,0:0:0:0:
136,332,17288,2,0,L|112:332,1,17.5
88,56,18970,5,0,0:0:0:0:
180,56,19251,1,0,0:0:0:0:
216,56,19391,1,0,0:0:0:0:
304,56,19531,2,0,B|364:56|364:56|400:56|400:120,1,140
424,328,21213,5,0,0:0:0:0:
332,328,21494,1,0,0:0:0:0:
296,328,21634,1,0,0:0:0:0:
208,328,21774,2,0,B|148:328|148:328|112:328|112:256,1,140
88,156,23036,6,0,L|40:100,2,70
188,260,23456,1,0,0:0:0:0:
256,192,23737,1,0,0:0:0:0:
320,120,24017,1,0,0:0:0:0:
440,292,24298,2,0,L|388:240,1,70
188,48,24578,1,0,0:0:0:0:
188,180,24858,1,0,0:0:0:0:
192,312,25139,1,0,0:0:0:0:
356,72,25419,21,0,0:0:0:0:
112,296,25699,2,0,L|232:212,1,140
280,168,26120,1,0,0:0:0:0:
148,132,26260,2,0,L|236:152,1,70
384,200,26541,2,0,B|400:240|400:240|380:292,2,70
324,168,26961,2,0,B|244:168|244:168|176:124,1,140
72,52,27942,21,0,0:0:0:0:
236,52,28223,1,0,0:0:0:0:
312,52,28363,1,0,0:0:0:0:
408,52,28503,2,0,B|448:84|448:84|448:180,1,140
440,332,29064,5,0,0:0:0:0:
276,336,29345,1,0,0:0:0:0:
200,336,29485,1,0,0:0:0:0:
104,336,29625,2,0,B|64:304|64:304|64:208,1,140
72,60,30185,6,0,B|112:100|152:100|196:60,1,140
256,44,30606,1,0,0:0:0:0:
316,64,30746,2,0,B|356:104|396:104|439:64,1,140
440,324,31307,6,0,B|400:284|360:284|316:324,1,140
256,340,31728,1,0,0:0:0:0:
196,320,31868,2,0,B|156:280|116:280|72:319,1,140
64,56,32428,6,0,L|140:56,1,70
212,56,32709,2,0,L|296:56,1,70
360,56,32989,2,0,B|420:72|420:72|392:128|408:172,1,140
448,328,33550,6,0,L|372:328,1,70
300,328,33831,2,0,L|216:328,1,70
152,328,34111,2,0,B|92:312|92:312|120:256|104:212,1,140
80,56,34671,5,0,0:0:0:0:
292,56,34952,1,0,0:0:0:0:
216,56,35092,1,0,0:0:0:0:
396,56,35232,1,0,0:0:0:0:
432,328,35793,5,0,0:0:0:0:
220,328,36074,1,0,0:0:0:0:
296,328,36214,1,0,0:0:0:0:
116,328,36354,1,0,0:0:0:0:
104,336,41400,6,0,L|104:120,1,210
164,52,41963,2,0,L|164:276,1,210
224,316,42526,2,0,L|224:224,1,70
224,180,42808,2,0,L|224:96,1,70
284,40,43090,2,0,L|284:200,1,140
408,336,43653,6,0,L|408:120,1,210
348,52,44216,2,0,L|348:276,1,210
288,316,44780,2,0,L|288:224,1,70
288,180,45061,2,0,L|288:96,1,70
228,40,45343,2,0,L|228:200,1,140
204,232,45907,6,0,P|172:204|208:128,1,140
296,164,46329,1,0,0:0:0:0:
272,248,46470,2,0,P|164:252|132:212,1,140
212,272,47033,2,0,B|120:172|120:172|220:68,1,280
180,64,50414,2,0,L|160:88,1,17.5
120,148,50836,2,0,L|178:196,1,70
148,272,51400,2,0,L|88:328,5,70
332,64,52667,6,0,L|352:88,1,17.5
392,148,53090,2,0,L|333:196,1,70
364,272,53653,2,0,L|424:328,5,70
288,180,54639,5,0,0:0:0:0:
308,232,54921,2,0,P|340:204|304:128,1,140
216,164,55343,1,0,0:0:0:0:
240,248,55484,2,0,P|348:252|380:212,1,140
320,264,56047,6,0,B|392:144|392:144|268:60,1,280
120,60,59428,5,0,0:0:0:0:
84,204,59709,1,0,0:0:0:0:
148,332,59991,1,0,0:0:0:0:
216,280,60273,2,2,B|208:260|208:260|216:232|216:232|208:196|208:196|288:96,1,210.000008010865
348,124,60695,2,0,P|376:168|344:240,1,122.5
312,180,61118,1,0,0:0:0:0:
420,132,61540,2,0,L|348:108,1,70
272,128,61963,2,0,L|208:180,1,70
180,232,62245,2,0,L|208:168,2,70
204,300,62667,2,0,P|264:308|340:264,2,140
112,52,64216,22,0,B|40:52,2,70
184,52,64776,1,0,0:0:0:0:
224,52,64916,1,0,0:0:0:0:
320,48,65197,1,0,0:0:0:0:
412,48,65477,1,0,0:0:0:0:
452,48,65617,2,0,L|452:196,1,140
400,332,66458,6,0,B|471:331,2,70
328,332,67018,1,0,0:0:0:0:
288,332,67158,1,0,0:0:0:0:
192,336,67439,1,0,0:0:0:0:
100,336,67719,1,0,0:0:0:0:
60,336,67859,2,0,L|60:196,1,140
176,48,68421,6,0,L|320:48,1,140
336,336,68982,6,0,L|192:336,1,140
188,60,69543,6,0,B|256:72|256:72|332:60,1,140
324,300,70103,6,0,B|256:288|256:288|180:300,1,140
44,48,70944,6,0,L|116:48,1,70
180,48,71225,1,0,0:0:0:0:
316,48,71505,1,0,0:0:0:0:
248,48,71645,1,0,0:0:0:0:
388,48,71926,1,0,0:0:0:0:
452,48,72206,2,0,P|428:104|436:124,1,70
468,336,73187,6,0,L|396:336,1,70
332,336,73468,1,0,0:0:0:0:
196,336,73748,1,0,0:0:0:0:
264,336,73888,1,0,0:0:0:0:
124,336,74169,1,0,0:0:0:0:
60,336,74449,2,0,P|84:280|76:260,1,70
108,252,75150,6,0,P|72:192|112:132,1,140
396,248,75711,6,0,P|432:188|392:128,1,140
136,136,76272,6,0,L|136:280,1,140
368,136,76832,6,0,L|368:280,1,140
328,80,77393,5,0,0:0:0:0:
40,260,77814,2,0,L|120:244,1,70
456,176,78374,2,0,L|376:168,1,70
52,68,78935,2,0,L|136:84,1,70
184,304,79636,5,0,0:0:0:0:
472,124,80057,2,0,L|392:140,1,70
56,208,80617,2,0,L|136:216,1,70
460,316,81178,2,0,L|376:300,1,70
320,92,86365,6,0,B|308:140|308:140|256:156|252:220,1,140
324,208,86926,1,0,0:0:0:0:
148,232,87487,2,0,B|164:276|156:296|156:296|224:256,1,140
352,188,87907,2,0,P|320:208|304:248,1,70
292,304,88328,1,0,0:0:0:0:
224,116,88608,2,0,L|292:152,2,70
72,56,89169,2,0,B|37:111|76:164|76:164|76:212|76:212|58:230|38:272|75:321,2,280
52,44,90851,22,0,L|76:44,1,13.125000500679
176,44,91272,2,0,L|112:44,1,52.5000020027161
252,44,91832,2,0,L|200:44,2,52.5000020027161
312,44,92253,2,0,L|364:44,1,52.5000020027161
440,44,92533,2,0,B|460:84|436:116|436:116|436:144,1,105.000004005432
460,340,93094,6,0,L|436:340,1,13.125000500679
336,340,93515,2,0,L|400:340,1,52.5000020027161
259,340,94075,2,0,L|312:340,2,52.5000020027161
200,340,94496,2,0,L|148:340,1,52.5000020027161
72,340,94776,2,0,B|52:300|76:268|76:268|76:240,1,105.000004005432
44,44,95337,6,0,L|152:44,1,105.000004005432
212,44,95758,1,0,0:0:0:0:
144,44,95898,1,0,0:0:0:0:
204,44,96178,2,0,L|312:44,1,105.000004005432
304,44,96739,1,0,0:0:0:0:
240,44,96879,1,0,0:0:0:0:
372,44,97019,2,0,P|408:52|440:112,1,105.000004005432
468,340,97580,6,0,L|360:340,1,105.000004005432
300,340,98001,1,0,0:0:0:0:
368,340,98141,1,0,0:0:0:0:
308,340,98421,2,0,L|200:340,1,105.000004005432
208,340,98982,1,0,0:0:0:0:
272,340,99122,1,0,0:0:0:0:
140,340,99262,2,0,P|104:332|72:272,1,105.000004005432
52,48,99823,6,0,L|72:48,1,13.125000500679
128,48,100244,2,0,B|156:64|184:44|184:44,1,52.5000020027161
368,48,100804,1,0,0:0:0:0:
268,48,100944,2,0,L|320:48,1,52.5000020027161
192,48,101225,2,0,L|252:48,1,52.5000020027161
388,48,101505,2,0,B|440:48|440:48|440:104,1,105.000004005432
460,336,102066,6,0,L|440:336,1,13.125000500679
384,336,102487,2,0,B|356:320|328:340|328:340,1,52.5000020027161
144,336,103047,1,0,0:0:0:0:
244,336,103187,2,0,L|192:336,1,52.5000020027161
320,336,103468,2,0,L|260:336,1,52.5000020027161
124,336,103748,2,0,B|72:336|72:336|72:280,1,105.000004005432
48,44,104309,5,0,0:0:0:0:
196,44,104589,1,0,0:0:0:0:
132,44,104730,1,0,0:0:0:0:
268,44,104870,1,0,0:0:0:0:
336,44,105150,2,0,B|376:44|376:44|376:120|376:120|352:120,1,140
272,116,105711,1,0,0:0:0:0:
208,116,105851,1,0,0:0:0:0:
144,116,105991,1,0,0:0:0:0:
464,340,106552,5,0,0:0:0:0:
316,340,106832,1,0,0:0:0:0:
380,340,106973,1,0,0:0:0:0:
244,340,107113,1,0,0:0:0:0:
176,340,107393,2,0,B|136:340|136:340|136:264|136:264|160:264,1,140
240,268,107954,1,0,0:0:0:0:
304,268,108094,1,0,0:0:0:0:
368,268,108234,1,0,0:0:0:0:
256,64,108795,5,0,0:0:0:0:
280,220,109075,1,0,0:0:0:0:
228,164,109216,1,0,0:0:0:0:
384,236,109356,1,0,0:0:0:0:
256,64,109916,5,0,0:0:0:0:
232,220,110196,1,0,0:0:0:0:
284,164,110337,1,0,0:0:0:0:
128,236,110477,1,0,0:0:0:0:
168,192,111038,5,0,0:0:0:0:
248,248,111318,2,0,L|276:184,2,70
136,248,111879,2,0,B|180:248|188:192,1,70
320,324,112299,2,0,B|300:248|360:196,1,140
342,136,112720,2,0,L|412:136,2,70
124,160,113561,6,0,L|192:204,1,70
128,124,113841,2,0,L|248:200,1,140
364,128,114262,2,0,P|384:168|328:248,1,140
274,253,114822,2,0,L|328:208,3,70
256,192,115523,12,0,120115,0:0:0:0:
