osu file format v14

[General]
AudioFilename: audio.mp3
AudioLeadIn: 0
PreviewTime: 11662
Countdown: 0
SampleSet: Soft
StackLeniency: 0.7
Mode: 0
LetterboxInBreaks: 0
WidescreenStoryboard: 1

[Editor]
Bookmarks: 727,11719,22711,28207,39200,42864,72177,77673,83169,105154,108818,138131,149123,160115,171108,174772,178436,207749,210497,215993
DistanceSpacing: 1
BeatDivisor: 4
GridSize: 4
TimelineZoom: 1.6

[Metadata]
Title:That's What You Get
TitleUnicode:That's What You Get
Artist:Paramore
ArtistUnicode:Paramore
Creator:Myxomatosis
Version:Mao's Medium
Source:
Tags:Hayley Williams Riot! Pop Punk Mao
BeatmapID:1517403
BeatmapSetID:718375

[Difficulty]
HPDrainRate:4
CircleSize:4
OverallDifficulty:4
ApproachRate:5
SliderMultiplier:1.5
SliderTickRate:1

[Events]
//Background and Video events
0,0,"bg.jpg",0,0
//Break Periods
2,72377,76473
2,138331,147923
//Storyboard Layer 0 (Background)
//Storyboard Layer 1 (Fail)
//Storyboard Layer 2 (Pass)
//Storyboard Layer 3 (Foreground)
//Storyboard Sound Samples

[TimingPoints]
727,458.015267175573,6,2,0,80,1,0
11719,-100,6,2,0,70,0,0
22711,-100,6,2,0,80,0,0
28207,-100,6,2,0,70,0,0
39200,458.015267175573,4,2,0,60,1,0
39314,-100,4,2,0,5,0,0
41948,-100,4,2,0,80,0,0
42864,-86.9565217391304,4,2,0,80,0,1
63474,-86.9565217391304,4,2,1,80,0,1
63589,-86.9565217391304,4,2,0,80,0,1
72177,458.015267175573,6,2,0,80,1,0
83169,-100,6,2,0,70,0,0
105154,458.015267175573,4,2,0,60,1,0
105268,-100,4,2,0,5,0,0
106986,-100,4,2,0,80,0,0
108818,-86.9565217391304,4,2,0,80,0,1
129428,-86.9565217391304,4,2,1,80,0,1
129543,-86.9565217391304,4,2,0,80,0,1
138131,458.015267175573,6,2,0,70,1,0
160115,-100,6,2,0,80,0,0
171108,458.015267175573,4,2,0,60,1,0
171108,-86.9565217391304,4,2,0,60,0,0
174772,-100,4,2,0,40,0,0
175230,-100,4,2,0,50,0,0
175688,-100,4,2,0,60,0,0
176146,-100,4,2,0,70,0,0
176604,-100,4,2,0,80,0,0
178436,-80,4,2,0,80,0,1
199046,-80,4,2,1,80,0,1
199161,-80,4,2,0,80,0,1
207749,458.015267175573,6,2,0,80,1,0
210611,-100,6,2,0,5,0,0

[Colours]
Combo1 : 254,197,22
Combo2 : 244,92,28
Combo3 : 105,156,241
Combo4 : 251,45,132
SliderBorderColor : 255,255,255
SliderTrackOverride : 140,50,50

[HitObjects]
173,100,727,6,0,L|29:85,2,112.5,4|4|4,0:0|0:0|0:0,0:0:0:0:
213,164,1643,1,0,1:0:0:0:
339,100,2101,2,0,L|483:85,2,112.5,4|4|4,0:0|0:0|0:0,0:0:0:0:
299,164,3017,1,0,1:0:0:0:
179,254,3475,6,0,P|138:281|70:274,2,112.5,4|4|4,0:0|0:0|0:0,0:0:0:0:
204,183,4391,1,0,1:0:0:0:
333,254,4849,2,0,P|374:281|442:274,2,112.5,4|4|4,0:0|0:0|0:0,0:0:0:0:
308,183,5765,1,0,1:0:0:0:
400,45,6223,6,0,L|523:62,2,112.5,4|4|4,0:0|0:0|0:0,0:0:0:0:
326,31,7139,1,0,1:0:0:0:
201,114,7597,2,0,L|78:97,2,112.5,4|4|4,0:0|0:0|0:0,0:0:0:0:
275,128,8513,1,0,1:0:0:0:
354,255,8971,6,0,P|367:301|341:374,2,112.5,4|4|4,0:0|0:0|0:0,0:0:0:0:
303,199,9887,1,0,1:0:0:0:
158,255,10345,2,0,P|145:301|171:374,2,112.5,4|4|4,0:0|0:0|0:0,0:0:0:0:
209,199,11261,1,0,1:0:0:0:
176,52,11719,6,0,L|95:58,1,75,4|0,0:1|0:0,0:0:0:0:
36,20,12177,2,0,P|24:68|103:134,1,150,2|0,0:0|1:0,0:0:0:0:
231,180,13093,1,0,0:0:0:0:
284,39,13551,2,0,L|361:46,1,75,2|0,0:0|0:0,0:0:0:0:
396,110,14009,2,0,L|473:117,1,75,0|0,1:0|0:0,0:0:0:0:
503,184,14467,6,0,P|506:219|487:262,1,75,2|0,0:0|0:0,0:0:0:0:
438,308,14925,2,2,B|395:323|371:284|372:281|374:278|350:239|308:255,1,150,2|0,0:0|1:0,0:0:0:0:
254,305,15612,1,2,0:0:0:0:
203,359,15841,2,0,P|156:346|139:327,1,75,2|0,0:0|0:0,0:0:0:0:
144,252,16299,2,2,B|101:236|77:275|78:278|80:281|56:320|14:304,1,150,2|0,0:0|1:0,0:0:0:0:
65,163,17215,6,0,L|52:85,1,75,4|0,0:0|0:0,0:0:0:0:
10,27,17673,2,0,P|50:13|127:82,1,150,2|0,0:0|1:0,0:0:0:0:
158,221,18589,1,0,0:0:0:0:
290,149,19047,2,0,L|284:234,1,75,2|0,0:0|0:0,0:0:0:0:
351,257,19505,2,0,L|345:342,1,75,0|0,1:0|0:0,0:0:0:0:
408,373,19963,6,0,P|459:372|488:344,1,75,2|0,0:0|0:0,0:0:0:0:
429,301,20421,2,2,B|413:258|452:234|455:235|458:237|497:213|481:171,1,150,2|0,0:0|1:0,0:0:0:0:
440,110,21108,1,2,0:0:0:0:
365,120,21337,2,0,L|228:131,2,112.5,2|2|2,0:0|0:0|0:0,0:0:0:0:
408,181,22253,1,0,1:0:0:0:
348,318,22711,6,0,P|388:317|444:264,2,112.5,4|4|4,0:0|0:0|0:0,0:0:0:0:
299,261,23627,1,0,1:0:0:0:
164,318,24085,2,0,P|124:317|68:264,2,112.5,4|4|4,0:0|0:0|0:0,0:0:0:0:
213,261,25001,1,0,1:0:0:0:
147,126,25459,6,0,L|15:138,2,112.5,4|4|4,0:0|0:0|0:0,0:0:0:0:
221,115,26375,1,0,1:0:0:0:
359,172,26833,2,0,L|491:160,2,112.5,4|4|4,0:0|0:0|0:0,0:0:0:0:
285,183,27749,1,0,1:0:0:0:
233,323,28207,6,0,L|149:313,1,75,4|0,0:1|0:0,0:0:0:0:
111,372,28665,2,0,P|85:335|124:247,1,150,2|0,1:2|0:0,0:0:0:0:
266,204,29581,1,0,1:0:0:0:
311,346,30039,2,0,L|395:336,1,75,2|0,0:0|0:0,0:0:0:0:
417,269,30497,2,0,L|501:259,1,75,2|0,1:2|0:0,0:0:0:0:
510,187,30956,6,0,P|490:148|459:131,1,75,2|0,0:0|0:0,0:0:0:0:
469,57,31414,2,2,B|426:42|402:81|403:84|405:87|381:126|339:110,1,150,2|0,1:2|0:0,0:0:0:0:
284,61,32101,1,2,0:0:0:0:
233,116,32330,2,0,P|226:165|235:194,1,75,2|0,1:2|0:0,0:0:0:0:
236,263,32788,2,2,B|193:278|169:239|170:236|172:233|148:194|106:210,1,150,2|0,0:0|1:0,0:0:0:0:
47,71,33704,6,0,L|128:60,1,75,4|0,0:0|0:0,0:0:0:0:
177,11,34162,2,0,P|196:47|134:135,1,150,2|0,1:2|0:0,0:0:0:0:
30,228,35078,1,0,1:0:0:0:
110,354,35536,2,0,L|191:346,1,75,2|0,0:0|0:0,0:0:0:0:
222,281,35994,2,0,L|303:273,1,75,2|0,1:2|0:0,0:0:0:0:
327,205,36452,6,0,P|313:161|319:126,1,75,2|0,0:0|0:0,0:0:0:0:
333,59,36910,2,2,B|368:82|400:50|399:46|398:43|430:10|469:35,1,150,2|0,1:2|0:0,0:0:0:0:
444,105,37597,1,2,0:0:0:0:
489,164,37826,2,0,P|498:216|455:272,2,112.5,2|2|2,1:2|0:0|0:0,0:0:0:0:
424,202,38742,1,0,1:0:0:0:
324,90,39200,5,4,0:0:0:0:
256,192,39314,12,0,41948,1:0:0:0:
67,194,42864,6,0,P|110:251|216:224,1,172.500003290176,4|0,0:1|1:0,0:0:0:0:
256,172,43551,1,2,0:0:0:0:
309,239,43780,2,0,P|390:255|445:194,1,172.500003290176,4|0,0:0|1:0,0:0:0:0:
448,107,44467,1,2,0:0:0:0:
375,60,44696,6,0,B|321:75|321:75|268:46|268:46|214:60,1,172.500003290176,4|0,0:0|1:0,0:0:0:0:
136,24,45383,2,0,P|84:80|136:176,1,172.500003290176,4|2,0:0|0:0,0:0:0:0:
197,177,46070,2,0,B|251:163|251:163|304:192|304:192|358:177,1,172.500003290176,0|0,1:0|0:0,0:0:0:0:
480,308,46986,6,0,P|448:352|320:328,1,172.500003290176,4|0,1:2|0:0,0:0:0:0:
292,276,47673,2,0,P|256:256|220:276,1,86.2500016450882,6|0,0:0|1:0,0:0:0:0:
172,349,48131,1,2,0:0:0:0:
94,311,48360,6,0,B|60:271|92:231|95:231|98:231|129:189|95:151,1,172.500003290176,4|0,0:0|1:0,0:0:0:0:
17,114,49047,2,0,P|52:78|167:101,1,172.500003290176,6|2,0:0|0:0,0:0:0:0:
196,175,49734,1,4,1:0:0:0:
330,67,50192,6,0,P|385:58|473:142,1,172.500003290176,4|0,0:1|1:0,0:0:0:0:
412,192,50879,1,2,0:0:0:0:
469,256,51108,2,0,P|413:318|330:317,1,172.500003290176,4|0,0:0|1:0,0:0:0:0:
267,258,51795,1,2,0:0:0:0:
203,316,52024,6,0,B|149:302|149:302|96:331|96:331|42:316,1,172.500003290176,4|0,0:0|1:0,0:0:0:0:
84,240,52711,2,0,P|142:192|84:144,1,172.500003290176,4|2,0:0|0:0,0:0:0:0:
42,68,53398,2,0,B|96:53|96:53|149:82|149:82|203:68,1,172.500003290176,0|0,1:0|0:0,0:0:0:0:
365,10,54314,6,0,P|400:78|371:166,1,172.500003290176,4|0,1:2|0:0,0:0:0:0:
296,204,55001,2,0,P|256:188|216:204,1,86.2500016450882,6|0,0:0|1:0,0:0:0:0:
178,279,55459,1,2,0:0:0:0:
256,315,55688,6,0,B|304:334|332:291|331:288|330:286|360:243|406:264,1,172.500003290176,4|0,0:0|1:0,0:0:0:0:
435,345,56375,2,0,P|479:312|462:199,1,172.500003290176,6|0,0:0|1:0,0:0:0:0:
389,171,57062,1,0,1:0:0:0:
458,119,57291,1,2,0:0:0:0:
378,85,57520,5,4,0:1:0:0:
319,247,57978,1,4,1:2:0:0:
256,86,58436,1,4,0:1:0:0:
193,247,58894,1,4,1:2:0:0:
134,85,59352,6,0,P|84:67|6:145,1,172.500003290176,4|0,0:1|1:0,0:0:0:0:
75,192,60039,1,2,0:0:0:0:
6,243,60268,2,0,P|52:310|134:299,1,172.500003290176,4|0,0:2|1:0,0:0:0:0:
206,252,60955,1,2,0:0:0:0:
256,320,61184,5,4,0:1:0:0:
169,170,61642,1,4,1:2:0:0:
343,170,62100,1,4,0:1:0:0:
256,20,62558,2,0,P|219:52|178:59,1,86.2500016450882,4|0,1:2|0:0,0:0:0:0:
104,24,63016,6,0,B|52:80|100:142|104:142|109:142|157:203|107:262,1,258.750004935265,4|0,0:1|0:0,0:0:0:0:
32,305,63932,2,0,P|21:261|33:219,2,86.2500016450882,0|0|0,0:0|0:0|1:0,0:0:0:0:
194,362,64848,6,0,P|276:344|301:262,1,172.500003290176,4|0,0:1|1:0,0:0:0:0:
256,192,65535,1,2,0:0:0:0:
209,116,65764,2,0,P|237:38|318:22,1,172.500003290176,4|0,0:0|1:0,0:0:0:0:
404,40,66451,1,2,0:0:0:0:
345,103,66680,6,0,B|331:157|331:157|360:210|360:210|345:264,1,172.500003290176,4|0,0:0|1:0,0:0:0:0:
368,347,67367,2,0,P|410:369|496:289,1,172.500003290176,4|2,0:0|0:0,0:0:0:0:
484,214,68054,2,0,B|499:160|499:160|470:107|470:107|484:53,1,172.500003290176,0|0,1:0|0:0,0:0:0:0:
315,18,68970,6,0,P|352:64|338:178,1,172.500003290176,4|0,1:0|0:0,0:0:0:0:
292,244,69658,2,0,P|256:224|220:244,1,86.2500016450882,6|0,0:0|1:0,0:0:0:0:
256,322,70116,1,2,0:0:0:0:
183,369,70345,6,0,P|114:377|49:281,1,172.500003290176,4|0,0:1|1:0,0:0:0:0:
79,224,71032,2,0,B|98:176|55:148|52:149|50:150|7:120|28:74,1,172.500003290176,6|0,0:0|1:0,0:0:0:0:
86,9,71719,2,0,L|194:32,1,86.2500016450882,0|0,1:0|0:0,0:0:0:0:
199,106,72177,5,4,0:1:0:0:
179,95,77673,6,0,P|138:68|70:75,2,112.5,4|4|4,0:0|0:0|0:0,0:0:0:0:
204,166,78589,1,0,1:0:0:0:
333,95,79047,2,0,P|374:68|442:75,2,112.5,4|4|4,0:0|0:0|0:0,0:0:0:0:
308,166,79963,1,0,1:0:0:0:
162,201,80421,6,0,L|31:176,2,112.5,4|4|4,0:0|0:0|0:0,0:0:0:0:
234,219,81337,1,0,1:0:0:0:
305,350,81795,2,0,L|436:375,2,112.5,4|4|4,0:0|0:0|0:0,0:0:0:0:
233,332,82711,1,0,1:0:0:0:
286,279,82940,1,2,0:0:0:0:
214,257,83169,6,0,P|205:214|219:175,1,75,4|0,0:1|0:0,0:0:0:0:
279,150,83627,2,0,P|250:120|143:159,1,150,2|0,1:2|0:0,0:0:0:0:
63,259,84543,1,0,1:0:0:0:
1,122,85001,2,0,L|-5:44,1,75,2|0,0:0|0:0,0:0:0:0:
67,26,85459,2,0,L|73:104,1,75,2|0,1:2|0:0,0:0:0:0:
61,174,85917,6,0,P|98:172|132:145,1,75,2|0,0:0|0:0,0:0:0:0:
169,88,86375,2,2,B|212:72|236:111|235:114|233:117|257:156|299:140,1,150,2|0,1:2|0:0,0:0:0:0:
368,163,87062,1,2,0:0:0:0:
355,89,87291,2,0,P|356:51|382:22,1,75,2|0,1:2|0:0,0:0:0:0:
456,20,87749,2,2,B|440:63|479:87|482:86|485:84|524:108|508:150,1,150,2|0,0:0|1:0,0:0:0:0:
495,297,88665,6,0,L|412:311,1,75,4|0,0:0|0:0,0:0:0:0:
370,364,89123,2,0,P|346:323|395:240,1,150,2|0,1:2|0:0,0:0:0:0:
493,131,90039,1,0,1:0:0:0:
362,56,90497,2,0,L|351:140,1,75,2|0,0:0|0:0,0:0:0:0:
278,141,90955,2,0,L|289:57,1,75,2|0,1:2|0:0,0:0:0:0:
223,27,91413,6,0,P|183:20|131:44,1,75,2|0,0:0|0:0,0:0:0:0:
112,94,91871,2,2,B|96:137|135:161|138:160|141:158|180:182|164:224,1,150,2|0,1:2|0:0,0:0:0:0:
144,293,92558,1,2,0:0:0:0:
98,352,92787,2,0,P|57:345|36:311,1,75,2|0,1:2|0:0,0:0:0:0:
60,248,93245,2,2,B|75:208|36:184|33:186|30:187|-8:163|7:120,1,150,2|0,0:0|1:0,0:0:0:0:
135,42,94161,6,0,L|225:58,1,75,4|0,0:1|0:0,0:0:0:0:
278,27,94619,2,2,P|283:74|205:131,1,150,2|0,1:2|0:1,0:1:0:0:
116,249,95535,1,0,1:0:0:0:
210,365,95993,2,0,L|294:374,1,75,2|0,0:0|0:0,0:0:0:0:
315,304,96451,2,0,L|231:295,1,75,2|0,1:2|0:0,0:0:0:0:
200,232,96909,6,0,P|236:207|279:212,1,75,2|0,0:0|0:0,0:0:0:0:
338,227,97367,2,2,B|381:243|405:204|404:201|402:198|426:159|468:175,1,150,2|0,1:2|0:0,0:0:0:0:
496,242,98054,1,2,0:0:0:0:
479,315,98283,2,0,P|441:339|407:334,1,75,2|0,1:2|0:0,0:0:0:0:
340,314,98741,2,0,P|303:313|273:335,2,75,2|0|2,0:0|0:0|1:2,0:0:0:0:
410,181,99657,6,0,L|419:87,1,75,4|0,0:0|0:0,0:0:0:0:
387,37,100115,2,0,P|427:31|461:44,2,75,2|0|2,1:2|0:0|0:0,0:0:0:0:
274,136,101031,1,0,1:0:0:0:
160,37,101489,2,0,L|64:50,1,75,2|0,0:0|0:0,0:0:0:0:
79,121,101947,2,0,L|175:108,1,75,2|0,1:2|0:0,0:0:0:0:
203,167,102406,6,0,P|207:216|188:253,1,75,2|0,0:0|0:0,0:0:0:0:
192,314,102864,2,2,B|235:330|259:291|258:288|256:285|280:246|322:262,1,150,2|0,1:2|0:0,0:0:0:0:
379,306,103551,1,2,0:0:0:0:
424,246,103780,2,0,P|447:205|431:139,2,112.5,2|2|2,1:2|0:0|0:0,0:0:0:0:
373,190,104696,1,0,1:0:0:0:
455,64,105154,5,4,0:0:0:0:
256,192,105268,12,0,106986,1:0:0:0:
168,72,107673,6,0,P|256:12|344:72,1,225,0|0,1:0|1:0,0:0:0:0:
445,194,108818,6,0,P|402:251|296:224,1,172.500003290176,4|0,0:1|1:0,0:0:0:0:
256,172,109505,1,2,0:0:0:0:
203,239,109734,2,0,P|122:255|67:194,1,172.500003290176,4|0,0:0|1:0,0:0:0:0:
64,107,110421,1,2,0:0:0:0:
137,60,110650,6,0,B|191:75|191:75|244:46|244:46|298:60,1,172.500003290176,4|0,0:0|1:0,0:0:0:0:
376,24,111337,2,0,P|428:80|376:176,1,172.500003290176,4|2,0:0|0:0,0:0:0:0:
315,177,112024,2,0,B|261:163|261:163|208:192|208:192|154:177,1,172.500003290176,0|0,1:0|0:0,0:0:0:0:
32,308,112940,6,0,P|64:352|192:328,1,172.500003290176,4|0,1:2|0:0,0:0:0:0:
220,276,113627,2,0,P|256:256|292:276,1,86.2500016450882,6|0,0:0|1:0,0:0:0:0:
340,349,114085,1,2,0:0:0:0:
418,311,114314,6,0,B|452:271|420:231|417:231|414:231|383:189|417:151,1,172.500003290176,4|0,0:0|1:0,0:0:0:0:
495,114,115001,2,0,P|460:78|345:101,1,172.500003290176,6|2,0:0|0:0,0:0:0:0:
316,175,115688,1,4,1:0:0:0:
182,67,116146,6,0,P|127:58|39:142,1,172.500003290176,4|0,0:1|1:0,0:0:0:0:
100,192,116833,1,2,0:0:0:0:
43,256,117062,2,0,P|99:318|182:317,1,172.500003290176,4|0,0:0|1:0,0:0:0:0:
245,258,117749,1,2,0:0:0:0:
309,316,117978,6,0,B|363:302|363:302|416:331|416:331|470:316,1,172.500003290176,4|0,0:0|1:0,0:0:0:0:
428,240,118665,2,0,P|370:192|428:144,1,172.500003290176,4|2,0:0|0:0,0:0:0:0:
470,68,119352,2,0,B|416:53|416:53|363:82|363:82|309:68,1,172.500003290176,0|0,1:0|0:0,0:0:0:0:
147,10,120268,6,0,P|112:78|141:166,1,172.500003290176,4|0,1:2|0:0,0:0:0:0:
216,204,120955,2,0,P|256:188|296:204,1,86.2500016450882,6|0,0:0|1:0,0:0:0:0:
334,279,121413,1,2,0:0:0:0:
256,315,121642,6,0,B|208:334|180:291|181:288|182:286|152:243|106:264,1,172.500003290176,4|0,0:0|1:0,0:0:0:0:
77,345,122329,2,0,P|33:312|50:199,1,172.500003290176,6|0,0:0|1:0,0:0:0:0:
123,171,123016,1,0,1:0:0:0:
54,119,123245,1,2,0:0:0:0:
134,85,123474,5,4,0:1:0:0:
193,247,123932,1,4,1:2:0:0:
256,86,124390,1,4,0:1:0:0:
319,247,124848,1,4,1:2:0:0:
378,85,125306,6,0,P|428:67|506:145,1,172.500003290176,4|0,0:1|1:0,0:0:0:0:
437,192,125993,1,2,0:0:0:0:
506,243,126222,2,0,P|460:310|378:299,1,172.500003290176,4|0,0:2|1:0,0:0:0:0:
306,252,126909,1,2,0:0:0:0:
256,320,127138,5,4,0:1:0:0:
343,170,127596,1,4,1:2:0:0:
169,170,128054,1,4,0:1:0:0:
256,20,128512,2,0,P|293:52|334:59,1,86.2500016450882,4|0,1:2|0:0,0:0:0:0:
408,24,128970,6,0,B|442:61|410:103|408:103|404:103|372:143|405:183,1,172.500003290176,4|0,0:1|1:0,0:0:0:0:
418,268,129657,1,0,0:0:0:0:
493,301,129886,2,0,P|499:257|481:215,2,86.2500016450882,2|0|2,0:0|0:0|1:2,0:0:0:0:
318,362,130802,6,0,P|236:344|211:262,1,172.500003290176,4|0,0:1|1:0,0:0:0:0:
256,192,131489,1,2,0:0:0:0:
303,116,131718,2,0,P|275:38|194:22,1,172.500003290176,4|0,0:0|1:0,0:0:0:0:
108,40,132405,1,2,0:0:0:0:
167,103,132634,6,0,B|181:157|181:157|152:210|152:210|167:264,1,172.500003290176,4|0,0:0|1:0,0:0:0:0:
144,347,133321,2,0,P|102:369|16:289,1,172.500003290176,4|2,0:0|0:0,0:0:0:0:
28,214,134008,2,0,B|13:160|13:160|42:107|42:107|28:53,1,172.500003290176,0|0,1:0|0:0,0:0:0:0:
197,18,134924,6,0,P|160:64|174:178,1,172.500003290176,4|0,1:0|0:0,0:0:0:0:
220,244,135612,2,0,P|256:224|292:244,1,86.2500016450882,6|0,0:0|1:0,0:0:0:0:
256,322,136070,1,2,0:0:0:0:
329,369,136299,6,0,P|398:377|463:281,1,172.500003290176,4|0,0:1|1:0,0:0:0:0:
433,224,136986,2,0,B|414:176|457:148|460:149|462:150|505:120|484:74,1,172.500003290176,6|2,0:0|0:0,0:0:0:0:
426,9,137673,1,0,1:0:0:0:
310,103,138131,5,4,0:1:0:0:
219,56,149123,6,0,L|100:50,2,112.5,4|8|8,0:0|0:3|0:3,0:0:0:0:
293,61,150039,1,0,0:0:0:0:
239,200,150497,2,0,P|206:225|168:229,1,75,2|0,0:0|0:0,0:0:0:0:
99,216,150955,1,2,0:0:0:0:
166,349,151413,1,2,0:0:0:0:
307,297,151871,6,0,L|426:291,2,112.5,2|8|8,0:0|0:3|0:3,0:0:0:0:
233,302,152787,1,0,0:0:0:0:
145,180,153245,2,0,P|120:134|184:49,1,150,2|0,0:0|0:0,0:0:0:0:
194,123,153932,2,0,B|236:139|261:101|260:99|259:97|285:59|326:78,1,150,10|0,0:3|1:0,0:0:0:0:
394,106,154619,6,0,L|506:97,2,112.5,4|8|8,0:0|0:3|0:3,0:0:0:0:
335,152,155535,2,0,P|324:199|336:233,1,75,2|0,0:0|0:0,0:0:0:0:
399,254,155993,2,0,P|410:301|398:335,1,75,2|0,0:0|0:0,0:0:0:0:
343,370,156451,1,2,0:0:0:0:
193,359,156909,1,2,0:0:0:0:
237,215,157367,5,0,0:0:0:0:
87,199,157825,2,0,P|48:195|21:168,1,75,2|8,0:0|0:3,0:0:0:0:
80,123,158283,2,0,P|119:129|158:225,1,150,2|0,0:0|0:0,0:0:0:0:
256,334,159199,1,2,0:0:0:0:
326,201,159657,2,0,L|316:121,1,75,4|0,1:0|0:0,0:0:0:0:
362,66,160115,6,0,P|405:69|467:9,2,112.5,4|4|4,0:0|0:0|0:0,0:0:0:0:
297,28,161031,1,0,1:0:0:0:
150,66,161489,2,0,P|106:69|44:9,2,112.5,4|4|4,0:0|0:0|0:0,0:0:0:0:
215,28,162405,1,0,1:0:0:0:
153,164,162863,6,0,P|130:218|153:295,2,112.5,4|4|4,0:0|0:0|0:0,0:0:0:0:
213,119,163779,1,0,1:0:0:0:
359,164,164237,2,0,P|382:218|359:295,2,112.5,4|4|4,0:0|0:0|0:0,0:0:0:0:
299,119,165153,1,0,1:0:0:0:
178,208,165611,6,0,L|160:80,2,112.5,4|4|4,0:0|0:0|0:0,0:0:0:0:
191,281,166527,1,0,1:0:0:0:
334,236,166985,2,0,L|352:364,2,112.5,4|4|4,0:0|0:0|0:0,0:0:0:0:
321,163,167901,1,0,1:0:0:0:
407,40,168360,6,0,P|464:44|508:112,2,112.5,4|4|4,0:0|0:0|0:0,0:0:0:0:
333,54,169276,1,0,1:0:0:0:
247,177,169734,2,0,P|190:173|146:105,2,112.5,4|4|4,0:0|0:0|0:0,0:0:0:0:
321,163,170650,1,0,1:0:0:0:
449,278,171108,6,0,B|366:250|366:250|308:316,1,172.500003290176,4|0,0:0|1:0,0:0:0:0:
256,381,171795,1,0,0:0:0:0:
202,313,172024,2,0,B|146:250|146:250|63:278,1,172.500003290176,0|0,0:0|1:0,0:0:0:0:
13,207,172711,1,4,0:3:0:0:
60,136,172940,6,0,B|127:143|127:143|146:112|146:112|218:120,1,172.500003290176,4|0,0:3|1:0,0:0:0:0:
296,120,173627,2,0,B|365:112|365:112|384:143|384:143|452:136,1,172.500003290176,0|0,0:0|0:0,0:0:0:0:
471,219,174314,1,0,1:0:0:0:
406,360,174772,1,4,0:0:0:0:
256,380,175230,5,4,0:3:0:0:
310,256,175688,1,4,0:3:0:0:
190,186,176146,1,4,0:3:0:0:
337,41,176604,6,0,L|317:130,1,75,4|4,1:2|0:3,0:0:0:0:
248,135,177062,2,0,L|296:212,1,75,4|4,0:3|1:2,0:0:0:0:
252,263,177520,2,0,L|341:283,1,75,4|4,0:3|0:3,0:0:0:0:
345,351,177978,2,0,L|422:302,1,75,4|0,1:0|0:0,0:0:0:0:
434,220,178436,6,0,P|416:128|319:116,1,187.5,4|0,0:1|1:0,0:0:0:0:
256,161,179123,1,2,0:0:0:0:
177,109,179352,2,0,P|91:132|78:220,1,187.5,4|0,0:0|1:0,0:0:0:0:
108,308,180039,1,2,0:0:0:0:
192,349,180268,6,0,B|251:332|251:332|309:364|309:364|368:349,1,187.5,4|0,0:0|1:0,0:0:0:0:
457,322,180955,2,0,P|491:258|413:186,1,187.5,2|2,0:0|0:0,0:0:0:0:
328,209,181642,2,0,B|268:224|268:224|209:192|209:192|149:209,1,187.5,0|0,1:0|0:0,0:0:0:0:
14,101,182558,6,0,P|48:39|159:43,1,187.5,4|0,1:2|0:0,0:0:0:0:
219,105,183245,2,0,P|256:130|292:105,1,93.75,6|0,0:0|1:0,0:0:0:0:
358,39,183703,1,2,0:0:0:0:
447,66,183932,6,0,B|484:110|449:154|445:154|442:154|408:200|445:242,1,187.5,4|0,0:0|1:0,0:0:0:0:
510,306,184619,2,0,P|465:332|356:275,1,187.5,6|2,0:0|0:0,0:0:0:0:
331,184,185306,1,4,1:0:0:0:
191,308,185764,6,0,P|128:331|36:259,1,187.5,4|0,0:1|1:0,0:0:0:0:
96,192,186451,1,2,0:0:0:0:
37,118,186680,2,0,P|103:56|191:76,1,187.5,4|0,0:0|1:0,0:0:0:0:
256,143,187367,1,2,0:0:0:0:
304,62,187596,6,0,B|362:77|362:77|420:45|420:45|478:62,1,187.5,4|0,0:0|1:0,0:0:0:0:
440,151,188283,2,0,P|373:192|440:233,1,187.5,4|2,0:0|0:0,0:0:0:0:
478,322,188970,2,0,B|420:338|420:338|362:306|362:306|304:322,1,187.5,0|0,1:0|0:0,0:0:0:0:
126,382,189886,6,0,P|90:304|136:211,1,187.5,4|0,1:2|0:0,0:0:0:0:
215,179,190573,2,0,P|256:200|296:179,1,93.75,6|0,0:0|1:0,0:0:0:0:
339,97,191031,1,2,0:0:0:0:
256,53,191260,6,0,B|202:31|172:78|173:82|174:84|140:131|90:108,1,187.5,4|0,0:0|1:0,0:0:0:0:
65,19,191947,2,0,P|12:62|29:177,1,187.5,6|0,0:0|1:0,0:0:0:0:
111,203,192634,1,0,1:0:0:0:
43,268,192863,1,2,0:0:0:0:
132,297,193092,5,4,0:1:0:0:
195,120,193550,1,4,1:2:0:0:
256,300,194008,1,4,0:1:0:0:
317,120,194466,1,4,1:2:0:0:
380,297,194924,6,0,P|432:316|519:233,1,187.5,4|0,0:1|1:0,0:0:0:0:
435,192,195611,1,2,0:0:0:0:
512,148,195840,2,0,P|468:75|380:87,1,187.5,4|0,0:2|1:0,0:0:0:0:
300,136,196527,1,2,0:0:0:0:
256,52,196756,5,4,0:1:0:0:
349,214,197214,1,4,1:2:0:0:
163,214,197672,1,4,0:1:0:0:
256,376,198130,2,0,P|287:336|335:336,1,93.75,4|0,1:2|0:0,0:0:0:0:
415,364,198588,6,0,B|471:302|419:235|415:235|409:235|357:168|411:104,1,281.25,4|0,0:1|0:0,0:0:0:0:
497,66,199504,2,0,P|508:111|490:154,2,93.75,0|0|0,0:0|0:0|1:0,0:0:0:0:
319,17,200420,6,0,P|230:35|202:134,1,187.5,4|0,0:1|1:0,0:0:0:0:
256,192,201107,1,2,0:0:0:0:
313,265,201337,2,0,P|281:349|193:367,1,187.5,4|0,0:0|1:0,0:0:0:0:
102,345,202023,1,2,0:0:0:0:
166,277,202252,6,0,B|182:216|182:216|149:158|149:158|166:99,1,187.5,4|0,0:0|1:0,0:0:0:0:
130,15,202939,2,0,P|40:36|19:128,1,187.5,4|2,0:0|0:0,0:0:0:0:
61,201,203627,2,0,B|45:257|45:257|77:315|77:315|61:375,1,187.5,0|0,1:0|0:0,0:0:0:0:
256,365,204543,1,4,1:0:0:0:
321,238,205001,1,0,0:0:0:0:
197,138,205459,1,0,1:0:0:0:
332,24,205917,6,0,P|365:19|419:55,1,93.75,4|2,0:1|0:0,0:0:0:0:
495,97,206375,2,0,P|500:130|464:184,1,93.75,0|6,1:0|0:0,0:0:0:0:
422,260,206833,2,0,P|389:265|335:229,1,93.75,0|2,0:0|0:0,0:0:0:0:
258,187,207291,2,0,P|253:154|289:100,1,93.75,4|0,1:0|0:0,0:0:0:0:
369,64,207749,6,0,P|420:78|482:49,2,112.5,4|4|4,0:0|0:0|0:0,0:0:0:0:
300,34,208665,1,0,1:0:0:0:
143,64,209123,2,0,P|92:78|30:49,2,112.5,4|4|4,0:0|0:0|0:0,0:0:0:0:
212,34,210039,1,0,1:0:0:0:
256,177,210497,5,4,0:1:0:0:
256,192,210611,12,0,215993,0:0:0:0:
