osu file format v14

[General]
AudioFilename: audio.mp3
AudioLeadIn: 0
PreviewTime: 11662
Countdown: 0
SampleSet: Soft
StackLeniency: 0.7
Mode: 0
LetterboxInBreaks: 0
WidescreenStoryboard: 0

[Editor]
Bookmarks: 727,11719,22711,28207,39200,42864,72177,77673,83169,105154,108818,138131,160115,171108,174772,178436,207749,210497,215993
DistanceSpacing: 1.1
BeatDivisor: 4
GridSize: 8
TimelineZoom: 1

[Metadata]
Title:That's What You Get
TitleUnicode:That's What You Get
Artist:Paramore
ArtistUnicode:Paramore
Creator:Myxomatosis
Version:Easy
Source:
Tags:Hayley Williams Riot! Pop Punk Mao
BeatmapID:1517401
BeatmapSetID:718375

[Difficulty]
HPDrainRate:2
CircleSize:3
OverallDifficulty:2
ApproachRate:3
SliderMultiplier:1
SliderTickRate:1

[Events]
//Background and Video events
0,0,"bg.jpg",0,0
//Break Periods
2,72376,76233
2,138330,147683
//Storyboard Layer 0 (Background)
//Storyboard Layer 1 (Fail)
//Storyboard Layer 2 (Pass)
//Storyboard Layer 3 (Foreground)
//Storyboard Sound Samples

[TimingPoints]
727,458.015267175573,6,2,0,80,1,0
11719,-100,6,2,0,70,0,0
12635,-100,6,2,1,70,0,0
12749,-100,6,2,0,70,0,0
18131,-100,6,2,1,70,0,0
18246,-100,6,2,0,70,0,0
22711,-100,6,2,0,80,0,0
28207,-100,6,2,0,70,0,0
31414,-100,6,2,1,70,0,0
31528,-100,6,2,0,70,0,0
36910,-100,6,2,1,70,0,0
37024,-100,6,2,0,70,0,0
39200,458.015267175573,4,2,0,5,1,0
41948,-100,4,2,0,80,0,0
42864,-100,4,2,0,80,0,1
43322,-100,4,2,1,80,0,1
43436,-100,4,2,0,80,0,1
44238,-100,4,2,1,80,0,1
44352,-100,4,2,0,80,0,1
45154,-100,4,2,1,80,0,1
45268,-100,4,2,0,80,0,1
47902,-100,4,2,1,80,0,1
48016,-100,4,2,0,80,0,1
48818,-100,4,2,1,80,0,1
48932,-100,4,2,0,80,0,1
50650,-100,4,2,1,80,0,1
50764,-100,4,2,0,80,0,1
51566,-100,4,2,1,80,0,1
51680,-100,4,2,0,80,0,1
52482,-100,4,2,1,80,0,1
52596,-100,4,2,0,80,0,1
55230,-100,4,2,1,80,0,1
55345,-100,4,2,0,80,0,1
56146,-100,4,2,1,80,0,1
56261,-100,4,2,0,80,0,1
59810,-100,4,2,1,80,0,1
59925,-100,4,2,0,80,0,1
63474,-100,4,2,1,80,0,1
63589,-100,4,2,0,80,0,1
65306,-100,4,2,1,80,0,1
65421,-100,4,2,0,80,0,1
66222,-100,4,2,1,80,0,1
66337,-100,4,2,0,80,0,1
67138,-100,4,2,1,80,0,1
67253,-100,4,2,0,80,0,1
69887,-100,4,2,1,80,0,1
70001,-100,4,2,0,80,0,1
70803,-100,4,2,1,80,0,1
70917,-100,4,2,0,80,0,1
71719,-100,4,2,1,80,0,1
71833,-100,4,2,0,80,0,1
72177,458.015267175573,6,2,0,80,1,0
83169,-100,6,2,0,70,0,0
86375,-100,6,2,1,70,0,0
86489,-100,6,2,0,70,0,0
91871,-100,6,2,1,70,0,0
91986,-100,6,2,0,70,0,0
97367,-100,6,2,1,70,0,0
97482,-100,6,2,0,70,0,0
102864,-100,6,2,1,70,0,0
102978,-100,6,2,0,70,0,0
105154,458.015267175573,4,2,0,5,1,0
106986,-100,4,2,0,80,0,0
108818,-100,4,2,0,80,0,1
109276,-100,4,2,1,80,0,1
109390,-100,4,2,0,80,0,1
110192,-100,4,2,1,80,0,1
110306,-100,4,2,0,80,0,1
111108,-100,4,2,1,80,0,1
111222,-100,4,2,0,80,0,1
113856,-100,4,2,1,80,0,1
113970,-100,4,2,0,80,0,1
114772,-100,4,2,1,80,0,1
114886,-100,4,2,0,80,0,1
116604,-100,4,2,1,80,0,1
116718,-100,4,2,0,80,0,1
117520,-100,4,2,1,80,0,1
117634,-100,4,2,0,80,0,1
118436,-100,4,2,1,80,0,1
118550,-100,4,2,0,80,0,1
121184,-100,4,2,1,80,0,1
121299,-100,4,2,0,80,0,1
122100,-100,4,2,1,80,0,1
122215,-100,4,2,0,80,0,1
125764,-100,4,2,1,80,0,1
125879,-100,4,2,0,80,0,1
129428,-100,4,2,1,80,0,1
129543,-100,4,2,0,80,0,1
131260,-100,4,2,1,80,0,1
131375,-100,4,2,0,80,0,1
132176,-100,4,2,1,80,0,1
132291,-100,4,2,0,80,0,1
133092,-100,4,2,1,80,0,1
133207,-100,4,2,0,80,0,1
135841,-100,4,2,1,80,0,1
135955,-100,4,2,0,80,0,1
136757,-100,4,2,1,80,0,1
136871,-100,4,2,0,80,0,1
137673,-100,4,2,1,80,0,1
137787,-100,4,2,0,80,0,1
138131,458.015267175573,6,2,0,70,1,0
160115,-100,6,2,0,80,0,0
171108,458.015267175573,4,2,0,5,1,0
172940,-100,4,2,0,60,0,0
178436,-100,4,2,0,80,0,1
178894,-100,4,2,1,80,0,1
179008,-100,4,2,0,80,0,1
179810,-100,4,2,1,80,0,1
179924,-100,4,2,0,80,0,1
180726,-100,4,2,1,80,0,1
180840,-100,4,2,0,80,0,1
183474,-100,4,2,1,80,0,1
183588,-100,4,2,0,80,0,1
184390,-100,4,2,1,80,0,1
184504,-100,4,2,0,80,0,1
186222,-100,4,2,1,80,0,1
186337,-100,4,2,0,80,0,1
187138,-100,4,2,1,80,0,1
187253,-100,4,2,0,80,0,1
188054,-100,4,2,1,80,0,1
188169,-100,4,2,0,80,0,1
190802,-100,4,2,1,80,0,1
190917,-100,4,2,0,80,0,1
191718,-100,4,2,1,80,0,1
191833,-100,4,2,0,80,0,1
195382,-100,4,2,1,80,0,1
195497,-100,4,2,0,80,0,1
199046,-100,4,2,1,80,0,1
199161,-100,4,2,0,80,0,1
200878,-100,4,2,1,80,0,1
200993,-100,4,2,0,80,0,1
201795,-100,4,2,1,80,0,1
201909,-100,4,2,0,80,0,1
202711,-100,4,2,1,80,0,1
202825,-100,4,2,0,80,0,1
207749,458.015267175573,6,2,0,80,1,0
210726,-100,6,2,0,5,0,0

[Colours]
Combo1 : 254,197,22
Combo2 : 244,92,28
Combo3 : 105,156,241
Combo4 : 251,45,132
SliderBorderColor : 255,255,255
SliderTrackOverride : 140,50,50

[HitObjects]
12,320,727,6,0,B|88:320|88:320|128:348|128:348|216:348,1,200,4|0,0:0|1:0,0:0:0:0:
180,240,2101,2,0,P|255:184|331:239,1,200,4|0,0:0|1:0,0:0:0:0:
308,348,3475,2,0,B|384:348|384:348|424:320|424:320|500:320,1,200,4|0,0:0|1:0,0:0:0:0:
500,210,4849,2,0,P|444:190|424:107,1,150,4|0,0:0|0:0,0:0:0:0:
498,132,5765,1,0,1:0:0:0:
424,21,6223,6,0,B|348:21|348:21|308:49|308:49|232:49,1,200,4|0,0:0|1:0,0:0:0:0:
279,148,7597,2,0,B|203:148|203:148|163:120|163:120|87:120,1,200,4|0,0:0|1:0,0:0:0:0:
13,201,8971,2,0,P|7:285|103:336,1,200,4|0,0:0|1:0,0:0:0:0:
192,280,10345,2,0,P|256:247|320:280,1,150,4|0,0:0|0:0,0:0:0:0:
256,327,11261,1,0,1:0:0:0:
389,365,11719,5,4,0:1:0:0:
471,292,12177,2,2,L|471:85,1,200,2|0,0:0|0:0,0:0:0:0:
389,19,13551,1,2,0:0:0:0:
338,116,14009,1,0,1:0:0:0:
256,43,14467,2,0,P|170:39|130:135,1,200,2|0,0:0|1:0,0:0:0:0:
166,235,15841,2,0,P|133:323|39:324,1,200,2|0,0:0|1:0,0:0:0:0:
0,184,17215,5,4,0:0:0:0:
85,254,17673,2,2,B|186:273|154:327|255:349,1,200,2|0,0:0|0:0,0:0:0:0:
350,292,19047,1,2,0:0:0:0:
302,192,19505,1,0,1:0:0:0:
397,135,19963,2,0,P|415:81|304:22,1,200,2|0,0:0|1:0,0:0:0:0:
200,18,21337,2,0,P|111:42|115:135,1,200,2|0,0:0|1:0,0:0:0:0:
256,116,22711,6,0,B|316:160|316:160|316:212|316:212|376:256,1,200,4|0,0:0|1:0,0:0:0:0:
348,360,24085,2,0,B|296:360|296:360|256:332|256:332|216:360|216:360|160:360,1,200,4|0,0:0|1:0,0:0:0:0:
136,256,25459,2,0,B|196:212|196:212|196:160|196:160|256:116,1,200,4|0,0:0|1:0,0:0:0:0:
189,28,26833,2,0,P|133:7|64:58,1,150,4|0,0:0|0:0,0:0:0:0:
137,85,27749,1,0,1:0:0:0:
54,166,28207,5,4,0:1:0:0:
5,264,28665,2,2,B|108:276|80:333|183:343,1,200,2|0,1:2|1:0,0:0:0:0:
201,235,30039,1,2,0:0:0:0:
311,235,30497,1,0,1:0:0:0:
328,343,30956,2,0,B|431:333|403:276|507:264,1,200,2|0,0:0|0:0,0:0:0:0:
507,153,32330,2,0,P|454:146|420:17,1,200,2|0,1:2|1:0,0:0:0:0:
289,17,33704,5,4,0:0:0:0:
251,120,34162,2,2,L|50:120,1,200,2|0,1:2|1:0,0:0:0:0:
10,17,35536,1,2,0:0:0:0:
119,17,35994,1,0,1:0:0:0:
184,105,36452,2,0,P|187:197|98:221,1,200,2|0,0:0|0:0,0:0:0:0:
36,312,37826,2,0,P|130:340|224:312,1,200,2|0,1:2|1:0,0:0:0:0:
256,192,39200,12,0,41948,1:0:0:0:
51,294,42864,6,0,P|94:341|183:331,1,150,4|0,0:1|0:0,0:0:0:0:
192,258,43780,2,0,P|256:225|320:258,1,150,4|0,0:0|0:0,0:0:0:0:
336,336,44696,2,0,P|408:344|461:294,2,150,4|4|0,0:0|0:0|1:0,0:0:0:0:
256,245,46528,5,0,0:0:0:0:
176,156,46986,2,0,P|256:53|335:156,2,300,4|4|0,1:2|0:0|1:0,0:0:0:0:
51,233,50192,6,0,B|100:233|100:233|140:264|140:264|200:264,1,150,4|0,0:1|0:0,0:0:0:0:
181,342,51108,2,0,L|345:342,1,150,4|0,0:0|0:0,0:0:0:0:
321,264,52024,2,0,B|372:264|372:264|412:233|412:233|461:233,2,150,4|4|0,0:0|0:0|1:0,0:0:0:0:
344,144,53856,5,0,0:0:0:0:
256,56,54314,2,0,B|204:104|228:192|256:192|288:192|308:280|256:328,2,300,4|4|0,1:2|0:2|1:0,0:0:0:0:
112,28,57520,5,4,0:1:0:0:
52,132,57978,1,0,1:0:0:0:
156,192,58436,1,4,0:1:0:0:
52,252,58894,1,0,1:0:0:0:
112,355,59352,2,0,P|208:343|256:259,1,200,4|4,0:1|0:0,0:0:0:0:
400,28,61184,5,4,0:1:0:0:
460,132,61642,1,0,1:0:0:0:
460,252,62100,1,4,0:1:0:0:
356,192,62558,1,0,1:0:0:0:
256,259,63016,2,0,P|304:343|400:356,1,200,4|0,0:1|0:0,0:0:0:0:
464,116,64848,6,0,B|424:52|424:52|336:52,1,150,4|0,0:1|0:0,0:0:0:0:
320,125,65764,2,0,P|256:158|192:126,1,150,4|0,0:0|0:0,0:0:0:0:
162,52,66680,2,0,B|88:52|88:52|48:116,2,150,4|4|0,0:0|0:0|1:0,0:0:0:0:
256,128,68512,5,0,0:0:0:0:
152,184,68970,2,0,B|48:220|68:352|144:384|232:364|256:300|256:300|280:364|368:384|444:352|464:220|360:184,1,700,4|4,1:2|0:1,0:0:0:0:
60,135,77673,6,0,B|102:44|102:44|202:44,1,200,4|0,0:0|1:0,0:0:0:0:
181,152,79047,2,0,P|256:208|332:153,1,200,4|0,0:0|1:0,0:0:0:0:
309,44,80421,2,0,B|409:44|409:44|451:134,1,200,4|0,0:0|1:0,0:0:0:0:
403,233,81795,2,0,P|344:222|285:284,1,150,4|0,0:0|0:0,0:0:0:0:
362,299,82711,1,0,1:0:0:0:
256,384,83169,5,4,0:1:0:0:
161,328,83627,2,2,P|97:351|12:247,1,200,2|0,1:2|1:0,0:0:0:0:
95,197,85001,1,2,0:0:0:0:
22,113,85459,1,0,1:0:0:0:
112,46,85917,2,0,B|190:91|155:154|232:199,1,200,2|0,0:0|0:0,0:0:0:0:
280,100,87291,2,0,B|357:145|322:208|400:253,1,200,2|0,1:2|1:0,0:0:0:0:
282,295,88665,5,4,0:0:0:0:
378,347,89123,2,2,P|457:333|491:221,1,200,2|0,1:2|1:0,0:0:0:0:
457,125,90497,1,2,0:0:0:0:
352,160,90955,1,0,1:0:0:0:
315,56,91413,2,0,L|106:56,1,200,2|0,0:0|0:0,0:0:0:0:
24,118,92787,2,0,P|68:186|182:155,1,200,2|0,1:2|1:0,0:0:0:0:
217,36,94161,5,4,0:0:0:0:
270,132,94619,2,2,B|271:208|271:208|234:244|234:244|234:316,1,200,2|0,1:2|1:0,0:1:0:0:
139,373,95993,1,2,0:0:0:0:
44,316,96451,1,0,1:0:0:0:
110,228,96909,2,0,B|80:122|27:176|-1:69,1,200,2|0,0:0|0:0,0:0:0:0:
107,49,98283,2,0,P|174:41|192:153,1,200,2|0,1:2|1:0,0:0:0:0:
110,228,99657,5,4,0:0:0:0:
28,302,100115,2,2,B|106:378|125:305|203:384,1,200,2|0,1:2|1:0,0:0:0:0:
296,325,101489,1,2,0:0:0:0:
216,248,101947,1,0,1:0:0:0:
309,189,102406,2,0,B|419:197|375:259|484:270,1,200,2|0,0:0|0:0,0:0:0:0:
484,160,103780,2,0,P|461:83|348:91,1,200,2|0,1:2|1:0,0:0:0:0:
256,192,105154,12,0,106986,1:0:0:0:
461,294,108818,6,0,P|418:341|329:331,1,150,4|0,0:1|0:0,0:0:0:0:
320,258,109734,2,0,P|256:225|192:258,1,150,4|0,0:0|0:0,0:0:0:0:
176,336,110650,2,0,P|104:344|51:294,2,150,4|4|0,0:0|0:0|1:0,0:0:0:0:
256,245,112482,5,0,0:0:0:0:
336,156,112940,2,0,P|256:53|177:156,2,300,4|4|0,1:2|0:0|1:0,0:0:0:0:
461,233,116146,6,0,B|412:233|412:233|372:264|372:264|312:264,1,150,4|0,0:1|0:0,0:0:0:0:
331,342,117062,2,0,L|167:342,1,150,4|0,0:0|0:0,0:0:0:0:
191,264,117978,2,0,B|140:264|140:264|100:233|100:233|51:233,2,150,4|4|0,0:0|0:0|1:0,0:0:0:0:
168,144,119810,5,0,0:0:0:0:
256,56,120268,2,0,B|308:104|284:192|256:192|224:192|204:280|256:328,2,300,4|4|0,1:2|0:2|1:0,0:0:0:0:
400,28,123474,5,4,0:1:0:0:
460,132,123932,1,0,1:0:0:0:
356,192,124390,1,4,0:1:0:0:
460,252,124848,1,0,1:0:0:0:
400,356,125306,2,0,P|305:344|257:260,1,200,4|4,0:1|0:0,0:0:0:0:
112,28,127138,5,4,0:1:0:0:
52,132,127596,1,0,1:0:0:0:
52,252,128054,1,4,0:1:0:0:
156,192,128512,1,0,1:0:0:0:
256,259,128970,2,0,P|208:343|112:356,1,200,4|0,0:1|0:0,0:0:0:0:
48,116,130802,6,0,B|88:52|88:52|176:52,1,150,4|0,0:1|0:0,0:0:0:0:
192,125,131718,2,0,P|256:158|320:126,1,150,4|0,0:0|0:0,0:0:0:0:
350,52,132634,2,0,B|424:52|424:52|464:116,2,150,4|4|0,0:0|0:0|1:0,0:0:0:0:
256,128,134466,5,0,0:0:0:0:
360,184,134924,2,0,B|464:220|444:352|368:384|280:364|256:300|256:300|232:364|144:384|68:352|48:220|152:184,1,700,4|4,1:2|0:1,0:0:0:0:
149,303,149123,6,0,P|88:276|90:149,1,200,4|0,0:0|0:0,0:0:0:0:
176,97,150497,1,2,0:0:0:0:
264,162,150955,2,0,L|275:271,1,100,2|0,0:0|0:0,0:0:0:0:
356,334,151871,2,0,P|417:307|415:180,1,200,2|0,0:0|0:0,0:0:0:0:
369,90,153245,2,0,P|391:39|486:25,2,150,2|8|4,0:0|0:3|0:0,0:0:0:0:
248,274,155535,5,2,0:0:0:0:
148,321,155993,2,0,L|33:315,1,100,2|0,0:0|0:0,0:0:0:0:
6,213,156909,2,0,P|39:143|156:154,1,200,2|0,0:0|0:0,0:0:0:0:
194,247,158283,2,0,L|311:254,2,100,2|0|2,0:0|0:0|0:0,0:0:0:0:
93,213,159657,1,4,1:0:0:0:
12,64,160115,6,0,B|88:64|88:64|128:36|128:36|216:36,1,200,4|0,0:0|1:0,0:0:0:0:
180,144,161489,2,0,P|255:200|331:145,1,200,4|0,0:0|1:0,0:0:0:0:
308,36,162863,2,0,B|384:36|384:36|424:64|424:64|500:64,1,200,4|0,0:0|1:0,0:0:0:0:
500,174,164237,2,0,P|444:194|424:277,1,150,4|0,0:0|0:0,0:0:0:0:
498,252,165153,1,0,1:0:0:0:
424,363,165611,6,0,B|348:363|348:363|308:335|308:335|232:335,1,200,4|0,0:0|1:0,0:0:0:0:
279,236,166985,2,0,B|203:236|203:236|163:264|163:264|87:264,1,200,4|0,0:0|1:0,0:0:0:0:
13,183,168359,2,0,P|7:99|103:48,1,200,4|0,0:0|1:0,0:0:0:0:
192,104,169733,2,0,P|256:137|320:104,1,150,4|0,0:0|0:0,0:0:0:0:
256,57,170649,1,0,1:0:0:0:
256,192,171108,12,0,172940,0:0:0:0:
416,198,174772,5,4,0:1:0:0:
320,258,175230,1,4,0:3:0:0:
256,167,175688,1,4,0:3:0:0:
192,258,176146,1,4,0:3:0:0:
100,194,176604,2,0,B|100:140|100:140|65:110|65:110|65:58,2,150,4|4|4,1:2|1:2|1:0,0:0:0:0:
51,294,178436,6,0,P|94:341|183:331,1,150,4|0,0:1|0:0,0:0:0:0:
192,258,179352,2,0,P|256:225|320:258,1,150,4|0,0:0|0:0,0:0:0:0:
336,336,180268,2,0,P|408:344|461:294,2,150,4|4|0,0:0|0:0|1:0,0:0:0:0:
256,245,182100,5,0,0:0:0:0:
176,156,182558,2,0,P|256:53|335:156,2,300,4|4|0,1:2|0:0|1:0,0:0:0:0:
51,233,185764,6,0,B|100:233|100:233|140:264|140:264|200:264,1,150,4|0,0:1|0:0,0:0:0:0:
181,342,186680,2,0,L|345:342,1,150,4|0,0:0|0:0,0:0:0:0:
321,264,187596,2,0,B|372:264|372:264|412:233|412:233|461:233,2,150,4|4|0,0:0|0:0|1:0,0:0:0:0:
344,144,189428,5,0,0:0:0:0:
256,56,189886,2,0,B|204:104|228:192|256:192|288:192|308:280|256:328,2,300,4|4|0,1:2|0:2|1:0,0:0:0:0:
112,28,193092,5,4,0:1:0:0:
52,132,193550,1,0,1:0:0:0:
156,192,194008,1,4,0:1:0:0:
52,252,194466,1,0,1:0:0:0:
112,356,194924,2,0,P|207:344|255:260,1,200,4|4,0:1|0:0,0:0:0:0:
400,28,196756,5,4,0:1:0:0:
460,132,197214,1,0,1:0:0:0:
460,252,197672,1,4,0:1:0:0:
356,192,198130,1,0,1:0:0:0:
256,259,198588,2,0,P|304:343|400:356,1,200,4|0,0:1|0:0,0:0:0:0:
464,116,200420,6,0,B|424:52|424:52|336:52,1,150,4|0,0:1|0:0,0:0:0:0:
320,125,201336,2,0,P|256:158|192:126,1,150,4|0,0:0|0:0,0:0:0:0:
162,52,202252,2,0,B|88:52|88:52|48:116,2,150,4|4|0,0:0|0:0|1:0,0:0:0:0:
139,169,204084,5,0,0:0:0:0:
81,272,204543,1,4,1:2:0:0:
161,360,205001,1,0,0:0:0:0:
270,310,205459,1,4,1:2:0:0:
256,192,205917,1,0,0:0:0:0:
242,74,206375,1,4,1:2:0:0:
351,24,206833,1,0,0:0:0:0:
431,112,207291,1,4,1:2:0:0:
373,215,207749,6,0,P|402:287|314:352,1,200,4|0,0:1|1:0,0:0:0:0:
195,352,209123,2,0,P|114:304|139:215,1,200,4|0,0:0|1:0,0:0:0:0:
256,248,210497,1,4,0:1:0:0:
256,192,210726,12,0,215993,0:0:0:0:
