osu file format v14

[General]
AudioFilename: audio.mp3
AudioLeadIn: 0
PreviewTime: 11662
Countdown: 0
SampleSet: Soft
StackLeniency: 0.7
Mode: 0
LetterboxInBreaks: 0
WidescreenStoryboard: 1

[Editor]
Bookmarks: 727,11719,22711,28207,39200,42864,72177,77673,83169,105154,108818,138131,149123,160115,171108,174772,178436,207749,210497,215993
DistanceSpacing: 1
BeatDivisor: 4
GridSize: 4
TimelineZoom: 1.6

[Metadata]
Title:That's What You Get
TitleUnicode:That's What You Get
Artist:Paramore
ArtistUnicode:Paramore
Creator:Myxomatosis
Version:Difficult
Source:
Tags:Hayley Williams Riot! Pop Punk Mao
BeatmapID:1517402
BeatmapSetID:718375

[Difficulty]
HPDrainRate:7
CircleSize:4
OverallDifficulty:7
ApproachRate:7.5
SliderMultiplier:2
SliderTickRate:2

[Events]
//Background and Video events
0,0,"bg.jpg",0,0
//Break Periods
2,72377,76848
2,138331,148298
//Storyboard Layer 0 (Background)
//Storyboard Layer 1 (Fail)
//Storyboard Layer 2 (Pass)
//Storyboard Layer 3 (Foreground)
//Storyboard Sound Samples

[TimingPoints]
727,458.015267175573,6,2,0,80,1,0
11719,-100,6,2,0,70,0,0
22711,-100,6,2,0,80,0,0
28207,-100,6,2,0,70,0,0
39200,458.015267175573,4,2,0,60,1,0
39314,-100,4,2,0,5,0,0
41948,-100,4,2,0,80,0,0
42864,-86.9565217391304,4,2,0,80,0,1
63474,-86.9565217391304,4,2,1,80,0,1
63589,-86.9565217391304,4,2,0,80,0,1
72177,458.015267175573,6,2,0,80,1,0
83169,-100,6,2,0,70,0,0
105154,458.015267175573,4,2,0,60,1,0
105268,-100,4,2,0,5,0,0
106986,-100,4,2,0,80,0,0
108818,-86.9565217391304,4,2,0,80,0,1
129428,-86.9565217391304,4,2,1,80,0,1
129543,-86.9565217391304,4,2,0,80,0,1
138131,458.015267175573,6,2,0,70,1,0
160115,-100,6,2,0,80,0,0
171108,458.015267175573,4,2,0,60,1,0
171108,-86.9565217391304,4,2,0,60,0,0
174772,-100,4,2,0,40,0,0
175230,-100,4,2,0,50,0,0
175688,-100,4,2,0,60,0,0
176146,-100,4,2,0,70,0,0
176604,-100,4,2,0,80,0,0
178436,-80,4,2,0,80,0,1
199046,-80,4,2,1,80,0,1
199161,-80,4,2,0,80,0,1
207749,458.015267175573,6,2,0,80,1,0
210611,-100,6,2,0,5,0,0

[Colours]
Combo1 : 254,197,22
Combo2 : 244,92,28
Combo3 : 105,156,241
Combo4 : 251,45,132
SliderBorderColor : 255,255,255
SliderTrackOverride : 140,50,50

[HitObjects]
189,46,727,6,0,P|130:89|59:73,2,150,4|4|4,0:0|0:0|0:0,0:0:0:0:
323,46,1643,1,0,1:0:0:0:
323,46,1757,1,0,1:0:0:0:
323,46,1872,1,0,1:0:0:0:
323,46,1986,1,0,1:0:0:0:
323,46,2101,2,0,P|382:89|453:73,2,150,4|4|4,0:0|0:0|0:0,0:0:0:0:
256,168,3017,1,0,1:0:0:0:
256,168,3131,1,0,1:0:0:0:
256,168,3246,1,0,1:0:0:0:
256,168,3360,1,0,1:0:0:0:
256,168,3475,6,0,B|244:216|244:216|268:260|268:260|256:308,2,150,4|4|4,0:0|0:0|0:0,0:0:0:0:
145,177,4391,1,0,1:0:0:0:
145,177,4505,1,0,1:0:0:0:
145,177,4620,1,0,1:0:0:0:
145,177,4734,1,0,1:0:0:0:
145,177,4849,1,4,0:0:0:0:
367,177,5192,1,4,0:0:0:0:
256,368,5536,1,4,0:0:0:0:
256,240,5765,1,0,1:0:0:0:
13,220,6223,6,0,B|64:273|64:273|63:353,2,150,4|4|4,0:0|0:0|0:0,0:0:0:0:
135,164,7139,1,0,1:0:0:0:
135,164,7253,1,0,1:0:0:0:
135,164,7368,1,0,1:0:0:0:
135,164,7482,1,0,1:0:0:0:
135,164,7597,2,0,B|84:111|84:111|85:31,2,150,4|4|4,0:0|0:0|0:0,0:0:0:0:
256,219,8513,1,0,1:0:0:0:
256,219,8627,1,0,1:0:0:0:
256,219,8742,1,0,1:0:0:0:
256,219,8856,1,0,1:0:0:0:
256,219,8971,6,0,B|268:267|268:267|244:311|244:311|256:359,2,150,4|4|4,0:0|0:0|0:0,0:0:0:0:
378,163,9887,1,0,1:0:0:0:
378,163,10001,1,0,1:0:0:0:
378,163,10116,1,0,1:0:0:0:
378,163,10230,1,0,1:0:0:0:
378,163,10345,1,4,0:0:0:0:
256,0,10688,1,4,0:0:0:0:
134,163,11032,1,4,0:0:0:0:
256,128,11261,1,0,1:0:0:0:
423,280,11719,6,0,P|356:262|297:313,1,150,4|0,0:1|0:0,0:0:0:0:
297,328,12177,2,0,L|197:352,1,100,2|0,0:0|0:0,0:0:0:0:
89,351,12635,2,0,B|70:279|70:279|91:235|91:235|72:157,1,200,0|0,1:0|0:0,0:0:0:0:
5,73,13322,1,2,0:0:0:0:
108,34,13551,1,2,0:0:0:0:
175,120,13780,1,0,0:0:0:0:
159,228,14009,1,0,1:0:0:0:
226,314,14238,1,0,0:0:0:0:
329,275,14467,5,2,0:0:0:0:
399,147,14696,1,0,0:0:0:0:
399,296,14925,2,2,B|419:240|368:209|364:210|360:212|309:181|330:125,1,200,2|0,0:0|1:0,0:0:0:0:
266,35,15612,1,2,0:0:0:0:
183,109,15841,1,2,0:0:0:0:
113,237,16070,1,0,0:0:0:0:
113,88,16299,2,2,B|92:143|143:174|147:173|151:171|202:202|181:258,1,200,2|0,0:0|1:0,0:0:0:0:
398,354,17215,6,0,B|406:304|406:304|447:278|447:278|456:222,1,150,4|0,0:0|0:0,0:0:0:0:
457,211,17673,2,0,P|416:186|406:139,1,100,2|0,0:0|0:0,0:0:0:0:
442,35,18131,2,0,L|239:35,1,200,0|0,1:0|0:0,0:0:0:0:
277,139,18818,1,2,0:0:0:0:
173,177,19047,1,2,0:0:0:0:
67,145,19276,1,0,0:0:0:0:
7,52,19505,1,0,1:0:0:0:
116,65,19734,1,0,0:0:0:0:
191,146,19963,5,2,0:0:0:0:
219,287,20192,1,0,0:0:0:0:
80,249,20421,2,2,B|106:195|164:211|165:215|167:219|224:235|252:182,1,200,2|0,0:0|1:0,0:0:0:0:
277,75,21108,1,2,0:0:0:0:
355,151,21337,1,2,0:0:0:0:
308,334,21681,1,2,0:0:0:0:
491,283,22025,1,2,0:0:0:0:
385,256,22253,1,0,1:0:0:0:
139,207,22711,6,0,B|81:159|81:159|2:178,2,150,4|4|4,0:0|0:0|0:0,0:0:0:0:
256,144,23627,1,0,1:0:0:0:
256,144,23742,1,0,1:0:0:0:
256,144,23856,1,0,1:0:0:0:
256,144,23971,1,0,1:0:0:0:
256,144,24085,2,0,B|244:96|244:96|268:52|268:52|256:4,2,150,4|4|4,0:0|0:0|0:0,0:0:0:0:
373,207,25001,1,0,1:0:0:0:
373,207,25116,1,0,1:0:0:0:
373,207,25230,1,0,1:0:0:0:
373,207,25345,1,0,1:0:0:0:
373,207,25459,6,0,B|431:159|431:159|510:178,2,150,4|4|4,0:0|0:0|0:0,0:0:0:0:
388,344,26375,1,0,1:0:0:0:
388,344,26490,1,0,1:0:0:0:
388,344,26604,1,0,1:0:0:0:
388,344,26719,1,0,1:0:0:0:
388,344,26833,1,4,0:0:0:0:
256,212,27177,1,4,0:0:0:0:
124,344,27520,1,4,0:0:0:0:
256,344,27749,1,0,1:0:0:0:
83,169,28207,6,0,P|37:135|52:44,1,150,4|0,0:1|0:0,0:0:0:0:
60,42,28665,2,0,L|162:67,1,100,2|0,1:2|0:0,0:0:0:0:
232,146,29123,2,0,B|213:215|213:215|168:248|168:248|149:321,1,200,0|0,0:0|1:0,0:0:0:0:
321,230,29925,1,0,0:0:0:0:
321,230,30039,1,2,0:0:0:0:
366,330,30268,1,0,0:0:0:0:
475,318,30497,1,2,1:2:0:0:
497,210,30727,1,0,0:0:0:0:
402,157,30956,5,2,0:0:0:0:
286,71,31185,1,0,0:0:0:0:
434,94,31414,2,2,B|381:65|342:111|343:115|344:118|305:164|253:134,1,200,2|0,1:2|0:0,0:0:0:0:
145,121,32101,1,2,0:0:0:0:
110,227,32330,1,2,1:2:0:0:
226,313,32559,1,0,0:0:0:0:
78,292,32788,2,2,B|130:320|169:274|168:270|167:267|206:221|258:251,1,200,2|0,0:0|1:0,0:0:0:0:
436,349,33704,6,0,B|442:297|442:297|479:268|479:268|485:218,1,150,4|0,0:0|0:0,0:0:0:0:
487,202,34162,2,0,L|384:189,1,100,2|0,1:2|0:0,0:0:0:0:
309,112,34620,2,0,P|354:54|463:85,1,200,0|0,0:0|1:0,0:0:0:0:
324,284,35421,1,0,0:0:0:0:
324,284,35536,1,2,0:0:0:0:
222,241,35765,1,0,0:0:0:0:
146,321,35994,1,2,1:2:0:0:
44,278,36223,1,0,0:0:0:0:
65,170,36452,5,2,0:0:0:0:
200,119,36681,1,0,0:0:0:0:
89,22,36910,2,2,B|60:74|106:113|109:112|113:111|159:150|130:203,1,200,2|0,1:2|0:0,0:0:0:0:
44,278,37597,1,2,0:0:0:0:
152,314,37826,1,2,1:2:0:0:
256,136,38169,1,2,0:0:0:0:
360,314,38513,1,2,0:0:0:0:
256,256,38742,1,0,1:0:0:0:
256,244,39200,5,4,0:0:0:0:
256,192,39314,12,0,41948,1:0:0:0:
101,182,42406,5,0,1:0:0:0:
101,182,42520,1,0,1:0:0:0:
101,182,42635,1,0,1:0:0:0:
101,182,42749,1,0,1:0:0:0:
101,182,42864,6,0,P|95:290|193:336,1,230.000004386902,4|0,0:1|1:0,0:0:0:0:
256,227,43551,1,2,0:0:0:0:
318,336,43780,2,0,P|416:290|411:182,1,230.000004386902,4|0,0:0|1:0,0:0:0:0:
305,112,44467,1,2,0:0:0:0:
467,51,44696,2,0,B|414:96|360:53|360:49|360:45|305:3|254:49,1,230.000004386902,4|0,0:0|1:0,0:0:0:0:
148,192,45383,2,0,B|220:212|220:212|292:172|292:172|364:192,1,230.000004386902,4|2,0:0|0:0,0:0:0:0:
257,334,46070,2,0,B|206:380|151:338|151:334|151:330|97:287|45:333,1,230.000004386902,0|0,1:0|0:0,0:0:0:0:
12,48,46986,5,4,1:2:0:0:
88,148,47215,1,2,0:0:0:0:
190,72,47444,1,0,0:0:0:0:
313,99,47673,1,6,0:0:0:0:
367,216,47902,1,0,1:0:0:0:
320,332,48131,1,2,0:0:0:0:
256,168,48360,1,4,0:0:0:0:
192,332,48589,1,2,0:0:0:0:
145,216,48818,1,0,1:0:0:0:
199,99,49047,1,6,0:0:0:0:
322,72,49276,1,0,0:0:0:0:
424,148,49505,1,2,0:0:0:0:
500,48,49734,1,4,1:0:0:0:
494,256,50192,6,0,B|424:274|424:274|394:348|394:348|309:371,1,230.000004386902,4|0,0:1|1:0,0:0:0:0:
256,259,50879,1,2,0:0:0:0:
192,369,51108,2,0,B|117:348|117:348|87:274|87:274|18:256,1,230.000004386902,4|0,0:0|1:0,0:0:0:0:
0,129,51795,1,2,0:0:0:0:
71,24,52024,2,0,B|103:9|147:30|154:75|154:75|169:210,1,230.000004386902,4|0,0:0|1:0,0:0:0:0:
152,332,52711,2,0,B|208:332|208:332|256:298|256:298|304:332|304:332|360:332,1,230.000004386902,4|2,0:0|0:0,0:0:0:0:
345,191,53398,2,0,B|358:75|358:75|365:30|409:9|441:24,1,230.000004386902,0|0,1:0|0:0,0:0:0:0:
485,256,54314,5,4,1:2:0:0:
385,336,54543,1,2,0:0:0:0:
278,266,54772,1,0,0:0:0:0:
312,143,55001,1,6,0:0:0:0:
183,75,55230,1,0,1:0:0:0:
347,7,55459,1,2,0:0:0:0:
165,7,55688,1,4,0:0:0:0:
329,75,55917,1,2,0:0:0:0:
200,143,56146,1,0,1:0:0:0:
234,266,56375,1,6,0:0:0:0:
127,336,56604,1,0,0:0:0:0:
27,256,56833,1,0,1:0:0:0:
72,136,57062,1,0,1:0:0:0:
132,226,57291,1,2,0:0:0:0:
258,192,57520,6,0,P|300:224|307:288,1,115.000002193451,4|0,0:1|0:0,0:0:0:0:
404,365,57978,2,0,P|435:323|499:316,1,115.000002193451,4|0,1:2|0:0,0:0:0:0:
483,189,58436,2,0,P|441:157|434:93,1,115.000002193451,4|0,0:1|0:0,0:0:0:0:
338,16,58894,2,0,P|306:57|242:64,1,115.000002193451,4|0,1:2|0:0,0:0:0:0:
345,198,59352,2,0,B|278:181|249:244|251:247|253:251|225:314|158:298,1,230.000004386902,4|0,0:1|1:0,0:0:0:0:
50,232,60039,1,2,0:0:0:0:
46,105,60268,2,0,P|153:115|174:221,1,230.000004386902,4|0,0:2|1:0,0:0:0:0:
80,305,60955,1,2,0:0:0:0:
200,344,61184,6,0,L|311:314,1,115.000002193451,4|0,0:1|0:0,0:0:0:0:
504,347,61642,2,0,L|392:376,1,115.000002193451,4|0,1:2|0:0,0:0:0:0:
391,249,62100,2,0,L|279:219,1,115.000002193451,4|0,0:1|0:0,0:0:0:0:
124,267,62558,2,0,L|235:296,1,115.000002193451,4|0,1:2|0:0,0:0:0:0:
77,338,63016,2,0,B|18:308|14:212|72:192|77:192|81:192|139:171|135:75|77:46,1,345.000006580353,4|0,0:1|0:0,0:0:0:0:
229,7,63932,1,0,0:0:0:0:
252,131,64161,1,0,0:0:0:0:
154,211,64390,1,0,1:0:0:0:
131,87,64619,1,2,0:0:0:0:
49,191,64848,6,0,B|63:265|63:265|130:312|130:312|144:384,1,230.000004386902,4|0,0:1|1:0,0:0:0:0:
256,325,65535,1,2,0:0:0:0:
368,384,65764,2,0,B|381:312|381:312|448:265|448:265|462:191,1,230.000004386902,4|0,0:0|1:0,0:0:0:0:
486,67,66451,1,2,0:0:0:0:
368,19,66680,2,0,B|301:2|272:65|274:68|276:72|248:135|181:119,1,230.000004386902,4|0,0:0|1:0,0:0:0:0:
141,239,67367,2,0,L|381:239,1,230.000004386902,4|2,0:0|0:0,0:0:0:0:
331,119,68054,2,0,B|264:135|236:72|238:68|240:65|211:2|144:19,1,230.000004386902,0|0,1:0|0:0,0:0:0:0:
233,347,68970,5,4,1:0:0:0:
279,312,69200,1,2,0:0:0:0:
220,277,69429,1,0,0:0:0:0:
292,242,69658,1,6,0:0:0:0:
181,214,69887,1,0,1:0:0:0:
331,179,70116,1,2,0:0:0:0:
168,144,70346,1,4,0:1:0:0:
344,109,70574,1,2,0:0:0:0:
129,81,70803,1,0,1:0:0:0:
383,46,71032,1,6,0:0:0:0:
116,11,71262,1,0,0:0:0:0:
256,68,71490,5,0,1:0:0:0:
256,68,71604,1,0,1:0:0:0:
256,68,71719,1,0,1:0:0:0:
256,68,71833,1,0,1:0:0:0:
256,68,71948,1,0,1:0:0:0:
256,68,72062,1,0,1:0:0:0:
256,68,72177,1,4,0:1:0:0:
187,62,77673,6,0,B|138:62|138:62|99:94|99:94|48:94,2,150,4|4|4,0:0|0:0|0:0,0:0:0:0:
325,62,78589,1,0,1:0:0:0:
325,62,78703,1,0,1:0:0:0:
325,62,78818,1,0,1:0:0:0:
325,62,78932,1,0,1:0:0:0:
325,62,79047,2,0,B|374:62|374:62|413:94|413:94|464:94,2,150,4|4|4,0:0|0:0|0:0,0:0:0:0:
320,191,79963,1,0,1:0:0:0:
320,191,80077,1,0,1:0:0:0:
320,191,80192,1,0,1:0:0:0:
320,191,80306,1,0,1:0:0:0:
320,191,80421,6,0,P|256:224|191:191,2,150,4|4|4,0:0|0:0|0:0,0:0:0:0:
415,302,81337,1,0,1:0:0:0:
415,302,81451,1,0,1:0:0:0:
415,302,81566,1,0,1:0:0:0:
415,302,81680,1,0,1:0:0:0:
415,302,81795,1,4,0:0:0:0:
256,384,82138,1,4,0:0:0:0:
97,302,82482,1,4,0:0:0:0:
312,288,82711,1,0,1:0:0:0:
200,288,82940,1,2,0:0:0:0:
256,192,83169,6,0,B|256:143|256:143|289:104|289:104|289:49,1,150,4|0,0:1|0:0,0:0:0:0:
289,38,83627,2,0,P|329:74|380:71,1,100,2|0,1:2|0:0,0:0:0:0:
480,49,84085,2,0,B|480:115|480:115|440:167|440:167|440:244,1,200,0|0,0:0|1:0,0:0:0:0:
229,284,84886,1,0,0:0:0:0:
229,284,85001,1,2,0:0:0:0:
302,365,85230,1,0,0:0:0:0:
407,332,85459,1,2,1:2:0:0:
334,251,85688,1,0,0:0:0:0:
403,166,85917,5,2,0:0:0:0:
295,53,86146,1,0,0:0:0:0:
442,90,86375,2,2,B|376:90|376:90|324:130|324:130|255:130,1,200,2|0,1:2|0:0,0:0:0:0:
109,166,87062,1,2,0:0:0:0:
109,166,87177,1,0,0:0:0:0:
109,166,87291,1,2,1:2:0:0:
217,53,87520,1,0,0:0:0:0:
70,90,87749,2,2,B|136:90|136:90|188:130|188:130|256:130,1,200,2|0,0:0|1:0,0:0:0:0:
254,334,88665,6,0,P|190:356|121:298,1,150,4|0,0:0|0:0,0:0:0:0:
128,296,89123,2,0,L|20:273,1,100,2|0,1:2|0:0,0:0:0:0:
19,165,89581,2,0,P|102:135|181:203,1,200,0|0,0:0|1:0,0:0:0:0:
354,317,90383,1,0,0:0:0:0:
354,317,90497,1,2,0:0:0:0:
448,260,90726,1,0,0:0:0:0:
368,183,90955,1,2,1:2:0:0:
462,126,91184,1,0,0:0:0:0:
382,49,91413,5,2,0:0:0:0:
281,145,91642,1,0,0:0:0:0:
407,206,91871,2,2,B|414:137|414:137|459:90|459:90|465:24,1,200,2|0,1:2|0:0,0:0:0:0:
492,183,92558,1,2,0:0:0:0:
450,284,92787,1,2,1:2:0:0:
351,184,93016,1,0,0:0:0:0:
301,318,93245,2,2,B|367:324|367:324|414:369|414:369|482:376,1,200,2|0,0:0|1:0,0:0:0:0:
176,376,94161,6,0,P|126:341|137:247,1,150,4|0,0:1|0:0,0:0:0:0:
185,210,94619,2,2,B|129:231|98:180|100:176|101:172|70:121|14:141,2,200,2|0|0,1:2|0:0|1:0,0:1:0:0:
134,31,95879,1,0,0:0:0:0:
134,31,95993,1,2,0:0:0:0:
218,101,96222,1,0,0:0:0:0:
310,40,96451,1,2,1:2:0:0:
352,141,96680,1,0,0:0:0:0:
460,120,96909,5,2,0:0:0:0:
336,249,97138,1,0,0:0:0:0:
370,94,97367,2,2,B|376:160|376:160|421:207|421:207|428:276,1,200,2|0,1:2|0:0,0:0:0:0:
350,353,98054,1,2,0:0:0:0:
257,293,98283,1,2,1:2:0:0:
103,381,98512,1,0,0:0:0:0:
237,378,98741,2,2,B|190:359|190:359|169:315|169:315|118:293,1,150,2|0,0:0|0:0,0:0:0:0:
109,290,99199,1,2,1:2:0:0:
8,245,99428,1,0,1:0:0:0:
8,245,99543,1,0,1:0:0:0:
8,245,99657,6,0,P|67:210|60:123,1,150,4|0,0:0|0:0,0:0:0:0:
60,122,100115,2,0,L|157:154,1,100,2|0,1:2|0:0,0:0:0:0:
228,177,100459,1,0,0:0:0:0:
228,177,100573,2,0,P|216:99|312:40,1,200,2|0,0:0|1:0,0:0:0:0:
499,148,101375,1,0,0:0:0:0:
499,148,101489,1,2,0:0:0:0:
414,77,101718,1,0,0:0:0:0:
379,181,101947,1,2,1:2:0:0:
464,252,102176,1,0,0:0:0:0:
380,323,102406,5,2,0:0:0:0:
202,260,102635,1,0,0:0:0:0:
309,179,102864,2,2,B|318:244|318:244|284:300|284:300|293:369,1,200,2|0,1:2|0:0,0:0:0:0:
184,383,103551,1,2,0:0:0:0:
100,311,103780,1,2,1:2:0:0:
212,151,104123,1,2,0:0:0:0:
17,133,104467,1,2,0:0:0:0:
109,198,104696,1,0,1:0:0:0:
119,205,105154,5,4,0:0:0:0:
256,192,105268,12,0,106986,1:0:0:0:
252,43,107444,5,4,0:3:0:0:
359,64,107673,1,0,1:0:0:0:
359,64,107787,1,0,1:0:0:0:
359,64,107902,1,4,0:3:0:0:
289,150,108131,1,4,0:3:0:0:
411,182,108360,1,0,1:0:0:0:
411,182,108474,1,0,1:0:0:0:
411,182,108589,1,0,1:0:0:0:
411,182,108703,1,0,1:0:0:0:
411,182,108818,6,0,P|417:290|319:336,1,230.000004386902,4|0,0:1|1:0,0:0:0:0:
256,227,109505,1,2,0:0:0:0:
194,336,109734,2,0,P|96:290|101:182,1,230.000004386902,4|0,0:0|1:0,0:0:0:0:
207,112,110421,1,2,0:0:0:0:
45,51,110650,2,0,B|98:96|152:53|152:49|152:45|207:3|258:49,1,230.000004386902,4|0,0:0|1:0,0:0:0:0:
364,192,111337,2,0,B|292:212|292:212|220:172|220:172|148:192,1,230.000004386902,4|2,0:0|0:0,0:0:0:0:
255,334,112024,2,0,B|306:380|361:338|361:334|361:330|415:287|467:333,1,230.000004386902,0|0,1:0|0:0,0:0:0:0:
500,48,112940,5,4,1:2:0:0:
424,148,113169,1,2,0:0:0:0:
322,72,113398,1,0,0:0:0:0:
199,99,113627,1,6,0:0:0:0:
145,216,113856,1,0,1:0:0:0:
192,332,114085,1,2,0:0:0:0:
256,168,114314,1,4,0:0:0:0:
320,332,114543,1,2,0:0:0:0:
367,216,114772,1,0,1:0:0:0:
313,99,115001,1,6,0:0:0:0:
190,72,115230,1,0,0:0:0:0:
88,148,115459,1,2,0:0:0:0:
12,48,115688,1,4,1:0:0:0:
18,256,116146,6,0,B|88:274|88:274|118:348|118:348|203:371,1,230.000004386902,4|0,0:1|1:0,0:0:0:0:
256,259,116833,1,2,0:0:0:0:
320,369,117062,2,0,B|395:348|395:348|425:274|425:274|494:256,1,230.000004386902,4|0,0:0|1:0,0:0:0:0:
512,129,117749,1,2,0:0:0:0:
441,24,117978,2,0,B|409:9|365:30|358:75|358:75|343:210,1,230.000004386902,4|0,0:0|1:0,0:0:0:0:
360,332,118665,2,0,B|304:332|304:332|256:298|256:298|208:332|208:332|152:332,1,230.000004386902,4|2,0:0|0:0,0:0:0:0:
167,191,119352,2,0,B|154:75|154:75|147:30|103:9|71:24,1,230.000004386902,0|0,1:0|0:0,0:0:0:0:
27,256,120268,5,4,1:2:0:0:
127,336,120497,1,2,0:0:0:0:
234,266,120726,1,0,0:0:0:0:
200,143,120955,1,6,0:0:0:0:
329,75,121184,1,0,1:0:0:0:
165,7,121413,1,2,0:0:0:0:
347,7,121642,1,4,0:0:0:0:
183,75,121871,1,2,0:0:0:0:
312,143,122100,1,0,1:0:0:0:
278,266,122329,1,6,0:0:0:0:
385,336,122558,1,0,0:0:0:0:
485,256,122787,1,0,1:0:0:0:
440,136,123016,1,0,1:0:0:0:
380,226,123245,1,2,0:0:0:0:
254,192,123474,6,0,P|212:224|205:288,1,115.000002193451,4|0,0:1|0:0,0:0:0:0:
108,365,123932,2,0,P|77:323|13:316,1,115.000002193451,4|0,1:2|0:0,0:0:0:0:
29,189,124390,2,0,P|71:157|78:93,1,115.000002193451,4|0,0:1|0:0,0:0:0:0:
174,16,124848,2,0,P|206:57|270:64,1,115.000002193451,4|0,1:2|0:0,0:0:0:0:
167,198,125306,2,0,B|234:181|263:244|261:247|259:251|287:314|354:298,1,230.000004386902,4|0,0:1|1:0,0:0:0:0:
462,232,125993,1,2,0:0:0:0:
466,105,126222,2,0,P|359:115|338:221,1,230.000004386902,4|0,0:2|1:0,0:0:0:0:
432,305,126909,1,2,0:0:0:0:
312,344,127138,6,0,L|201:314,1,115.000002193451,4|0,0:1|0:0,0:0:0:0:
8,347,127596,2,0,L|120:376,1,115.000002193451,4|0,1:2|0:0,0:0:0:0:
121,249,128054,2,0,L|233:219,1,115.000002193451,4|0,0:1|0:0,0:0:0:0:
388,267,128512,2,0,L|277:296,1,115.000002193451,4|0,1:2|0:0,0:0:0:0:
435,338,128970,2,0,B|494:308|498:212|440:192|435:192|431:192|373:171|377:75|435:46,1,345.000006580353,4|0,0:1|0:0,0:0:0:0:
318,67,129886,1,2,0:0:0:0:
482,114,130115,1,0,0:0:0:0:
309,149,130344,1,2,1:2:0:0:
436,46,130573,1,2,0:0:0:0:
463,191,130802,6,0,B|449:265|449:265|382:312|382:312|368:384,1,230.000004386902,4|0,0:1|1:0,0:0:0:0:
256,325,131489,1,2,0:0:0:0:
144,384,131718,2,0,B|131:312|131:312|64:265|64:265|50:191,1,230.000004386902,4|0,0:0|1:0,0:0:0:0:
26,67,132405,1,2,0:0:0:0:
144,19,132634,2,0,B|211:2|240:65|238:68|236:72|264:135|331:119,1,230.000004386902,4|0,0:0|1:0,0:0:0:0:
371,239,133321,2,0,L|131:239,1,230.000004386902,4|2,0:0|0:0,0:0:0:0:
181,119,134008,2,0,B|248:135|276:72|274:68|272:65|301:2|368:19,1,230.000004386902,0|0,1:0|0:0,0:0:0:0:
279,372,134924,5,4,1:0:0:0:
233,337,135154,1,2,0:0:0:0:
292,302,135383,1,0,0:0:0:0:
220,267,135612,1,6,0:0:0:0:
331,239,135841,1,0,1:0:0:0:
181,204,136070,1,2,0:0:0:0:
344,169,136300,1,4,0:1:0:0:
168,134,136528,1,2,0:0:0:0:
383,106,136757,1,0,1:0:0:0:
129,71,136986,1,6,0:0:0:0:
396,36,137216,1,0,0:0:0:0:
116,1,137444,1,2,0:0:0:0:
256,36,137673,6,0,L|256:280,1,230.000004386902,0|4,1:0|0:1,0:0:0:0:
40,271,149123,6,0,P|97:250|171:295,1,150,4|8,0:0|0:3,0:0:0:0:
174,309,149581,1,0,0:0:0:0:
276,268,149810,2,0,L|289:159,1,100,8|0,0:3|0:0,0:0:0:0:
432,347,150497,2,0,L|408:191,1,150,2|8,0:0|0:3,0:0:0:0:
407,183,150955,1,2,0:0:0:0:
510,221,151184,1,8,0:3:0:0:
493,112,151413,2,0,L|513:3,1,100,2|0,0:0|0:0,0:0:0:0:
374,43,151871,6,0,P|341:88|242:81,1,150,2|8,0:0|0:3,0:0:0:0:
244,77,152329,1,0,0:0:0:0:
164,152,152558,2,0,L|50:134,1,100,8|0,0:3|0:0,0:0:0:0:
24,34,153016,1,0,0:0:0:0:
132,13,153245,2,0,B|132:62|132:62|164:101|164:101|164:161,1,150,2|8,0:0|0:3,0:0:0:0:
165,167,153703,1,0,0:0:0:0:
69,222,153932,1,10,0:3:0:0:
142,327,154161,1,0,1:0:0:0:
142,327,154276,1,0,1:0:0:0:
142,327,154390,1,0,1:0:0:0:
142,327,154505,1,0,1:0:0:0:
142,327,154619,6,0,P|202:284|274:312,1,150,4|8,0:0|0:3,0:0:0:0:
274,322,155077,2,0,L|378:306,1,100,0|8,0:0|0:3,0:0:0:0:
503,227,155535,1,2,0:0:0:0:
479,335,155764,1,0,0:0:0:0:
397,199,155993,2,0,L|369:42,1,150,2|8,0:0|0:3,0:0:0:0:
368,34,156451,2,0,P|418:22|464:44,1,100,2|8,0:0|0:3,0:0:0:0:
493,146,156909,1,2,0:0:0:0:
493,146,157024,1,0,0:0:0:0:
275,110,157367,6,0,P|215:143|208:224,1,150,0|8,0:0|0:3,0:0:0:0:
216,231,157825,1,2,0:0:0:0:
163,327,158054,1,8,0:3:0:0:
62,281,158283,1,2,0:0:0:0:
62,281,158398,1,0,0:0:0:0:
9,34,158741,2,0,L|164:51,1,150,0|8,0:0|0:3,0:0:0:0:
173,53,159199,2,0,P|128:77|110:131,1,100,2|8,0:0|0:3,0:0:0:0:
295,94,159657,1,4,1:0:0:0:
189,338,160115,6,0,P|130:295|59:311,2,150,4|4|4,0:0|0:0|0:0,0:0:0:0:
323,338,161031,1,0,1:0:0:0:
323,338,161145,1,0,1:0:0:0:
323,338,161260,1,0,1:0:0:0:
323,338,161374,1,0,1:0:0:0:
323,338,161489,2,0,P|382:295|453:311,2,150,4|4|4,0:0|0:0|0:0,0:0:0:0:
256,216,162405,1,0,1:0:0:0:
256,216,162519,1,0,1:0:0:0:
256,216,162634,1,0,1:0:0:0:
256,216,162748,1,0,1:0:0:0:
256,216,162863,6,0,B|244:168|244:168|268:124|268:124|256:76,2,150,4|4|4,0:0|0:0|0:0,0:0:0:0:
145,207,163779,1,0,1:0:0:0:
145,207,163893,1,0,1:0:0:0:
145,207,164008,1,0,1:0:0:0:
145,207,164122,1,0,1:0:0:0:
145,207,164237,1,4,0:0:0:0:
367,207,164580,1,4,0:0:0:0:
256,16,164924,1,4,0:0:0:0:
256,144,165153,1,0,1:0:0:0:
13,164,165611,6,0,B|64:111|64:111|63:31,2,150,4|4|4,0:0|0:0|0:0,0:0:0:0:
135,220,166527,1,0,1:0:0:0:
135,220,166641,1,0,1:0:0:0:
135,220,166756,1,0,1:0:0:0:
135,220,166870,1,0,1:0:0:0:
135,220,166985,2,0,B|84:273|84:273|85:353,2,150,4|4|4,0:0|0:0|0:0,0:0:0:0:
256,165,167901,1,0,1:0:0:0:
256,165,168015,1,0,1:0:0:0:
256,165,168130,1,0,1:0:0:0:
256,165,168244,1,0,1:0:0:0:
256,165,168359,6,0,B|268:117|268:117|244:73|244:73|256:25,2,150,4|4|4,0:0|0:0|0:0,0:0:0:0:
378,221,169275,1,0,1:0:0:0:
378,221,169389,1,0,1:0:0:0:
378,221,169504,1,0,1:0:0:0:
378,221,169618,1,0,1:0:0:0:
378,221,169733,1,4,0:0:0:0:
256,384,170076,1,4,0:0:0:0:
134,221,170420,1,4,0:0:0:0:
256,256,170649,1,0,1:0:0:0:
0,64,171108,6,0,B|84:64|84:64|120:112|120:112|208:112,1,230.000004386902,4|0,0:0|1:0,0:0:0:0:
256,24,171795,1,0,0:0:0:0:
306,112,172024,2,0,B|392:112|392:112|428:64|428:64|512:64,1,230.000004386902,0|0,0:0|1:0,0:0:0:0:
477,161,172711,1,4,0:3:0:0:
442,258,172940,2,0,P|352:251|321:371,1,230.000004386902,4|0,0:3|1:0,0:0:0:0:
193,244,173627,2,0,P|175:348|69:353,1,230.000004386902
91,251,174314,1,0,1:0:0:0:
25,36,174772,5,4,0:1:0:0:
76,125,175001,1,4,0:3:0:0:
168,78,175230,1,4,0:3:0:0:
256,27,175459,1,4,0:3:0:0:
256,131,175688,1,4,0:3:0:0:
344,78,175917,1,4,0:3:0:0:
436,125,176146,1,4,0:3:0:0:
487,36,176375,1,4,0:3:0:0:
506,214,176604,5,4,1:2:0:0:
506,214,176718,1,0,1:0:0:0:
506,214,176833,1,4,0:3:0:0:
396,333,177062,1,4,0:3:0:0:
256,249,177291,1,4,1:2:0:0:
256,249,177405,1,0,1:0:0:0:
256,249,177520,1,4,0:3:0:0:
116,333,177749,1,4,0:3:0:0:
6,214,177978,1,4,1:0:0:0:
411,201,178436,6,0,P|426:87|318:48,1,250,4|0,0:1|1:0,0:0:0:0:
256,157,179123,1,2,0:0:0:0:
194,48,179352,2,0,P|86:86|101:202,1,250,4|0,0:0|1:0,0:0:0:0:
207,272,180039,1,2,0:0:0:0:
32,337,180268,2,0,B|89:288|147:334|147:339|147:343|207:388|262:339,1,250,4|0,0:0|1:0,0:0:0:0:
376,192,180955,2,0,B|288:208|288:208|224:176|224:176|136:192,1,250,4|2,0:0|0:0,0:0:0:0:
249,44,181642,2,0,B|304:-4|364:40|364:44|364:49|422:95|480:47,1,250,0|0,1:0|0:0,0:0:0:0:
500,336,182558,5,4,1:2:0:0:
424,236,182787,1,2,0:0:0:0:
322,312,183016,1,0,0:0:0:0:
199,285,183245,1,6,0:0:0:0:
145,168,183474,1,0,1:0:0:0:
192,52,183703,1,2,0:0:0:0:
256,216,183932,1,4,0:0:0:0:
320,52,184161,1,2,0:0:0:0:
367,168,184390,1,0,1:0:0:0:
313,285,184619,1,6,0:0:0:0:
190,312,184848,1,0,0:0:0:0:
88,236,185077,1,2,0:0:0:0:
12,336,185306,1,4,1:0:0:0:
0,125,185764,6,0,B|70:110|70:110|115:28|115:28|192:15,1,250,4|0,0:1|1:0,0:0:0:0:
256,125,186451,1,2,0:0:0:0:
320,15,186680,2,0,B|396:28|396:28|441:110|441:110|520:125,1,250,4|0,0:0|1:0,0:0:0:0:
512,255,187367,1,2,0:0:0:0:
441,360,187596,2,0,B|409:375|365:354|358:309|358:309|344:167,1,250,4|0,0:0|1:0,0:0:0:0:
368,48,188283,2,0,B|308:48|308:48|256:86|256:86|204:48|204:48|140:48,1,250,4|2,0:0|0:0,0:0:0:0:
167,172,188970,2,0,B|154:309|154:309|147:354|103:375|71:360,1,250,0|0,1:0|0:0,0:0:0:0:
27,128,189886,5,4,1:2:0:0:
127,48,190115,1,2,0:0:0:0:
234,118,190344,1,0,0:0:0:0:
200,241,190573,1,6,0:0:0:0:
329,309,190802,1,0,1:0:0:0:
165,377,191031,1,2,0:0:0:0:
347,377,191260,1,4,0:0:0:0:
183,309,191489,1,2,0:0:0:0:
312,241,191718,1,0,1:0:0:0:
278,118,191947,1,6,0:0:0:0:
385,48,192176,1,0,0:0:0:0:
485,128,192405,1,0,1:0:0:0:
440,248,192634,1,0,1:0:0:0:
380,158,192863,1,2,0:0:0:0:
253,191,193092,6,0,P|209:157|202:91,1,125,4|0,0:1|0:0,0:0:0:0:
105,12,193550,2,0,P|71:55|5:62,1,125,4|0,1:2|0:0,0:0:0:0:
12,187,194008,2,0,P|55:220|62:286,1,125,4|0,0:1|0:0,0:0:0:0:
160,366,194466,2,0,P|193:322|259:315,1,125,4|0,1:2|0:0,0:0:0:0:
150,191,194924,2,0,B|224:209|256:140|253:136|251:132|282:62|356:80,1,250,4|0,0:1|1:0,0:0:0:0:
462,152,195611,1,2,0:0:0:0:
483,272,195840,2,0,P|367:275|337:163,1,250,4|0,0:2|1:0,0:0:0:0:
432,79,196527,1,2,0:0:0:0:
312,40,196756,6,0,L|190:72,1,125,4|0,0:1|0:0,0:0:0:0:
8,37,197214,2,0,L|130:7,1,125,4|0,1:2|0:0,0:0:0:0:
121,135,197672,2,0,L|248:169,1,125,4|0,0:1|0:0,0:0:0:0:
388,117,198130,2,0,L|266:85,1,125,4|0,1:2|0:0,0:0:0:0:
437,41,198588,2,0,B|501:73|505:178|442:199|437:199|432:199|369:222|373:327|437:358,1,375,4|0,0:1|0:0,0:0:0:0:
289,378,199504,1,0,0:0:0:0:
266,254,199733,1,0,0:0:0:0:
364,174,199962,1,0,1:0:0:0:
387,298,200191,1,2,0:0:0:0:
468,209,200420,6,0,B|452:128|452:128|379:77|379:77|364:0,1,250,4|0,0:1|1:0,0:0:0:0:
256,59,201107,1,2,0:0:0:0:
147,0,201337,2,0,B|132:77|132:77|59:128|59:128|44:209,1,250,4|0,0:0|1:0,0:0:0:0:
23,330,202023,1,2,0:0:0:0:
143,364,202252,2,0,B|215:382|247:313|245:310|243:306|273:237|346:255,1,250,4|0,0:0|1:0,0:0:0:0:
381,135,202939,2,0,L|120:135,1,250,4|2,0:0|0:0,0:0:0:0:
165,255,203627,2,0,B|238:237|268:306|266:310|264:313|296:382|369:364,1,250,0|0,1:0|0:0,0:0:0:0:
458,169,204543,5,4,1:0:0:0:
423,215,204773,1,2,0:0:0:0:
388,156,205002,1,0,0:0:0:0:
353,228,205231,1,6,0:0:0:0:
325,117,205460,1,0,1:0:0:0:
290,267,205689,1,2,0:0:0:0:
255,104,205917,1,4,0:1:0:0:
220,280,206147,1,2,0:0:0:0:
192,65,206376,1,0,1:0:0:0:
157,319,206605,1,6,0:0:0:0:
122,52,206833,1,0,0:0:0:0:
87,332,207063,1,2,0:0:0:0:
1,129,207291,6,0,B|53:110|82:158|81:161|79:165|108:213|161:193,1,187.5,4|0,1:0|0:0,0:0:0:0:
204,135,207749,6,0,B|198:185|198:185|162:218|162:218|154:270,2,150,4|4|4,0:0|0:0|0:0,0:0:0:0:
337,196,208665,1,0,1:0:0:0:
337,196,208779,1,0,1:0:0:0:
337,196,208894,1,0,1:0:0:0:
337,196,209008,1,0,1:0:0:0:
337,196,209123,2,0,B|343:146|343:146|379:113|379:113|387:61,2,150,4|4|4,0:0|0:0|0:0,0:0:0:0:
256,304,210039,1,0,1:0:0:0:
256,304,210153,1,0,1:0:0:0:
256,304,210268,1,0,1:0:0:0:
256,304,210382,1,0,1:0:0:0:
256,304,210497,1,4,0:1:0:0:
256,192,210611,12,0,215993,0:0:0:0:
