osu file format v14

[General]
AudioFilename: Paramore - Still Into You.mp3
AudioLeadIn: 0
PreviewTime: 112076
Countdown: 0
SampleSet: Soft
StackLeniency: 0.7
Mode: 0
LetterboxInBreaks: 1
WidescreenStoryboard: 0

[Editor]
Bookmarks: 11488,18547,39723,46782,71488,78547,85605,106782,114723,138547,152664,166782,180899,205605,212664
DistanceSpacing: 1
BeatDivisor: 2
GridSize: 16
TimelineZoom: 1

[Metadata]
Title:Still Into You
TitleUnicode:Still Into You
Artist:Paramore
ArtistUnicode:Paramore
Creator:Rizen
Version:Normal
Source:
Tags:pop rock hayley williams fizz hoen moph vanity
BeatmapID:813752
BeatmapSetID:301830

[Difficulty]
HPDrainRate:4
CircleSize:3
OverallDifficulty:4
ApproachRate:5
SliderMultiplier:1
SliderTickRate:1

[Events]
//Background and Video events
0,0,"background.jpg",0,0
Video,-1025,"StillVid.avi"
//Break Periods
2,71687,73817
2,138747,151464
//Storyboard Layer 0 (Background)
//Storyboard Layer 1 (Fail)
//Storyboard Layer 2 (Pass)
//Storyboard Layer 3 (Foreground)
//Storyboard Sound Samples

[TimingPoints]
900,441.176470588235,4,2,1,55,1,0
11488,-100,4,2,1,70,0,0
39723,-100,4,2,0,55,0,0
43473,-100,4,2,1,55,0,0
45238,-100,4,2,1,60,0,0
46782,-100,4,2,1,70,0,1
69723,-100,4,2,1,70,0,0
106782,-100,4,2,0,55,0,0
110311,-100,4,2,1,55,0,0
112297,-100,4,2,1,60,0,0
113841,-100,4,2,1,70,0,1
138547,-100,4,2,1,40,0,0
152664,-100,4,2,1,60,0,0
166782,-100,4,2,1,40,0,0
177370,-100,4,2,1,50,0,0
179135,-100,4,2,1,60,0,0
180899,-100,4,2,1,70,0,1
212444,-100,4,2,1,70,0,0
212664,-100,4,2,1,70,0,0

[Colours]
Combo1 : 255,211,79
Combo2 : 153,255,153
Combo3 : 117,180,255
Combo4 : 248,116,136

[HitObjects]
446,212,11488,6,0,P|396:205|356:166,1,100,6|8,0:0|0:0,0:0:0:0:
392,78,12370,2,0,B|337:65|296:96|296:96|273:149|224:163,1,200,2|2,0:0|0:0,0:0:0:0:
129,142,13694,1,8,0:0:0:0:
106,43,14135,2,0,P|156:42|197:68,1,100,2|8,0:0|0:0,0:0:0:0:
227,161,15017,6,0,P|191:225|120:243,1,150,2|0,0:0|0:0,0:0:0:0:
81,232,15899,2,0,L|9:224,2,50,2|8|12,0:0|0:0|0:0,0:0:0:0:
104,329,16782,2,0,L|203:339,1,100,2|8,0:0|0:0,0:0:0:0:
303,339,17664,2,0,L|402:328,1,100,2|8,0:0|0:0,0:0:0:0:
438,311,18326,1,2,0:0:0:0:
464,281,18547,6,0,P|468:231|450:185,1,100,2|8,0:0|0:0,0:0:0:0:
327,99,19649,2,0,L|227:87,1,100,2|0,0:0|0:0,0:0:0:0:
187,82,20311,1,2,0:0:0:0:
142,171,20752,1,8,0:0:0:0:
181,177,20973,2,0,L|280:188,1,100,0|2,0:0|0:0,0:0:0:0:
321,190,21635,1,8,0:0:0:0:
413,228,22076,6,0,L|420:178,1,50,2|0,0:0|0:0,0:0:0:0:
350,106,22738,1,0,0:0:0:0:
328,140,22958,2,0,L|320:196,1,50,2|10,0:0|0:0,0:0:0:0:
293,218,23399,2,0,P|243:212|197:230,1,100,12|2,0:0|0:0,0:0:0:0:
257,309,24282,1,8,0:0:0:0:
296,314,24502,1,0,0:0:0:0:
335,320,24723,2,0,P|373:288|389:242,2,100,2|2|4,0:0|0:0|0:0,0:0:0:0:
291,230,26047,5,8,0:0:0:0:
190,229,26488,2,0,P|234:144|330:136,1,200,2|2,0:0|0:0,0:0:0:0:
430,134,27811,1,8,0:0:0:0:
475,44,28252,2,0,P|427:32|380:47,1,100,2|8,0:0|0:0,0:0:0:0:
330,136,29135,6,0,B|255:151|255:151|183:135,1,150,2|0,0:0|0:0,0:0:0:0:
150,112,30017,2,0,L|101:102,2,50,2|10|12,0:0|0:0|0:0,0:0:0:0:
84,187,30899,2,0,P|40:167|14:125,1,100,2|8,0:0|0:0,0:0:0:0:
50,32,31782,2,0,P|97:14|144:27,1,100,2|8,0:0|0:0,0:0:0:0:
178,48,32444,1,2,0:0:0:0:
199,81,32664,6,0,P|196:154|244:209,1,150,2|0,0:0|0:0,0:0:0:0:
338,245,33767,2,0,L|387:238,1,50,2|8,0:0|0:0,0:0:0:0:
473,186,34429,1,2,0:0:0:0:
486,222,34649,2,0,P|469:294|409:336,1,150,0|0,0:0|0:0,0:0:0:0:
310,322,35752,1,8,0:0:0:0:
210,345,36194,6,0,B|169:358|169:358|124:302|141:259,1,150,2|0,0:0|0:0,0:0:0:0:
152,222,37076,2,0,P|153:197|146:173,2,50,2|2|12,0:0|0:0|0:0,0:0:0:0:
53,216,37958,1,2,0:0:0:0:
59,116,38399,1,8,0:0:0:0:
153,71,38841,2,0,B|204:76|233:120|233:120|287:142|329:106,1,200,2|4,0:0|0:0,0:0:0:0:
368,14,40164,5,0,0:0:0:0:
269,31,40605,1,0,0:0:0:0:
330,106,41047,1,0,0:0:0:0:
368,115,41267,1,0,0:0:0:0:
405,125,41488,2,0,P|422:172|410:219,1,100,2|0,0:0|0:0,0:0:0:0:
413,321,42370,2,0,P|328:277|316:182,2,200,0|2|0,0:0|0:0|0:0,0:0:0:0:
409,219,44576,5,0,0:0:0:0:
399,119,45017,1,0,0:0:0:0:
407,79,45238,2,0,L|416:29,2,50,8|8|0,0:0|0:3|0:3,0:0:0:0:
371,97,45899,2,0,B|322:110|322:110|274:98,1,100,8|8,0:0|0:0,0:0:0:0:
193,39,46782,6,0,P|174:84|180:133,1,100,6|8,0:0|0:0,0:0:0:0:
257,197,47664,2,0,P|263:245|243:291,1,100,2|8,0:0|0:0,0:0:0:0:
146,317,48547,1,2,0:0:0:0:
53,279,48988,1,8,0:0:0:0:
29,181,49429,2,0,B|46:118|82:99|82:99|124:144|195:137,1,200,2|2,0:0|0:0,0:0:0:0:
256,85,50752,5,8,0:0:0:0:
340,138,51194,2,0,B|383:141|428:99|428:99|464:118|481:181,1,200,2|2,0:0|0:0,0:0:0:0:
466,279,52517,1,8,0:0:0:0:
369,303,52958,2,0,L|364:352,2,50,2|8|8,0:0|0:0|0:0,0:0:0:0:
341,274,53620,1,8,0:0:0:0:
310,249,53841,6,0,P|263:235|215:246,1,100,4|10,0:0|0:0,0:0:0:0:
158,328,54723,2,0,P|124:291|113:243,1,100,2|8,0:0|0:0,0:0:0:0:
167,159,55605,2,0,L|179:59,1,100,2|8,0:0|0:0,0:0:0:0:
271,22,56488,2,0,L|249:220,1,200,2|2,0:0|0:0,0:0:0:0:
155,255,57811,5,8,0:0:0:0:
155,353,58252,2,0,P|72:306|68:210,1,200,2|2,0:0|0:0,0:0:0:0:
155,160,59576,2,0,L|161:110,1,50,8|2,0:0|0:0,0:0:0:0:
195,88,60017,2,0,P|241:103|290:93,1,100,2|10,0:0|0:0,0:0:0:0:
325,75,60679,1,8,0:0:0:0:
359,55,60899,6,0,L|458:61,1,100,4|8,0:0|0:0,0:0:0:0:
482,158,61782,2,0,L|383:164,1,100,2|8,0:0|0:0,0:0:0:0:
308,231,62664,2,0,P|297:280|309:328,2,100,2|8|2,0:0|0:0|0:0,0:0:0:0:
286,132,63988,2,0,P|272:112|251:99,1,50,8|0,0:0|0:0,0:0:0:0:
212,89,64429,6,0,L|112:82,1,100,2|8,0:0|0:0,0:0:0:0:
23,127,65311,2,0,P|6:173|11:223,1,100,2|8,0:0|0:0,0:0:0:0:
92,281,66194,2,0,P|108:234|103:184,2,100,0|8|0,0:0|0:0|0:0,0:0:0:0:
131,288,67297,1,2,0:0:0:0:
170,293,67518,1,8,0:0:0:0:
252,350,67958,5,6,0:0:0:0:
342,307,68399,1,8,0:0:0:0:
439,328,68841,2,0,P|435:278|399:229,1,100,2|8,0:0|0:0,0:0:0:0:
311,213,69723,1,4,0:0:0:0:
162,79,70605,2,0,B|218:85|256:55|256:55|305:88|350:81,1,200,0|4,0:0|0:0,0:0:0:0:
256,192,75017,12,0,76782,0:0:0:0:
144,144,78547,6,0,L|264:136,1,100,6|8,0:0|0:0,0:0:0:0:
292,49,79429,2,0,P|343:125|276:235,1,200,2|2,0:0|0:0,0:0:0:0:
206,229,80752,1,8,0:0:0:0:
164,319,81194,2,0,P|213:328|260:310,1,100,2|8,0:0|0:0,0:0:0:0:
206,229,82076,6,0,P|132:225|77:274,1,150,2|0,0:0|0:0,0:0:0:0:
64,311,82958,2,0,L|54:360,2,50,2|10|12,0:0|0:0|0:0,0:0:0:0:
164,319,83841,2,0,L|263:329,1,100,2|8,0:0|0:0,0:0:0:0:
344,269,84723,2,0,L|443:258,1,100,2|8,0:0|0:0,0:0:0:0:
471,229,85385,1,2,0:0:0:0:
497,198,85605,6,0,P|498:149|476:105,1,100,2|8,0:0|0:0,0:0:0:0:
438,90,86267,2,0,B|389:103|389:103|341:91,1,100,0|2,0:0|0:0,0:0:0:0:
302,80,86929,1,8,0:0:0:0:
208,115,87370,1,2,0:0:0:0:
194,152,87591,2,0,B|182:199|182:199|195:248,1,100,0|0,0:0|0:0,0:0:0:0:
206,287,88252,1,2,0:0:0:0:
146,367,88694,1,8,0:0:0:0:
108,274,89135,6,0,L|82:177,1,100,2|8,0:0|0:0,0:0:0:0:
57,145,89797,1,0,0:0:0:0:
33,112,90017,2,0,L|21:63,2,50,2|10|12,0:0|0:0|0:0,0:0:0:0:
132,111,90899,1,2,0:0:0:0:
184,196,91341,1,8,0:0:0:0:
222,205,91561,1,0,0:0:0:0:
261,214,91782,2,0,L|357:188,2,100,2|2|6,0:0|0:0|0:0,0:0:0:0:
220,122,93105,5,8,0:0:0:0:
278,40,93547,2,0,P|183:29|122:103,1,200,2|2,0:0|0:0,0:0:0:0:
153,198,94870,1,8,0:0:0:0:
82,269,95311,2,0,P|57:226|54:177,1,100,2|8,0:0|0:0,0:0:0:0:
153,198,96194,6,0,B|228:183|228:183|300:199,1,150,2|0,0:0|0:0,0:0:0:0:
329,225,97076,2,0,L|339:274,2,50,2|2|12,0:0|0:0|0:0,0:0:0:0:
417,178,97958,2,0,L|438:275,1,100,2|8,0:0|0:0,0:0:0:0:
383,359,98841,2,0,P|336:371|289:356,1,100,2|8,0:0|0:0,0:0:0:0:
262,324,99502,1,2,0:0:0:0:
239,291,99723,6,0,P|171:263|103:289,1,150,2|0,0:0|0:0,0:0:0:0:
18,238,100826,2,0,L|13:188,1,50,2|8,0:0|0:0,0:0:0:0:
3,89,101488,1,2,0:0:0:0:
40,74,101708,2,0,P|108:102|176:76,1,150,0|2,0:0|0:0,0:0:0:0:
270,109,102811,1,8,0:0:0:0:
338,35,103252,6,0,B|379:22|379:22|424:78|407:121,1,150,2|0,0:0|0:0,0:0:0:0:
392,157,104135,2,0,P|391:182|398:206,2,50,2|10|12,0:0|0:0|0:0,0:0:0:0:
491,169,105017,1,2,0:0:0:0:
486,268,105458,1,8,0:0:0:0:
395,310,105899,2,0,B|344:315|315:359|315:359|261:381|219:345,1,200,2|6,0:0|0:0,0:0:0:0:
197,247,107223,5,2,0:0:0:0:
103,212,107664,1,2,0:0:0:0:
78,115,108105,1,2,0:0:0:0:
100,80,108326,1,0,0:0:0:0:
125,48,108547,2,0,P|173:33|223:35,1,100,2|0,0:0|0:0,0:0:0:0:
306,89,109429,2,0,B|384:171|454:139|454:139|443:109,2,200,2|0|0,0:0|0:0|0:0,0:0:0:0:
226,150,111635,5,0,0:0:0:0:
133,112,112076,1,0,0:0:0:0:
95,125,112297,2,0,L|89:75,2,50,8|8|8,0:0|0:0|0:0,0:0:0:0:
73,157,112958,2,0,B|61:206|61:206|76:253,1,100,8|8,0:0|0:0,0:0:0:0:
150,320,113841,6,0,P|199:327|247:314,1,100,6|8,0:0|0:0,0:0:0:0:
325,252,114723,2,0,P|373:239|422:246,1,100,2|8,0:0|0:0,0:0:0:0:
482,326,115605,1,2,0:0:0:0:
382,338,116047,1,8,0:0:0:0:
318,253,116488,2,0,B|247:273|181:226|181:226|165:242|148:261|124:257,1,200,2|2,0:0|0:0,0:0:0:0:
100,163,117811,5,8,0:0:0:0:
136,69,118252,2,0,B|147:64|164:83|180:99|180:99|246:52|317:72,1,200,2|2,0:0|0:0,0:0:0:0:
395,133,119576,1,8,0:0:0:0:
362,227,120017,2,0,L|367:276,2,50,2|8|8,0:0|0:0|0:0,0:0:0:0:
328,205,120679,1,8,0:0:0:0:
293,184,120899,6,0,P|244:173|197:188,1,100,6|8,0:0|0:0,0:0:0:0:
151,279,121782,2,0,L|159:379,1,100,2|8,0:0|0:0,0:0:0:0:
258,371,122664,2,0,L|251:272,1,100,2|8,0:0|0:0,0:0:0:0:
197,186,123547,2,0,P|292:181|350:258,1,200,2|2,0:0|0:0,0:0:0:0:
251,272,124870,5,8,0:0:0:0:
151,278,125311,2,0,P|97:198|134:110,1,200,2|2,0:0|0:0,0:0:0:0:
229,75,126635,2,0,L|288:67,1,50,8|2,0:3|0:0,0:0:0:0:
315,83,127076,2,0,B|309:136|309:136|324:180,1,100,8|8,0:0|0:0,0:0:0:0:
360,197,127738,1,8,0:0:0:0:
397,209,127958,6,0,P|417:257|401:324,1,100,6|8,0:0|0:0,0:0:0:0:
316,270,128841,2,0,L|217:276,1,100,0|8,0:0|0:0,0:0:0:0:
122,240,129723,2,0,P|117:289|135:335,2,100,2|8|2,0:0|0:0|0:0,0:0:0:0:
203,182,131047,2,0,L|252:177,1,50,8|0,0:0|0:0,0:0:0:0:
287,157,131488,6,0,P|300:109|294:60,1,100,2|8,0:0|0:0,0:0:0:0:
203,101,132370,2,0,P|157:81|122:46,1,100,2|8,0:0|0:0,0:0:0:0:
29,82,133252,2,0,P|35:131|21:178,1,100,2|8,0:0|0:0,0:0:0:0:
85,256,134135,1,2,0:0:0:0:
112,285,134355,2,0,L|161:291,1,50,2|8,0:0|0:0,0:0:0:0:
241,349,135017,6,0,P|260:304|253:255,1,100,6|8,0:0|0:0,0:0:0:0:
174,193,135899,1,2,0:0:0:0:
269,162,136341,1,8,0:0:0:0:
194,94,136782,2,0,P|235:66|285:62,1,100,2|8,0:0|0:0,0:0:0:0:
365,120,137664,2,0,L|388:164,1,50,8|2,0:0|0:0,0:0:0:0:
384,204,138105,2,0,L|407:248,1,50,8|8,3:0|3:0,0:0:0:0:
404,288,138547,5,4,0:0:0:0:
160,208,152664,5,6,0:0:0:0:
256,182,153105,1,8,0:0:0:0:
351,210,153547,2,0,P|352:161|331:116,2,100,2|8|2,0:0|0:0|0:0,0:0:0:0:
332,246,154649,2,0,L|234:268,1,100,0|0,0:0|0:0,0:0:0:0:
194,276,155311,2,0,P|183:298|165:315,1,50,2|2,0:0|0:0,0:0:0:0:
130,334,155752,1,8,0:0:0:0:
103,237,156194,6,0,P|134:197|179:178,1,100,2|8,0:0|0:0,0:0:0:0:
273,214,157076,2,0,P|279:164|260:119,1,100,2|8,0:0|0:0,0:0:0:0:
167,82,157958,2,0,P|117:75|78:45,2,100,2|8|2,0:0|0:0|0:0,0:0:0:0:
202,63,159061,1,0,0:0:0:0:
237,43,159282,1,8,0:0:0:0:
331,76,159723,5,6,0:0:0:0:
256,142,160164,1,8,0:0:0:0:
350,174,160605,2,0,P|320:215|276:237,2,100,2|8|2,0:0|0:0|0:0,0:0:0:0:
386,157,161708,2,0,P|436:162|477:189,1,100
489,226,162370,2,0,L|474:273,1,50,2|0,0:0|0:0,0:0:0:0:
444,300,162811,1,8,0:0:0:0:
349,338,163252,6,0,P|300:348|253:333,1,100,2|8,0:0|0:0,0:0:0:0:
200,247,164135,2,0,P|189:198|155:162,1,100,2|8,0:0|0:0,0:0:0:0:
98,244,165017,2,0,L|-1:259,2,100,2|2|8,0:0|0:0|0:0,0:0:0:0:
122,275,166120,1,8,0:0:0:0:
146,306,166341,1,8,0:0:0:0:
239,340,166782,5,6,0:0:0:0:
321,283,167223,1,0,0:0:0:0:
320,181,167664,2,0,P|333:134|319:86,1,100,0|2,0:0|0:0,0:0:0:0:
231,135,168547,2,0,P|217:87|230:39,2,100,2|2|2,0:0|0:0|0:0,0:0:0:0:
231,234,169870,1,2,0:0:0:0:
319,278,170311,6,0,P|286:316|240:334,1,100,2|2,0:0|0:0,0:0:0:0:
149,291,171194,2,0,P|100:281|61:250,1,100,2|2,0:0|0:0,0:0:0:0:
145,195,172076,1,2,0:0:0:0:
100,105,172517,1,2,0:0:0:0:
185,52,172958,2,0,B|234:65|234:65|281:53,1,100,2|2,0:0|0:0,0:0:0:0:
368,100,173841,6,0,P|385:148|374:198,1,100,2|2,0:0|0:0,0:0:0:0:
284,155,174723,2,0,P|275:203|290:250,1,100,2|2,0:0|0:0,0:0:0:0:
207,308,175605,2,0,L|107:296,1,100,2|2,0:0|0:0,0:0:0:0:
45,217,176488,2,0,L|57:117,1,100,2|0,0:0|0:0,0:0:0:0:
256,192,177370,12,8,180017,0:0:0:0:
184,329,180899,6,0,P|191:280|178:232,1,100,6|8,0:0|0:0,0:0:0:0:
89,185,181782,2,0,P|76:137|83:88,1,100,2|8,0:0|0:0,0:0:0:0:
170,39,182664,1,2,0:0:0:0:
262,77,183105,1,8,0:0:0:0:
351,32,183547,2,0,B|373:72|355:137|351:117|309:178|337:224,1,200,2|2,3:0|3:0,3:0:0:0:
430,187,184870,5,8,0:0:0:0:
413,284,185311,2,0,B|361:341|281:306|281:306|254:332|232:331,1,200,2|2,0:0|0:0,0:0:0:0:
200,236,186635,1,8,0:0:0:0:
108,196,187076,2,0,L|62:216,2,50,2|8|8,0:0|0:0|0:0,0:0:0:0:
133,164,187738,1,8,0:0:0:0:
168,146,187958,6,0,P|218:142|262:164,1,100,6|8,0:0|0:0,0:0:0:0:
298,256,188841,2,0,P|342:277|391:273,1,100,2|8,0:0|0:0,0:0:0:0:
462,202,189723,2,0,L|471:102,1,100,2|8,0:0|0:0,0:0:0:0:
416,19,190605,2,0,B|379:33|379:33|341:24|341:24|304:73|203:73,1,200,2|2,0:0|0:0,0:0:0:0:
138,41,191929,5,8,0:0:0:0:
74,118,192370,2,0,B|60:202|105:247|105:247|97:279|97:279|112:303,1,200,2|8,0:0|0:0,0:0:0:0:
205,267,193694,2,0,L|264:259,1,50,8|2,0:0|0:0,0:0:0:0:
286,235,194135,2,0,P|292:185|278:138,1,100,8|8,0:0|0:3,0:0:0:0:
254,106,194797,1,4,0:3:0:0:
218,87,195017,6,0,L|118:78,1,100,6|8,0:0|0:0,0:0:0:0:
158,170,195899,2,0,L|59:176,1,100,2|8,0:0|0:0,0:0:0:0:
23,269,196782,2,0,P|18:318|36:364,2,100,2|8|2,0:0|0:0|0:0,0:0:0:0:
118,299,198105,2,0,L|167:294,1,50,8|0,0:0|0:0,0:0:0:0:
202,313,198547,6,0,P|241:343|290:345,1,100,2|8,0:0|0:0,0:0:0:0:
374,291,199429,2,0,L|390:192,1,100,2|8,0:0|0:0,0:0:0:0:
301,146,200311,2,0,L|284:244,1,100,2|8,0:0|0:0,0:0:0:0:
196,196,201194,1,10,0:0:0:0:
161,176,201414,2,0,L|112:170,1,50,2|8,0:0|0:0,0:0:0:0:
30,228,202076,6,0,P|11:183|18:134,1,100,6|8,0:0|0:0,0:0:0:0:
100,75,202958,1,2,0:0:0:0:
195,94,203399,1,8,0:0:0:0:
277,37,203841,2,0,P|295:83|287:132,1,100,2|8,0:0|0:0,0:0:0:0:
206,190,204723,2,0,L|156:194,1,50,8|8,0:0|0:0,0:0:0:0:
132,226,205164,2,0,L|82:230,1,50,8|8,0:0|0:0,0:0:0:0:
48,251,205605,1,6,0:0:0:0:
95,340,206047,5,8,0:0:0:0:
182,291,206488,2,0,P|269:333|357:293,1,200,2|6,0:0|0:0,0:0:0:0:
439,236,207811,1,8,0:0:0:0:
420,137,208252,2,0,L|431:37,2,100,2|8|12,0:0|0:0|0:0,0:0:0:0:
338,195,209576,1,8,0:0:0:0:
256,192,210017,12,0,212664,0:0:0:0:
