osu file format v14

[General]
AudioFilename: audio.mp3
AudioLeadIn: 0
PreviewTime: 45027
Countdown: 0
SampleSet: Soft
StackLeniency: 0.9
Mode: 0
LetterboxInBreaks: 0
EpilepsyWarning: 1
WidescreenStoryboard: 1

[Editor]
DistanceSpacing: 2
BeatDivisor: 4
GridSize: 4
TimelineZoom: 1

[Metadata]
Title:Still Into You (Cut Ver.)
TitleUnicode:Still Into You (Cut Ver.)
Artist:Paramore
ArtistUnicode:Paramore
Creator:jiebi
Version:Karxy's Insane
Source:
Tags:english pop rock hayley williams taylor york zac farro gibee games short version -[shady]- nyantiaz karxy my angel ram kuki1537
BeatmapID:2762160
BeatmapSetID:1264300

[Difficulty]
HPDrainRate:4.5
CircleSize:3.8
OverallDifficulty:7.5
ApproachRate:8.5
SliderMultiplier:1.82
SliderTickRate:1

[Events]
//Background and Video events
0,0,"butterfliesc.jpg",0,0
//Break Periods
//Storyboard Layer 0 (Background)
Sprite,Background,Centre,"butterfliesc.jpg",320,240 S,0,11498,,0.551123 F,0,11498,11718,0,1 M,0,11498,39733,230.2246,182.4876,229.5233,221.7643 F,0,11718,39733,1 M,0,39733,39953,229.5233,221.7643,229.5232,221.7643 F,0,39733,39953,1,0
Sprite,Background,Centre,"butterfliesc.jpg",320,240 S,0,46792,,0.4599453 F,0,46792,47012,0,1 F,0,47012,59586,1 F,0,78556,78997,1,0
Sprite,Background,Centre,"butterfliesc.jpg",320,240 M,0,46792,,320,239.2986 F,0,46792,46902,0,0.1613152 S,0,46792,47233,0.4599452,0.5020274 F,0,46902,47012,0.1613152,0.3121097 F,0,47012,47122,0.3121097,0.1718356 F,0,47122,47233,0.1718356,0
Sprite,Background,Centre,"butterfliesc.jpg",320,240 M,0,11498,,320,240 F,0,11498,,0
Sprite,Background,Centre,"butterfliesc.jpg",320,240 M,0,53850,,320,239.2986 F,0,53850,53960,0,0.1613152 S,0,53850,54291,0.4599452,0.5020274 F,0,53960,54070,0.1613152,0.3121097 F,0,54070,54180,0.3121097,0.1718356 F,0,54180,54291,0.1718356,0
Sprite,Background,Centre,"butterfliesc.jpg",320,240 M,0,60909,,320,239.2986 F,0,60909,61019,0,0.1613152 S,0,60909,61350,0.4599452,0.5020274 F,0,61019,61129,0.1613152,0.3121097 F,0,61129,61239,0.3121097,0.1718356 F,0,61239,61350,0.1718356,0
Sprite,Background,Centre,"butterfliesc.jpg",320,240 M,0,67968,,320,239.2986 F,0,67968,68078,0,0.1613152 S,0,67968,68409,0.4599452,0.5020274 F,0,68078,68188,0.1613152,0.3121097 F,0,68188,68298,0.3121097,0.1718356 F,0,68298,68409,0.1718356,0
Sprite,Background,Centre,"butterfliesc.jpg",320,240 M,0,71497,,320,239.2986 F,0,71497,71607,0,0.1613152 S,0,71497,71938,0.4599452,0.5020274 F,0,71607,71717,0.1613152,0.3121097 F,0,71717,71827,0.3121097,0.1718356 F,0,71827,71938,0.1718356,0
Sprite,Background,Centre,"butterfliesc.jpg",320,240 M,0,75027,,320,239.2986 F,0,75027,75137,0,0.1613152 S,0,75027,75468,0.4599452,0.5020274 F,0,75137,75247,0.1613152,0.3121097 F,0,75247,75357,0.3121097,0.1718356 F,0,75357,75468,0.1718356,0
//Storyboard Layer 1 (Fail)
//Storyboard Layer 2 (Pass)
//Storyboard Layer 3 (Foreground)
//Storyboard Layer 4 (Overlay)
//Storyboard Sound Samples

[TimingPoints]
11498,441.176470588235,4,2,1,55,1,0
11498,-121.951219512195,4,2,1,55,0,0
39733,-161.290322580645,4,2,1,35,0,0
46792,-108.695652173913,4,2,1,65,0,1
52968,-108.695652173913,4,2,1,65,0,0
53850,-108.695652173913,4,2,1,65,0,1
60027,-108.695652173913,4,2,1,65,0,0
60909,-108.695652173913,4,2,1,65,0,1
71497,-108.695652173913,4,2,1,65,0,0
75027,-108.695652173913,4,2,1,65,0,1
78556,-108.695652173913,4,2,1,65,0,0

[Colours]
Combo1 : 254,61,142
Combo2 : 106,248,255
Combo3 : 118,66,255

[HitObjects]
1,317,11056,5,2,0:0:0:0:
1,317,11498,2,0,P|18:351|40:404,1,74.6200011386109,4|2,0:0|1:2,0:0:0:0:
104,234,11939,1,10,1:1:0:0:
104,234,12159,1,2,1:2:0:0:
204,326,12380,2,0,P|219:291|235:258,1,74.6200011386109,2|0,1:2|1:0,0:0:0:0:
71,149,12821,1,10,0:0:0:0:
7,214,13042,1,2,0:0:0:0:
71,149,13262,6,0,P|131:139|195:214,1,149.240002277222,2|8,1:2|1:2,0:0:0:0:
71,149,13924,1,2,1:2:0:0:
206,69,14145,2,0,P|202:32|184:0,2,74.6200011386109,2|0|10,1:2|1:0|0:0,0:0:0:0:
126,55,14806,1,6,0:3:0:0:
271,141,15027,6,0,P|327:120|446:83,1,149.240002277222,2|10,1:2|1:1,0:0:0:0:
345,0,15689,1,0,1:0:0:0:
277,48,15909,1,2,1:0:0:0:
367,196,16130,5,8,0:0:0:0:
512,96,16350,1,12,1:2:0:0:
512,96,16792,6,0,P|494:139|481:174,1,74.6200011386109,2|2,1:2|1:2,0:0:0:0:
484,165,17123,1,2,0:0:0:0:
484,165,17233,1,10,1:2:0:0:
412,92,17453,1,2,1:2:0:0:
277,232,17674,1,2,1:2:0:0:
349,159,17894,1,2,1:0:0:0:
460,294,18115,1,10,0:0:0:0:
363,260,18335,1,2,1:2:0:0:
297,339,18556,6,0,P|332:349|371:362,1,74.6200011386109,2|0,1:2|1:0,0:0:0:0:
368,361,18887,1,0,1:0:0:0:
368,361,18998,1,10,1:1:0:0:
281,236,19218,1,0,1:0:0:0:
281,236,19439,1,0,1:0:0:0:
180,305,19659,2,0,P|145:315|106:328,1,74.6200011386109,2|10,1:2|0:1,0:0:0:0:
192,205,20100,1,2,0:0:0:0:
43,245,20321,6,0,P|16:205|51:106,1,149.240002277222,2|8,1:2|1:2,0:0:0:0:
120,23,20983,2,0,P|140:70|168:109,1,74.6200011386109,2|0,1:2|1:0,0:0:0:0:
99,179,21424,1,2,1:2:0:0:
264,94,21645,2,0,P|244:126|231:160,1,74.6200011386109,10|4,0:0|0:3,0:0:0:0:
351,75,22086,6,0,P|305:19|232:21,1,149.240002277222,2|10,1:2|1:1,0:0:0:0:
351,75,22747,1,0,1:0:0:0:
419,27,22967,1,0,1:0:0:0:
493,188,23189,5,8,0:0:0:0:
348,288,23409,1,12,0:0:0:0:
348,288,23850,6,0,P|391:270|426:257,1,74.6200011386109,2|0,1:2|1:0,0:0:0:0:
417,259,24181,1,2,0:0:0:0:
417,259,24291,1,8,1:2:0:0:
350,194,24511,1,2,1:2:0:0:
265,233,24733,1,0,1:0:0:0:
246,370,24953,5,8,0:0:0:0:
163,290,25173,1,0,1:0:0:0:
61,340,25395,1,0,1:0:0:0:
0,220,25615,6,0,P|13:185|29:144,1,74.6200011386109,4|2,1:2|1:2,0:0:0:0:
85,258,26056,1,10,1:2:0:0:
85,258,26277,1,2,1:2:0:0:
122,99,26497,2,0,P|136:136|151:175,1,74.6200011386109,2|0,1:2|1:0,0:0:0:0:
207,61,26939,1,10,0:0:0:0:
139,3,27159,1,2,0:0:0:0:
207,61,27380,6,0,P|268:67|332:10,1,149.240002277222,2|8,1:2|1:2,0:0:0:0:
371,122,28042,1,2,1:2:0:0:
442,29,28262,2,0,P|468:51|485:87,2,74.6200011386109,2|0|8,1:2|1:0|0:0,0:0:0:0:
371,122,28924,1,6,0:3:0:0:
508,225,29145,6,0,P|437:243|360:271,1,149.240002277222,2|10,1:2|1:1,0:0:0:0:
240,148,29806,1,0,1:0:0:0:
307,195,30026,1,0,1:0:0:0:
196,341,30247,5,8,0:0:0:0:
45,237,30467,1,12,0:0:0:0:
45,237,30909,6,0,P|30:273|11:315,1,74.6200011386109,2|2,1:2|1:2,0:0:0:0:
16,305,31240,1,0,1:0:0:0:
16,305,31350,1,10,1:2:0:0:
102,353,31571,1,2,1:2:0:0:
214,229,31792,1,2,1:2:0:0:
135,269,32013,1,2,1:2:0:0:
196,341,32233,1,10,0:0:0:0:
275,300,32454,1,2,1:2:0:0:
361,374,32674,6,0,P|399:358|436:344,1,74.6200011386109,2|0,1:2|1:0,0:0:0:0:
430,347,33005,1,0,1:0:0:0:
430,347,33115,1,10,1:1:0:0:
353,260,33336,2,0,P|365:224|379:190,1,74.6200011386109,2|0,1:2|1:0,0:0:0:0:
444,257,33777,1,2,1:2:0:0:
280,231,33997,2,0,P|292:195|306:161,1,74.6200011386109,10|0,0:0|0:0,0:0:0:0:
444,50,34439,5,2,1:2:0:0:
381,104,34659,2,0,P|421:131|462:130,1,74.6200011386109,2|8,1:2|1:2,0:0:0:0:
357,20,35100,1,2,1:2:0:0:
448,216,35321,2,0,P|494:202|520:171,2,74.6200011386109,2|0|10,1:2|1:0|0:0,0:0:0:0:
381,104,35983,1,6,0:3:0:0:
306,161,36203,6,0,P|250:140|131:103,1,149.240002277222,2|10,1:2|1:1,0:0:0:0:
232,20,36865,1,2,1:2:0:0:
300,68,37085,1,0,1:0:0:0:
210,216,37306,5,8,0:0:0:0:
65,116,37526,1,12,0:0:0:0:
65,116,37968,6,0,P|46:163|30:203,1,74.6200011386109,2|2,1:2|1:2,0:0:0:0:
37,185,38299,1,0,1:0:0:0:
37,185,38409,1,10,1:2:0:0:
116,272,38630,1,2,1:2:0:0:
224,227,38850,1,2,1:2:0:0:
177,376,39071,1,8,0:0:0:0:
94,358,39291,1,2,1:2:0:0:
10,340,39512,1,0,1:0:0:0:
116,272,39733,5,6,0:0:0:0:
116,272,41497,1,2,1:2:0:0:
116,272,42380,6,0,P|169:257|255:331,1,169.259993284973,2|2,0:0|0:0,0:0:0:0:
324,370,43262,1,2,1:2:0:0:
324,370,45248,5,10,0:0:0:0:
334,344,45358,1,8,0:0:0:0:
344,318,45468,1,2,1:2:0:0:
252,150,45689,1,2,1:2:0:0:
117,355,45910,5,10,0:0:0:0:
144,345,46020,1,8,0:0:0:0:
170,336,46130,1,2,1:2:0:0:
299,82,46351,1,10,1:2:0:0:
265,65,46461,1,8,0:0:0:0:
226,67,46571,1,10,0:0:0:0:
192,88,46681,1,8,0:0:0:0:
173,122,46792,6,0,P|221:136|265:156,1,83.7199971895753,6|2,1:2|1:2,0:0:0:0:
426,67,47233,2,0,P|378:102|382:210,1,167.439994379151,10|0,0:0|1:0,0:0:0:0:
349,384,47895,1,2,1:2:0:0:
221,266,48115,1,10,0:0:0:0:
376,202,48336,1,2,0:0:0:0:
503,318,48556,6,0,B|437:301|437:301|404:318|404:318|330:299,1,167.439994379151,2|8,1:2|0:0,0:0:0:0:
343,302,49108,1,2,0:0:0:0:
343,302,49218,1,2,1:2:0:0:
475,202,49439,2,0,P|484:121|425:66,1,167.439994379151,2|8,1:2|0:0,0:0:0:0:
313,138,50100,1,2,0:0:0:0:
376,202,50321,6,0,P|299:169|219:147,1,167.439994379151,6|8,1:2|0:0,0:0:0:0:
121,64,50983,1,2,0:0:0:0:
184,0,51203,2,0,P|107:33|27:55,1,167.439994379151,2|8,1:2|0:0,0:0:0:0:
0,161,51865,1,2,0:0:0:0:
102,136,52086,6,0,P|87:176|73:216,1,83.7199971895753,2|2,1:2|0:0,0:0:0:0:
2,338,52527,1,10,0:0:0:0:
96,297,52747,1,2,1:2:0:0:
172,373,52968,1,2,1:2:0:0:
270,338,53189,1,10,0:0:0:0:
259,309,53299,1,8,0:0:0:0:
250,284,53409,1,10,0:0:0:0:
356,362,53630,1,10,0:0:0:0:
385,370,53740,1,8,0:0:0:0:
411,378,53850,6,0,P|394:342|404:295,1,83.7199971895753,6|2,1:2|1:2,0:0:0:0:
512,151,54292,2,0,P|480:193|366:186,1,167.439994379151,10|0,0:0|1:2,0:0:0:0:
338,4,54953,1,2,1:2:0:0:
503,65,55173,1,10,0:0:0:0:
373,192,55394,1,2,0:0:0:0:
209,130,55615,6,0,B|251:153|280:166|280:166|254:212|231:266,1,167.439994379151,2|8,1:2|0:0,0:0:0:0:
123,301,56277,1,2,1:2:0:0:
171,382,56497,2,0,P|116:322|36:333,1,167.439994379151,2|10,1:2|0:0,0:0:0:0:
86,230,57159,1,2,0:2:0:0:
0,79,57380,6,0,P|80:84|131:22,1,167.439994379151,6|8,1:2|0:0,0:0:0:0:
221,86,58042,1,2,1:2:0:0:
157,148,58262,2,0,P|237:115|312:86,1,167.439994379151,2|8,1:2|0:0,0:0:0:0:
428,17,58924,5,10,1:2:0:0:
419,42,59034,1,8,0:0:0:0:
408,71,59144,1,10,0:0:0:0:
469,171,59365,1,8,0:0:0:0:
480,142,59475,1,8,0:0:0:0:
489,117,59585,1,10,0:0:0:0:
352,203,59806,1,2,1:2:0:0:
508,286,60027,5,10,0:0:0:0:
477,267,60137,1,8,0:0:0:0:
442,266,60247,1,10,0:0:0:0:
412,282,60357,1,8,0:0:0:0:
392,311,60468,1,2,1:2:0:0:
374,336,60579,1,0,1:0:0:0:
347,351,60689,1,2,1:2:0:0:
315,350,60799,1,0,1:0:0:0:
289,334,60909,6,0,B|242:321|206:313|206:313|159:329|153:387,1,167.439994379151,6|8,1:2|0:0,0:0:0:0:
24,235,61571,1,2,1:2:0:0:
91,298,61792,2,0,P|51:313|13:329,1,83.7199971895753,0|0,0:0|1:0,0:0:0:0:
72,150,62233,2,0,P|125:134|212:218,1,167.439994379151,10|0,0:0|1:2,0:0:0:0:
92,297,62895,5,2,0:0:0:0:
244,349,63115,1,10,0:0:0:0:
359,250,63335,1,2,1:2:0:0:
208,196,63556,1,2,1:2:0:0:
167,324,63777,1,2,0:0:0:0:
283,222,63997,1,10,0:0:0:0:
150,248,64218,1,2,0:0:0:0:
300,299,64439,6,0,P|375:321|463:355,1,167.439994379151,6|8,1:2|0:0,0:0:0:0:
353,192,65100,2,0,P|347:151|365:113,1,83.7199971895753,2|0,1:2|0:0,0:0:0:0:
495,217,65542,2,0,P|462:242|421:245,1,83.7199971895753,2|8,1:2|0:0,0:0:0:0:
446,82,65983,2,0,P|484:97|508:131,1,83.7199971895753,2|2,0:0|1:2,0:0:0:0:
281,30,66424,5,2,0:0:0:0:
171,69,66645,1,10,0:0:0:0:
254,153,66865,1,2,1:2:0:0:
364,113,67086,1,2,1:2:0:0:
171,69,67306,5,8,0:0:0:0:
337,237,67527,1,10,0:0:0:0:
254,153,67747,1,0,1:0:0:0:
146,202,67968,6,0,P|106:216|67:231,1,83.7199971895753,6|0,1:2|0:0,0:0:0:0:
122,129,68409,2,0,P|82:143|43:158,1,83.7199971895753,8|0,0:0|0:0,0:0:0:0:
170,275,68850,2,0,P|90:303|12:333,1,167.439994379151,0|8,1:0|0:0,0:0:0:0:
199,383,69512,1,2,0:0:0:0:
251,319,69733,6,0,P|306:306|399:400,1,167.439994379151,2|8,1:2|0:0,0:0:0:0:
447,279,70395,1,12,0:2:0:0:
341,179,70615,1,10,0:0:0:0:
348,197,70725,1,8,0:0:0:0:
357,216,70835,1,8,0:0:0:0:
500,140,71056,1,8,0:0:0:0:
478,132,71166,1,8,0:0:0:0:
457,125,71276,1,10,0:0:0:0:
434,117,71387,1,8,0:0:0:0:
411,109,71497,6,0,P|396:67|377:21,1,83.7199971895753,6|0,1:2|0:0,0:0:0:0:
262,149,71939,2,0,P|304:164|350:183,1,83.7199971895753,8|0,0:0|0:0,0:0:0:0:
249,37,72380,2,0,P|202:23|107:99,1,167.439994379151,2|8,1:2|0:2,0:0:0:0:
11,164,73042,1,0,0:0:0:0:
82,243,73262,6,0,P|39:259|-1:278,1,83.7199971895753,6|0,1:2|0:0,0:0:0:0:
111,86,73703,2,0,P|127:129|143:168,1,83.7199971895753,8|0,0:0|0:0,0:0:0:0:
129,345,74145,5,2,1:2:0:0:
211,384,74365,1,0,0:0:0:0:
274,327,74585,1,8,0:0:0:0:
192,288,74806,1,2,0:0:0:0:
356,366,75027,5,12,0:0:0:0:
284,220,75248,1,0,1:0:0:0:
417,169,75468,1,8,0:0:0:0:
486,311,75689,1,0,1:0:0:0:
284,220,75909,6,0,P|302:163|319:106,1,83.7199971895753,10|0,0:0|1:0,0:0:0:0:
417,169,76350,2,0,P|400:211|385:255,1,83.7199971895753,8|0,0:0|1:0,0:0:0:0:
167,208,76792,5,14,0:0:0:0:
309,140,77013,1,0,1:0:0:0:
261,0,77233,1,8,0:0:0:0:
118,70,77454,1,0,1:0:0:0:
309,140,77674,6,0,P|348:124|388:111,1,83.7199971895753,10|0,0:0|1:0,0:0:0:0:
261,0,78115,1,8,0:0:0:0:
167,208,78336,1,10,0:0:0:0:
356,366,78556,5,2,0:0:0:0:
