osu file format v14

[General]
AudioFilename: audio.mp3
AudioLeadIn: 0
PreviewTime: 45027
Countdown: 0
SampleSet: Soft
StackLeniency: 0.7
Mode: 0
LetterboxInBreaks: 0
WidescreenStoryboard: 1

[Editor]
Bookmarks: 69723,71488,166792,177380,212664
DistanceSpacing: 1
BeatDivisor: 4
GridSize: 32
TimelineZoom: 1.5

[Metadata]
Title:Still Into You
TitleUnicode:Still Into You
Artist:Paramore
ArtistUnicode:Paramore
Creator:-[Shady]-
Version:Smoke's Normal
Source:
Tags:english pop rock Hayley Williams Taylor York Zac Farro Kowari Smoke
BeatmapID:2314198
BeatmapSetID:1074482

[Difficulty]
HPDrainRate:4
CircleSize:3.4
OverallDifficulty:4.4
ApproachRate:4.8
SliderMultiplier:1.1
SliderTickRate:1

[Events]
//Background and Video events
0,0,"Paramore.jpg",0,0
//Break Periods
2,39933,44025
2,166992,176157
//Storyboard Layer 0 (Background)
//Storyboard Layer 1 (Fail)
//Storyboard Layer 2 (Pass)
//Storyboard Layer 3 (Foreground)
//Storyboard Layer 4 (Overlay)
//Storyboard Sound Samples

[TimingPoints]
910,441.176470588235,4,2,1,55,1,0
11498,-100,4,2,1,55,0,0
39733,-100,4,2,1,50,0,0
45248,-100,4,2,1,70,0,0
46792,-95.2380952380952,4,2,1,85,0,1
69733,-100,4,2,1,85,0,0
71498,-100,4,2,1,55,0,0
76792,-97.0873786407767,4,2,1,65,0,0
77113,441.176470588235,4,2,1,65,1,0
77319,441.176470588235,4,2,1,65,1,0
77657,441.176470588235,4,2,1,65,1,0
78557,441.176470588235,4,2,1,55,1,0
78557,-100,4,2,1,55,0,0
106792,-100,4,2,1,50,0,0
112306,-100,4,2,1,70,0,0
113851,-95.2380952380952,4,2,1,85,0,1
138556,-100,4,2,2,65,0,0
166792,-100,4,2,1,50,0,0
177380,-100,4,2,1,55,0,0
179145,-100,4,2,1,70,0,0
180909,-95.2380952380952,4,2,1,85,0,1
209145,-95.2380952380952,4,2,1,90,0,1
212674,-100,4,2,1,50,0,0

[Colours]
Combo1 : 132,240,237
Combo2 : 205,234,138

[HitObjects]
100,318,11498,5,4,0:0:0:0:
200,272,11939,2,0,P|229:276|261:287,1,55,10|2,1:1|1:2,0:0:0:0:
288,326,12380,2,0,P|337:334|387:304,1,110,2|10,1:2|0:0,0:0:0:0:
429,269,13042,1,2,0:0:0:0:
429,269,13262,5,2,1:2:0:0:
366,178,13704,2,0,L|379:106,1,55,8|2,1:2|1:2,0:0:0:0:
385,69,14145,1,2,1:2:0:0:
289,14,14586,2,0,L|220:23,1,55,10|6,0:0|0:3,0:0:0:0:
192,56,15027,5,2,1:2:0:0:
192,56,15248,2,0,L|115:42,1,55,2|10,1:2|1:1,0:0:0:0:
58,121,15909,2,0,L|70:199,1,55,2|8,1:0|0:0,0:0:0:0:
76,229,16351,1,12,1:2:0:0:
172,176,16792,5,0,1:2:0:0:
277,208,17233,2,0,L|344:193,1,55,10|2,1:2|1:2,0:0:0:0:
361,150,17674,2,0,L|343:76,1,55,2|0,1:2|1:0,0:0:0:0:
383,54,18115,2,0,L|442:69,1,55,10|2,0:0|1:2,0:0:0:0:
489,82,18557,5,2,1:2:0:0:
455,186,18998,2,0,P|443:218|431:254,1,55,10|0,1:1|1:0,0:0:0:0:
416,291,19439,1,0,1:0:0:0:
416,291,19659,2,0,P|427:324|434:353,1,55,2|10,1:2|0:1,0:0:0:0:
328,382,20321,6,0,P|278:362|206:343,1,110,2|8,1:2|1:2,0:0:0:0:
180,312,20983,2,0,P|129:338|52:338,1,110,2|2,1:2|1:2,0:0:0:0:
32,309,21645,2,0,L|49:233,1,55,10|4,0:0|0:3,0:0:0:0:
69,208,22086,5,2,1:2:0:0:
69,208,22307,2,0,L|55:134,1,55,2|10,1:2|1:1,0:0:0:0:
11,54,22968,2,0,L|81:65,1,55,0|8,1:0|0:0,0:0:0:0:
119,72,23409,1,12,0:0:0:0:
226,48,23851,6,0,L|203:159,1,110,2|8,1:2|1:2,0:0:0:0:
246,198,24512,1,2,1:2:0:0:
246,198,24733,2,0,L|311:186,1,55,0|8,1:0|0:0,0:0:0:0:
342,153,25174,2,0,L|407:165,1,55,0|0,1:0|1:0,0:0:0:0:
450,172,25615,5,4,1:2:0:0:
478,277,26057,2,0,P|469:306|462:338,1,55,10|2,1:2|1:2,0:0:0:0:
414,355,26498,2,0,P|357:361|297:323,1,110,2|10,1:2|0:0,0:0:0:0:
271,308,27159,1,2,0:0:0:0:
271,308,27380,5,2,1:2:0:0:
207,218,27821,2,0,L|221:149,1,55,8|2,1:2|1:2,0:0:0:0:
230,110,28262,1,2,1:2:0:0:
144,40,28704,2,0,L|82:53,1,55,8|6,0:0|0:3,0:0:0:0:
45,83,29145,6,0,L|70:203,1,110,2|10,1:2|1:1,0:0:0:0:
48,244,29807,1,0,1:0:0:0:
48,244,30027,2,0,L|30:312,1,55,0|8,1:0|0:0,0:0:0:0:
49,349,30468,1,12,0:0:0:0:
156,369,30909,6,0,L|219:350,1,55,2|2,1:2|1:2,0:0:0:0:
261,337,31351,1,10,1:2:0:0:
201,244,31792,2,0,P|206:216|218:179,1,55,2|2,1:2|1:2,0:0:0:0:
243,144,32233,2,0,P|238:116|226:79,1,55,10|2,0:0|1:2,0:0:0:0:
211,38,32674,6,0,P|253:7|331:17,1,110,2|10,1:2|1:1,0:0:0:0:
349,43,33336,2,0,P|402:61|462:72,1,110,2|2,1:2|1:2,0:0:0:0:
508,85,33998,1,10,0:0:0:0:
444,174,34439,5,2,1:2:0:0:
444,174,34659,2,0,P|459:232|474:299,1,110,2|2,1:2|1:2,0:0:0:0:
433,322,35321,2,0,L|376:311,1,55,2|0,1:2|1:0,0:0:0:0:
331,283,35762,2,0,L|274:294,1,55,10|6,0:0|0:3,0:0:0:0:
242,257,36204,5,2,1:2:0:0:
242,257,36424,2,0,L|256:183,1,55,2|10,1:2|1:1,0:0:0:0:
327,122,37086,2,0,P|319:98|311:61,1,55,0|8,1:0|0:0,0:0:0:0:
296,16,37527,1,12,0:0:0:0:
201,71,37968,5,2,1:2:0:0:
94,43,38409,2,0,P|88:74|84:107,1,55,10|2,1:2|1:2,0:0:0:0:
121,138,38851,2,0,P|127:169|131:202,1,55,2|8,1:2|0:0,0:0:0:0:
103,240,39292,2,0,P|97:271|93:304,1,55,2|0,1:2|1:0,0:0:0:0:
121,342,39733,5,6,0:0:0:0:
428,338,45248,6,0,L|412:265,1,55,10|2,0:0|1:2,0:0:0:0:
388,243,45689,1,2,1:2:0:0:
388,243,45909,2,0,L|404:170,1,55,10|2,0:0|1:2,0:0:0:0:
445,156,46351,1,10,1:2:0:0:
445,156,46571,1,10,0:0:0:0:
445,156,46792,6,0,P|438:129|432:93,1,57.7499982376099,6|2,0:0|1:2,0:0:0:0:
423,42,47233,1,10,0:0:0:0:
308,57,47674,2,0,L|246:45,1,57.7499982376099,0|2,1:0|1:2,0:0:0:0:
203,76,48115,1,10,0:2:0:0:
203,76,48336,2,0,P|191:104|190:136,1,57.7499982376099,2|2,0:2|1:2,0:0:0:0:
268,215,48998,6,0,L|282:274,1,57.7499982376099,8|2,0:0|1:2,0:0:0:0:
253,321,49439,2,0,P|197:329|145:287,1,115.49999647522,2|8,1:2|0:0,0:0:0:0:
111,254,50101,1,2,0:0:0:0:
111,254,50321,6,0,L|142:120,1,115.49999647522,4|8,1:2|0:0,0:0:0:0:
42,74,51204,2,0,L|15:186,1,115.49999647522,2|10,1:2|0:0,0:0:0:0:
5,246,51865,1,2,0:0:0:0:
5,246,52086,5,2,1:2:0:0:
66,343,52527,2,0,P|98:335|138:329,1,57.7499982376099,10|2,0:0|1:2,0:0:0:0:
172,302,52968,2,0,P|204:310|244:316,1,57.7499982376099,2|10,1:2|0:0,0:0:0:0:
277,284,53409,1,10,0:0:0:0:
277,284,53630,1,10,0:0:0:0:
277,284,53851,6,0,L|400:250,1,115.49999647522,6|10,1:2|0:0,0:0:0:0:
496,294,54733,2,0,P|501:266|513:224,1,57.7499982376099,2|2,1:2|1:2,0:0:0:0:
488,188,55174,1,10,0:0:0:0:
488,188,55395,2,0,P|483:160|471:118,1,57.7499982376099,2|2,1:2|1:2,0:0:0:0:
486,16,56057,6,0,P|456:15|423:31,1,57.7499982376099,8|2,0:0|1:2,0:0:0:0:
383,58,56498,2,0,P|332:48|260:37,1,115.49999647522,2|8,1:2|0:0,0:0:0:0:
232,82,57159,1,2,0:0:0:0:
232,82,57380,6,0,B|244:123|244:123|269:140|269:140|282:193,1,115.49999647522,6|8,1:2|0:0,0:0:0:0:
208,273,58262,2,0,P|157:283|98:242,1,115.49999647522,2|8,1:2|0:0,0:0:0:0:
72,210,58924,1,2,0:0:0:0:
72,210,59145,6,0,P|81:182|90:139,1,57.7499982376099,2|8,1:2|1:2,0:0:0:0:
103,98,59586,1,10,1:2:0:0:
205,151,60027,2,0,P|233:142|273:136,1,57.7499982376099,10|10,1:2|1:2,0:0:0:0:
312,107,60468,1,10,1:2:0:0:
312,107,60689,1,2,1:2:0:0:
312,107,60909,6,0,B|350:119|350:119|379:106|379:106|425:120,1,115.49999647522,6|8,1:2|0:0,0:0:0:0:
454,166,61571,2,0,P|423:206|424:278,1,115.49999647522,2|0,1:2|1:0,0:0:0:0:
451,317,62233,1,10,0:0:0:0:
348,370,62674,5,2,1:2:0:0:
262,291,63115,2,0,L|200:303,1,57.7499982376099,10|2,0:0|0:0,0:0:0:0:
150,319,63557,2,0,L|88:307,1,57.7499982376099,2|2,1:2|1:2,0:0:0:0:
43,278,63998,2,0,L|61:218,1,57.7499982376099,10|2,0:0|0:0,0:0:0:0:
96,178,64439,6,0,P|88:122|75:62,1,115.49999647522,6|8,1:2|0:0,0:0:0:0:
109,17,65101,2,0,P|169:8|223:48,1,115.49999647522,2|2,1:2|1:2,0:0:0:0:
247,88,65762,1,8,0:0:0:0:
247,88,65983,2,0,L|230:157,1,57.7499982376099,2|0,1:2|1:0,0:0:0:0:
304,235,66645,6,0,L|373:219,1,57.7499982376099,10|2,0:0|1:2,0:0:0:0:
417,230,67086,2,0,L|437:162,1,57.7499982376099,2|8,1:2|0:0,0:0:0:0:
471,131,67527,1,10,0:0:0:0:
389,49,67968,6,0,B|347:57|347:57|326:84|326:84|270:95,1,115.49999647522,4|8,1:2|0:0,0:0:0:0:
183,43,68851,1,0,1:0:0:0:
95,118,69292,2,0,P|104:147|110:180,1,57.7499982376099,8|2,0:0|1:2,0:0:0:0:
123,227,69733,5,6,1:2:0:0:
7,339,71498,5,6,1:2:0:0:
48,237,71939,2,0,L|37:180,1,55,12|4,0:3|1:3,0:0:0:0:
9,135,72380,2,0,L|19:80,1,55,4|4,1:3|1:3,0:0:0:0:
32,27,72821,1,12,0:3:0:0:
129,77,73262,5,4,1:3:0:0:
220,15,73704,2,0,P|246:17|282:31,1,55,12|4,0:3|1:3,0:0:0:0:
306,70,74145,2,0,P|293:99|291:133,1,55,4|4,1:3|1:3,0:0:0:0:
315,170,74586,2,0,P|328:199|330:233,1,55,12|4,0:3|0:2,0:0:0:0:
319,275,75027,1,4,1:3:0:0:
411,335,75468,2,0,L|480:318,1,55,12|4,0:3|1:3,0:0:0:0:
495,276,75909,2,0,P|486:250|478:208,1,55,4|12,1:3|1:3,0:0:0:0:
468,169,76351,1,12,0:3:0:0:
498,63,76792,5,2,1:2:0:0:
498,63,77012,2,0,L|391:52,1,79,8|8,0:0|0:0,0:0:0:0:
337,44,77657,1,8,0:0:0:0:
365,150,78099,2,0,P|335:157|294:161,1,55,8|0,0:2|1:0,0:0:0:0:
256,166,78557,5,6,1:2:0:0:
182,247,78998,2,0,P|191:271|197:300,1,55,10|2,1:1|1:2,0:0:0:0:
159,339,79439,2,0,P|107:349|54:313,1,110,2|10,1:2|0:0,0:0:0:0:
33,279,80101,1,2,0:0:0:0:
33,279,80321,5,2,1:2:0:0:
93,187,80762,2,0,P|89:158|74:123,1,55,8|2,1:2|1:2,0:0:0:0:
65,80,81204,1,2,1:2:0:0:
151,11,81645,2,0,P|181:17|218:29,1,55,8|6,0:0|0:3,0:0:0:0:
256,56,82086,5,2,1:2:0:0:
256,56,82307,2,0,P|291:46|331:39,1,55,2|10,1:2|1:1,0:0:0:0:
412,3,82968,2,0,P|407:33|403:64,1,55,2|8,1:1|0:0,0:0:0:0:
399,112,83409,1,4,0:0:0:0:
479,187,83851,5,2,1:2:0:0:
430,285,84292,2,0,L|352:270,1,55,10|2,1:2|1:2,0:0:0:0:
330,244,84733,2,0,L|252:259,1,55,2|2,1:2|1:2,0:0:0:0:
238,214,85174,2,0,L|253:136,1,55,10|2,0:0|0:0,0:0:0:0:
264,107,85615,5,2,1:2:0:0:
154,114,86057,1,10,1:1:0:0:
154,114,86277,2,0,P|102:98|44:89,1,110,2|2,1:2|1:2,0:0:0:0:
3,123,86939,1,10,0:0:0:0:
55,225,87380,5,2,1:2:0:0:
55,225,87601,2,0,P|78:280|94:329,1,110,2|2,1:2|1:2,0:0:0:0:
120,375,88262,1,2,1:2:0:0:
209,310,88704,2,0,P|236:314|268:322,1,55,10|6,0:0|0:3,0:0:0:0:
316,347,89145,5,2,1:2:0:0:
316,347,89365,2,0,P|347:339|393:332,1,55,2|10,1:2|1:1,0:0:0:0:
475,363,90027,2,0,P|481:332|491:298,1,55,2|8,1:1|0:0,0:0:0:0:
504,257,90468,1,12,0:2:0:0:
427,177,90909,5,2,1:2:0:0:
499,93,91351,2,0,L|482:34,1,55,8|0,1:2|1:0,0:0:0:0:
433,17,91792,2,0,P|406:23|375:35,1,55,2|10,1:2|0:0,0:0:0:0:
337,67,92233,2,0,P|310:61|279:49,1,55,2|6,1:2|1:3,0:0:0:0:
233,29,92674,5,4,0:0:0:0:
155,106,93115,2,0,P|165:137|175:177,1,55,10|2,1:2|1:2,0:0:0:0:
210,196,93556,2,0,P|190:253|174:309,1,110,2|10,1:2|0:0,0:0:0:0:
162,353,94218,1,2,0:0:0:0:
162,353,94439,5,2,1:2:0:0:
54,374,94880,2,0,P|48:342|35:301,1,55,8|2,1:2|1:2,0:0:0:0:
23,268,95321,1,2,1:2:0:0:
85,177,95762,2,0,P|116:182|142:195,1,55,8|6,0:0|0:3,0:0:0:0:
190,220,96204,5,2,1:2:0:0:
190,220,96424,2,0,P|218:210|249:203,1,55,2|10,1:2|1:1,0:0:0:0:
350,182,97086,2,0,P|338:212|330:243,1,55,0|8,1:0|0:0,0:0:0:0:
315,286,97527,1,12,0:0:0:0:
401,353,97968,5,2,1:2:0:0:
487,285,98409,2,0,P|483:258|473:228,1,55,8|2,1:2|1:2,0:0:0:0:
450,181,98851,2,0,L|383:169,1,55,2|2,1:2|1:2,0:0:0:0:
364,125,99292,2,0,L|297:113,1,55,10|2,0:0|0:0,0:0:0:0:
262,88,99733,5,2,1:2:0:0:
173,150,100174,1,10,1:1:0:0:
173,150,100395,2,0,P|122:154|65:117,1,110,2|2,1:2|1:2,0:0:0:0:
35,84,101056,1,10,0:0:0:0:
121,16,101498,5,2,1:2:0:0:
121,16,101718,2,0,P|175:22|231:27,1,110,2|2,1:2|1:2,0:0:0:0:
285,33,102380,1,2,1:2:0:0:
393,14,102821,2,0,L|462:-5,1,55,8|6,0:0|0:3,0:0:0:0:
494,35,103262,5,2,1:2:0:0:
494,35,103483,2,0,P|488:68|477:103,1,55,2|10,1:2|1:1,0:0:0:0:
417,178,104145,2,0,P|427:203|439:237,1,55,2|8,1:1|0:0,0:0:0:0:
456,280,104586,1,12,0:2:0:0:
373,352,105027,5,2,1:2:0:0:
282,288,105468,2,0,P|252:292|218:307,1,55,10|2,1:2|1:2,0:0:0:0:
180,326,105909,2,0,P|153:316|113:306,1,55,2|8,1:2|0:0,0:0:0:0:
72,316,106351,2,0,P|65:290|53:261,1,55,2|0,1:2|1:0,0:0:0:0:
20,221,106792,6,0,P|31:171|47:104,1,110,6|0,0:0|1:0,0:0:0:0:
142,164,107674,2,0,P|195:168|248:137,1,110,0|0,1:0|1:0,0:0:0:0:
287,108,108336,1,2,0:0:0:0:
287,108,108556,6,0,B|320:107|347:138|326:134|347:158|381:162,1,110,2|0,1:2|1:0,0:0:0:0:
482,126,109439,2,0,P|468:182|456:237,1,110,2|0,1:2|1:0,0:0:0:0:
448,287,110101,1,2,0:0:0:0:
448,287,110321,5,2,1:2:0:0:
350,337,110762,1,0,1:0:0:0:
269,262,111204,1,0,1:0:0:0:
171,312,111645,2,0,P|125:279|65:286,1,110,0|0,1:0|1:0,0:0:0:0:
25,256,112306,6,0,P|15:226|6:182,1,55,10|2,0:0|1:2,0:0:0:0:
41,159,112748,1,10,0:0:0:0:
41,159,112968,2,0,P|48:137|61:104,1,55,10|2,0:0|1:2,0:0:0:0:
114,87,113409,1,10,0:0:0:0:
114,87,113630,1,10,0:0:0:0:
114,87,113851,6,0,L|187:70,1,57.7499982376099,6|2,0:0|1:2,0:0:0:0:
217,107,114292,2,0,P|230:166|240:222,1,115.49999647522,10|2,0:0|1:2,0:0:0:0:
243,335,115174,2,0,P|272:328|306:322,1,57.7499982376099,10|2,0:0|0:0,0:0:0:0:
355,338,115615,6,0,P|414:346|472:311,1,115.49999647522,2|8,1:2|0:0,0:0:0:0:
498,211,116498,2,0,L|480:84,1,115.49999647522,2|8,1:2|0:0,0:0:0:0:
438,67,117159,1,2,0:0:0:0:
438,67,117380,6,0,B|398:76|398:76|374:104|374:104|334:115,1,115.49999647522,6|8,1:2|0:0,0:0:0:0:
231,158,118262,2,0,P|233:100|186:49,1,115.49999647522,2|8,1:2|0:0,0:0:0:0:
150,36,118924,1,2,1:2:0:0:
150,36,119145,5,2,1:2:0:0:
38,64,119586,2,0,L|58:138,1,57.7499982376099,10|2,0:0|0:0,0:0:0:0:
86,166,120027,2,0,L|67:228,1,57.7499982376099,2|10,1:2|0:0,0:0:0:0:
87,286,120468,1,10,0:0:0:0:
87,286,120689,1,2,1:2:0:0:
87,286,120909,6,0,P|112:301|157:302,1,57.7499982376099,6|0,1:2|1:2,0:0:0:0:
190,333,121351,2,0,P|242:314|310:297,1,115.49999647522,10|0,0:0|1:2,0:0:0:0:
351,195,122233,2,0,P|341:165|334:129,1,57.7499982376099,10|2,0:0|0:0,0:0:0:0:
364,89,122674,6,0,P|416:78|477:117,1,115.49999647522,2|8,1:2|0:0,0:0:0:0:
497,218,123556,2,0,P|478:281|465:339,1,115.49999647522,2|8,1:2|0:0,0:0:0:0:
415,355,124218,1,2,0:0:0:0:
415,355,124439,6,0,B|381:355|356:329|379:333|348:303|310:303,1,115.49999647522,6|8,1:2|0:0,0:0:0:0:
219,366,125321,2,0,P|208:310|187:244,1,115.49999647522,2|8,1:2|0:0,0:0:0:0:
179,202,125983,1,2,1:2:0:0:
179,202,126204,5,2,1:2:0:0:
85,269,126645,2,0,P|63:269|25:253,1,57.7499982376099,10|2,0:0|1:2,0:0:0:0:
4,204,127086,2,0,P|4:182|20:144,1,57.7499982376099,10|10,0:0|0:0,0:0:0:0:
58,110,127527,1,10,0:0:0:0:
58,110,127748,1,10,0:0:0:0:
58,110,127968,6,0,P|109:118|168:78,1,115.49999647522,6|8,1:2|0:0,0:0:0:0:
208,52,128630,2,0,P|267:68|329:79,1,115.49999647522,2|0,1:2|1:0,0:0:0:0:
376,90,129292,1,10,0:0:0:0:
487,59,129733,5,2,1:2:0:0:
460,171,130174,2,0,L|475:231,1,57.7499982376099,10|2,0:0|0:0,0:0:0:0:
456,282,130615,2,0,L|411:324,1,57.7499982376099,2|2,1:2|1:2,0:0:0:0:
356,328,131056,2,0,L|296:310,1,57.7499982376099,10|2,0:0|0:0,0:0:0:0:
261,268,131498,6,0,B|271:230|271:230|296:209|296:209|309:151,1,115.49999647522,6|8,1:2|0:0,0:0:0:0:
316,109,132159,2,0,P|286:76|203:71,1,115.49999647522,2|2,1:2|1:2,0:0:0:0:
168,91,132821,1,8,0:0:0:0:
168,91,133042,2,0,P|137:82|94:75,1,57.7499982376099,2|6,0:0|1:2,0:0:0:0:
14,139,133704,6,0,L|34:214,1,57.7499982376099,10|2,0:0|1:2,0:0:0:0:
67,238,134145,2,0,L|47:313,1,57.7499982376099,2|8,0:0|0:0,0:0:0:0:
92,334,134586,1,10,0:0:0:0:
199,293,135027,6,0,P|246:286|305:321,1,115.49999647522,6|8,1:2|0:0,0:0:0:0:
401,378,135909,1,0,1:0:0:0:
493,308,136351,2,0,L|477:237,1,57.7499982376099,8|2,0:0|0:0,0:0:0:0:
451,201,136792,6,0,P|461:150|476:81,1,115.49999647522,2|8,1:2|0:0,0:0:0:0:
449,41,137454,1,0,1:0:0:0:
449,41,137674,2,0,P|401:28|336:69,1,115.49999647522,10|8,0:0|0:0,0:0:0:0:
317,109,138336,1,2,1:2:0:0:
317,109,138556,5,6,1:2:0:0:
219,58,138998,2,0,L|205:117,1,55,8|10,0:0|0:1,0:0:0:0:
176,157,139439,2,0,L|203:275,1,110,2|10,1:2|0:0,0:0:0:0:
117,335,140321,5,2,1:3:0:0:
32,264,140762,2,0,L|50:191,1,55,8|10,0:0|0:1,0:0:0:0:
72,162,141204,2,0,L|45:44,1,110,2|10,1:2|1:1,0:0:0:0:
81,11,141865,1,8,1:1:0:0:
81,11,142086,6,0,B|119:19|119:19|145:44|145:44|201:57,1,110,6|8,1:2|0:0,0:0:0:0:
284,19,142968,1,0,1:0:0:0:
362,95,143409,2,0,P|353:123|344:156,1,55,8|8,0:0|0:1,0:0:0:0:
312,191,143851,6,0,P|327:249|342:316,1,110,2|8,1:2|0:0,0:0:0:0:
426,363,144733,2,0,P|440:308|461:241,1,110,0|8,1:0|0:0,0:0:0:0:
492,216,145395,1,0,1:0:0:0:
492,216,145615,6,0,B|485:177|485:177|458:155|458:155|446:101,1,110,6|8,1:2|0:0,0:0:0:0:
443,65,146277,1,10,0:1:0:0:
443,65,146498,1,2,1:2:0:0:
345,116,146939,2,0,P|316:109|280:98,1,55,10|8,0:0|0:1,0:0:0:0:
254,60,147380,6,0,P|196:52|145:96,1,110,2|8,1:2|0:0,0:0:0:0:
127,128,148042,1,10,0:1:0:0:
127,128,148262,1,2,1:2:0:0:
182,223,148704,2,0,L|164:292,1,55,8|8,1:1|1:1,0:0:0:0:
126,312,149145,6,0,P|69:315|11:273,1,110,6|8,1:2|0:0,0:0:0:0:
53,183,150027,1,0,1:0:0:0:
9,82,150468,2,0,P|38:73|70:67,1,55,8|8,0:0|0:1,0:0:0:0:
111,44,150909,6,0,B|150:55|150:55|172:84|172:84|221:100,1,110,2|8,1:2|0:0,0:0:0:0:
310,67,151792,2,0,P|291:125|276:185,1,110,0|8,1:0|0:0,0:0:0:0:
312,215,152454,1,8,0:1:0:0:
312,215,152674,5,4,1:2:0:0:
409,163,153115,1,10,0:0:0:0:
488,238,153556,2,0,P|496:273|501:308,1,55,2|8,1:2|1:1,0:0:0:0:
509,346,153998,1,10,1:2:0:0:
400,328,154439,5,0,1:0:0:0:
400,328,154659,2,0,P|343:336|278:351,1,110,10|10,0:1|0:1,0:0:0:0:
240,368,155321,2,0,P|213:360|171:352,1,55,2|10,1:2|1:1,0:0:0:0:
156,308,155762,2,0,P|164:281|172:239,1,55,10|10,1:2|1:1,0:0:0:0:
184,201,156204,1,2,1:2:0:0:
287,238,156645,1,10,0:0:0:0:
369,165,157086,2,0,L|356:105,1,55,2|8,1:2|1:1,0:0:0:0:
343,57,157527,1,10,1:2:0:0:
252,120,157968,5,2,1:2:0:0:
154,69,158409,1,8,0:0:0:0:
59,126,158851,2,0,L|71:191,1,55,2|8,1:2|1:1,0:0:0:0:
100,225,159292,2,0,L|83:293,1,55,10|8,1:2|1:1,0:0:0:0:
73,331,159733,6,0,P|118:309|178:324,1,110,6|10,1:2|0:0,0:0:0:0:
275,365,160615,2,0,L|347:351,1,55,2|8,1:2|1:1,0:0:0:0:
383,346,161056,1,10,1:2:0:0:
345,247,161498,5,2,1:2:0:0:
345,247,161718,2,0,P|359:197|382:133,1,110,10|10,0:1|1:1,0:0:0:0:
396,90,162380,2,0,P|389:64|372:36,1,55,2|10,1:2|1:1,0:0:0:0:
320,29,162821,2,0,P|294:37|263:44,1,55,10|10,1:2|0:1,0:0:0:0:
214,26,163262,5,2,1:2:0:0:
125,92,163704,1,10,0:0:0:0:
31,33,164145,2,0,P|20:64|13:95,1,55,2|8,1:2|1:1,0:0:0:0:
3,139,164586,1,10,1:2:0:0:
87,209,165027,6,0,P|119:203|157:188,1,55,2|8,1:2|0:1,0:0:0:0:
192,179,165468,1,10,0:0:0:0:
272,103,165909,2,0,P|324:100|383:148,1,110,8|10,0:0|0:0,0:0:0:0:
404,180,166571,1,8,0:0:0:0:
404,180,166792,5,6,1:2:0:0:
84,347,177380,5,0,1:0:0:0:
113,242,177821,1,0,1:0:0:0:
216,208,178262,1,0,1:0:0:0:
306,271,178704,1,0,1:0:0:0:
402,334,179145,5,8,0:0:0:0:
402,334,179365,2,0,P|411:304|426:260,1,55,2|10,1:2|0:0,0:0:0:0:
453,239,179806,1,10,0:0:0:0:
453,239,180027,2,0,P|444:209|429:165,1,55,2|10,1:2|0:0,0:0:0:0:
407,153,180468,1,2,1:2:0:0:
407,153,180689,1,2,1:2:0:0:
407,153,180909,6,0,P|375:160|331:165,1,57.7499982376099,6|2,1:2|1:2,0:0:0:0:
298,136,181351,2,0,P|251:112|184:127,1,115.49999647522,10|0,0:0|1:0,0:0:0:0:
139,225,182233,2,0,P|148:256|154:283,1,57.7499982376099,10|2,0:0|0:0,0:0:0:0:
122,329,182674,6,0,P|67:338|4:291,1,115.49999647522,2|8,1:2|0:0,0:0:0:0:
1,195,183556,2,0,L|25:69,1,115.49999647522,2|8,1:2|0:0,0:0:0:0:
68,46,184218,1,2,0:0:0:0:
68,46,184439,6,0,B|107:57|107:57|124:87|124:87|172:101,1,115.49999647522,6|8,1:2|0:0,0:0:0:0:
267,50,185321,2,0,P|326:42|390:38,1,115.49999647522,2|8,1:2|0:0,0:0:0:0:
443,38,185983,1,2,0:0:0:0:
443,38,186204,5,2,1:2:0:0:
495,141,186645,2,0,L|479:202,1,57.7499982376099,10|2,0:0|1:2,0:0:0:0:
436,234,187086,2,0,L|452:295,1,57.7499982376099,2|10,1:2|0:0,0:0:0:0:
470,354,187527,1,10,0:0:0:0:
470,354,187748,1,10,0:0:0:0:
470,354,187968,6,0,P|438:358|409:366,1,57.7499982376099,6|2,1:2|1:2,0:0:0:0:
360,340,188409,2,0,P|307:324|237:310,1,115.49999647522,10|0,0:0|1:2,0:0:0:0:
142,359,189292,2,0,P|139:330|130:298,1,57.7499982376099,10|2,0:0|0:0,0:0:0:0:
114,247,189733,6,0,P|67:254|-2:204,1,115.49999647522,2|8,1:2|0:0,0:0:0:0:
71,124,190615,2,0,P|131:132|202:146,1,115.49999647522,2|10,1:2|0:0,0:0:0:0:
238,120,191277,1,2,0:2:0:0:
238,120,191498,6,0,B|249:83|249:83|237:53|237:53|256:2,1,115.49999647522,6|8,1:2|0:0,0:0:0:0:
367,17,192380,2,0,L|329:128,1,115.49999647522,2|8,1:2|0:0,0:0:0:0:
318,186,193042,1,10,1:2:0:0:
318,186,193262,5,10,0:0:0:0:
216,131,193704,2,0,P|182:136|149:150,1,57.7499982376099,10|2,0:0|1:2,0:0:0:0:
114,178,194145,2,0,P|123:208|131:246,1,57.7499982376099,10|10,0:0|0:0,0:0:0:0:
164,292,194586,1,2,1:2:0:0:
164,292,194806,1,2,1:2:0:0:
164,292,195027,6,0,B|200:296|230:268|206:269|234:243|273:246,1,115.49999647522,6|8,1:2|0:0,0:0:0:0:
321,258,195689,2,0,P|312:323|351:371,1,115.49999647522,2|0,1:2|1:0,0:0:0:0:
394,376,196351,1,10,0:0:0:0:
490,313,196792,5,2,1:2:0:0:
448,205,197233,2,0,P|451:175|465:133,1,57.7499982376099,10|2,0:0|1:2,0:0:0:0:
492,101,197674,2,0,P|489:71|475:29,1,57.7499982376099,2|2,1:2|0:0,0:0:0:0:
427,24,198115,2,0,L|357:41,1,57.7499982376099,10|2,0:0|0:0,0:0:0:0:
320,66,198556,6,0,B|281:55|281:55|245:68|245:68|189:54,1,115.49999647522,6|8,1:2|0:0,0:0:0:0:
152,48,199218,2,0,L|174:175,1,115.49999647522,2|2,1:2|1:2,0:0:0:0:
181,218,199880,1,8,0:0:0:0:
73,176,200321,5,2,1:2:0:0:
7,271,200762,2,0,L|21:334,1,57.7499982376099,10|2,0:0|1:2,0:0:0:0:
70,355,201204,2,0,P|100:351|129:332,1,57.7499982376099,2|8,1:2|0:0,0:0:0:0:
166,298,201645,1,10,0:0:0:0:
270,341,202086,6,0,P|322:328|397:312,1,115.49999647522,6|8,1:2|0:0,0:0:0:0:
490,356,202968,2,0,P|472:315|492:246,1,115.49999647522,0|8,1:0|0:0,0:0:0:0:
478,192,203630,1,2,0:0:0:0:
478,192,203851,6,0,B|444:193|418:167|439:170|413:142|376:140,1,115.49999647522,2|8,1:2|0:0,0:0:0:0:
332,116,204512,1,12,0:2:0:0:
332,116,204733,2,0,P|303:124|258:132,1,57.7499982376099,10|8,0:0|0:0,0:0:0:0:
231,166,205174,2,0,P|235:202|240:229,1,57.7499982376099,8|10,0:0|0:0,0:0:0:0:
214,274,205615,6,0,P|158:278|105:235,1,115.49999647522,6|8,1:2|0:0,0:0:0:0:
64,139,206498,2,0,P|80:85|96:14,1,115.49999647522,2|8,1:2|0:2,0:0:0:0:
195,81,207380,6,0,B|235:69|235:69|256:40|256:40|304:27,1,115.49999647522,4|8,1:2|0:0,0:0:0:0:
405,5,208262,2,0,L|389:70,1,57.7499982376099,2|0,1:2|0:0,0:0:0:0:
359,109,208704,2,0,L|375:174,1,57.7499982376099,8|2,0:0|0:0,0:0:0:0:
409,210,209145,6,0,P|394:257|377:329,1,115.49999647522,12|8,0:0|0:0,0:0:0:0:
370,381,209806,1,0,1:0:0:0:
370,381,210027,1,10,0:0:0:0:
267,327,210468,2,0,L|206:338,1,57.7499982376099,8|0,0:0|1:0,0:0:0:0:
153,346,210909,5,14,0:0:0:0:
65,269,211351,1,8,0:0:0:0:
138,180,211792,2,0,P|141:122|101:63,1,115.49999647522,10|8,0:0|0:0,0:0:0:0:
72,40,212454,1,10,0:0:0:0:
72,40,212674,5,2,0:0:0:0:
