osu file format v14

[General]
AudioFilename: audio.mp3
AudioLeadIn: 0
PreviewTime: 45027
Countdown: 0
SampleSet: Soft
StackLeniency: 0.7
Mode: 0
LetterboxInBreaks: 0
WidescreenStoryboard: 0

[Editor]
Bookmarks: 69723,71488,166792,177380,212664
DistanceSpacing: 2.1
BeatDivisor: 4
GridSize: 32
TimelineZoom: 1.5

[Metadata]
Title:Still Into You
TitleUnicode:Still Into You
Artist:Paramore
ArtistUnicode:Paramore
Creator:-[Shady]-
Version:Lingering Emotions
Source:
Tags:english pop rock Hayley Williams Taylor York Zac Farro Kowari Smoke
BeatmapID:2248577
BeatmapSetID:1074482

[Difficulty]
HPDrainRate:5.5
CircleSize:4
OverallDifficulty:8
ApproachRate:8.5
SliderMultiplier:1.8
SliderTickRate:1

[Events]
//Background and Video events
0,0,"Paramore.jpg",0,0
//Break Periods
2,166992,176705
//Storyboard Layer 0 (Background)
//Storyboard Layer 1 (Fail)
//Storyboard Layer 2 (Pass)
//Storyboard Layer 3 (Foreground)
//Storyboard Layer 4 (Overlay)
//Storyboard Sound Samples

[TimingPoints]
910,441.176470588235,4,2,1,55,1,0
11498,-125,4,2,1,55,0,0
14917,-125,4,2,1,5,0,0
15027,-125,4,2,1,55,0,0
16020,-125,4,2,1,5,0,0
16130,-125,4,2,1,55,0,0
16240,-125,4,2,1,5,0,0
16351,-125,4,2,1,55,0,0
21976,-125,4,2,1,5,0,0
22086,-125,4,2,1,55,0,0
23079,-125,4,2,1,5,0,0
23189,-125,4,2,1,55,0,0
23299,-125,4,2,1,5,0,0
23409,-125,4,2,1,55,0,0
24843,-125,4,2,1,5,0,0
24954,-125,4,2,1,55,0,0
25064,-125,4,2,1,5,0,0
25174,-125,4,2,1,55,0,0
25284,-125,4,2,1,5,0,0
25395,-125,4,2,1,55,0,0
25505,-125,4,2,1,5,0,0
25615,-125,4,2,1,55,0,0
29034,-125,4,2,1,5,0,0
29145,-125,4,2,1,55,0,0
30137,-125,4,2,1,5,0,0
30248,-125,4,2,1,55,0,0
30358,-125,4,2,1,5,0,0
30468,-125,4,2,1,55,0,0
36093,-125,4,2,1,5,0,0
36204,-125,4,2,1,55,0,0
37196,-125,4,2,1,5,0,0
37307,-125,4,2,1,55,0,0
37417,-125,4,2,1,5,0,0
37527,-125,4,2,1,55,0,0
39733,-166.666666666667,4,2,1,50,0,0
45248,-125,4,2,1,70,0,0
45909,-100,4,2,1,70,0,0
46792,-83.3333333333333,4,2,1,85,0,1
48887,-83.3333333333333,4,2,1,5,0,1
48998,-83.3333333333333,4,2,1,85,0,1
50652,-83.3333333333333,4,2,1,5,0,1
50762,-83.3333333333333,4,2,1,85,0,1
51534,-83.3333333333333,4,2,1,5,0,1
51645,-83.3333333333333,4,2,1,85,0,1
54623,-83.3333333333333,4,2,1,5,0,1
54733,-83.3333333333333,4,2,1,85,0,1
57711,-83.3333333333333,4,2,1,5,0,1
57821,-83.3333333333333,4,2,1,85,0,1
58593,-83.3333333333333,4,2,1,5,0,1
58704,-83.3333333333333,4,2,1,85,0,1
61240,-83.3333333333333,4,2,1,5,0,1
61351,-83.3333333333333,4,2,1,85,0,1
61902,-83.3333333333333,4,2,1,5,0,1
62012,-83.3333333333333,4,2,1,85,0,1
64770,-83.3333333333333,4,2,1,5,0,1
64880,-83.3333333333333,4,2,1,85,0,1
66534,-83.3333333333333,4,2,1,5,0,1
66645,-83.3333333333333,4,2,1,85,0,1
67417,-83.3333333333333,4,2,1,5,0,1
67527,-83.3333333333333,4,2,1,85,0,1
67637,-83.3333333333333,4,2,1,5,0,1
67748,-83.3333333333333,4,2,1,85,0,1
68299,-83.3333333333333,4,2,1,5,0,1
68409,-83.3333333333333,4,2,1,85,0,1
69733,-83.3333333333333,4,2,1,85,0,0
71498,-125,4,2,1,55,0,0
76682,-125,4,2,1,5,0,0
76792,-100,4,2,1,65,0,0
77113,441.176470588235,4,2,1,65,1,0
77319,441.176470588235,4,2,1,65,1,0
77657,441.176470588235,4,2,1,65,1,0
78557,441.176470588235,4,2,1,55,1,0
78557,-125,4,2,1,55,0,0
81976,-125,4,2,1,5,0,0
82086,-125,4,2,1,55,0,0
83079,-125,4,2,1,5,0,0
83189,-125,4,2,1,55,0,0
83299,-125,4,2,1,5,0,0
83409,-125,4,2,1,55,0,0
89034,-125,4,2,1,5,0,0
89145,-125,4,2,1,55,0,0
90137,-125,4,2,1,5,0,0
90248,-125,4,2,1,55,0,0
90358,-125,4,2,1,5,0,0
90468,-125,4,2,1,55,0,0
91902,-125,4,2,1,5,0,0
92012,-125,4,2,1,55,0,0
92123,-125,4,2,1,5,0,0
92233,-125,4,2,1,55,0,0
92343,-125,4,2,1,5,0,0
92454,-125,4,2,1,55,0,0
92564,-125,4,2,1,5,0,0
92674,-125,4,2,1,55,0,0
96093,-125,4,2,1,5,0,0
96204,-125,4,2,1,55,0,0
97196,-125,4,2,1,5,0,0
97306,-125,4,2,1,55,0,0
97417,-125,4,2,1,5,0,0
97527,-125,4,2,1,55,0,0
103152,-125,4,2,1,5,0,0
103262,-125,4,2,1,55,0,0
104255,-125,4,2,1,5,0,0
104365,-125,4,2,1,55,0,0
104476,-125,4,2,1,5,0,0
104586,-125,4,2,1,55,0,0
106792,-166.666666666667,4,2,1,50,0,0
112306,-125,4,2,1,70,0,0
112968,-100,4,2,1,70,0,0
113851,-83.3333333333333,4,2,1,85,0,1
115946,-83.3333333333333,4,2,1,5,0,1
116056,-83.3333333333333,4,2,1,85,0,1
117711,-83.3333333333333,4,2,1,5,0,1
117821,-83.3333333333333,4,2,1,85,0,1
118593,-83.3333333333333,4,2,1,5,0,1
118704,-83.3333333333333,4,2,1,85,0,1
121681,-83.3333333333333,4,2,1,5,0,1
121792,-83.3333333333333,4,2,1,85,0,1
123005,-83.3333333333333,4,2,1,5,0,1
123115,-83.3333333333333,4,2,1,85,0,1
123887,-83.3333333333333,4,2,1,5,0,1
123998,-83.3333333333333,4,2,1,85,0,1
124770,-83.3333333333333,4,2,1,5,0,1
124880,-83.3333333333333,4,2,1,85,0,1
125652,-83.3333333333333,4,2,1,5,0,1
125762,-83.3333333333333,4,2,1,85,0,1
128299,-83.3333333333333,4,2,1,5,0,1
128409,-83.3333333333333,4,2,1,85,0,1
128961,-83.3333333333333,4,2,1,5,0,1
129071,-83.3333333333333,4,2,1,85,0,1
131829,-83.3333333333333,4,2,1,5,0,1
131939,-83.3333333333333,4,2,1,85,0,1
134476,-83.3333333333333,4,2,1,5,0,1
134586,-83.3333333333333,4,2,1,85,0,1
134696,-83.3333333333333,4,2,1,5,0,1
134806,-83.3333333333333,4,2,1,85,0,1
135358,-83.3333333333333,4,2,1,5,0,1
135468,-83.3333333333333,4,2,1,85,0,1
138556,-100,4,2,2,65,0,0
166792,-166.666666666667,4,2,1,50,0,0
177380,-125,4,2,1,55,0,0
179145,-100,4,2,1,70,0,0
180909,-83.3333333333333,4,2,1,85,0,1
183005,-83.3333333333333,4,2,1,5,0,1
183115,-83.3333333333333,4,2,1,85,0,1
183887,-83.3333333333333,4,2,1,5,0,1
183998,-83.3333333333333,4,2,1,85,0,1
184770,-83.3333333333333,4,2,1,5,0,1
184880,-83.3333333333333,4,2,1,85,0,1
185652,-83.3333333333333,4,2,1,5,0,1
185762,-83.3333333333333,4,2,1,85,0,1
190064,-83.3333333333333,4,2,1,5,0,1
190174,-83.3333333333333,4,2,1,85,0,1
191829,-83.3333333333333,4,2,1,5,0,1
191939,-83.3333333333333,4,2,1,85,0,1
192711,-83.3333333333333,4,2,1,5,0,1
192821,-83.3333333333333,4,2,1,85,0,1
193814,-83.3333333333333,4,2,1,5,0,1
193924,-83.3333333333333,4,2,1,85,0,1
194034,-83.3333333333333,4,2,1,5,0,1
194145,-83.3333333333333,4,2,1,85,0,1
195358,-83.3333333333333,4,2,1,5,0,1
195468,-83.3333333333333,4,2,1,85,0,1
196020,-83.3333333333333,4,2,1,5,0,1
196130,-83.3333333333333,4,2,1,85,0,1
198887,-83.3333333333333,4,2,1,5,0,1
198998,-83.3333333333333,4,2,1,85,0,1
201534,-83.3333333333333,4,2,1,5,0,1
201645,-83.3333333333333,4,2,1,85,0,1
201755,-83.3333333333333,4,2,1,5,0,1
201865,-83.3333333333333,4,2,1,85,0,1
202417,-83.3333333333333,4,2,1,5,0,1
202527,-83.3333333333333,4,2,1,85,0,1
204181,-83.3333333333333,4,2,1,5,0,1
204292,-83.3333333333333,4,2,1,85,0,1
204623,-83.3333333333333,4,2,1,5,0,1
204733,-83.3333333333333,4,2,1,85,0,1
205946,-83.3333333333333,4,2,1,5,0,1
206056,-83.3333333333333,4,2,1,85,0,1
207711,-83.3333333333333,4,2,1,5,0,1
207821,-83.3333333333333,4,2,1,85,0,1
209145,-71.4285714285714,4,2,1,90,0,1
212674,-71.4285714285714,4,2,1,50,0,0

[Colours]
Combo1 : 132,240,237
Combo2 : 205,234,138

[HitObjects]
256,192,2674,12,2,11057,0:0:0:0:
304,150,11498,6,0,L|225:140,1,72,4|2,0:0|1:2,0:0:0:0:
196,134,11829,1,0,1:0:0:0:
196,134,11939,1,10,1:1:0:0:
282,56,12159,1,2,1:2:0:0:
131,35,12380,2,0,L|202:44,1,72,2|0,1:2|1:0,0:0:0:0:
366,74,12821,1,10,0:0:0:0:
282,56,13042,1,2,0:0:0:0:
249,225,13262,6,0,P|243:264|252:313,1,72,2|0,1:2|1:0,0:0:0:0:
268,325,13593,1,0,1:0:0:0:
268,325,13704,1,8,1:2:0:0:
318,183,13924,1,2,1:2:0:0:
166,260,14145,2,0,P|121:264|90:253,1,72,2|0,1:2|1:0,0:0:0:0:
248,224,14586,1,10,0:0:0:0:
147,150,14807,2,0,L|138:198,1,36,6|0,0:3|0:0,0:0:0:0:
166,72,15027,6,0,L|244:90,1,72,2|2,1:2|1:2,0:0:0:0:
270,100,15358,1,0,1:0:0:0:
270,100,15468,1,10,1:1:0:0:
221,3,15689,1,0,1:0:0:0:
336,28,15909,6,0,L|377:38,1,36,2|0,1:0|0:0,0:0:0:0:
212,193,16130,2,0,L|246:184,1,36,8|0,0:0|0:0,0:0:0:0:
447,61,16351,2,0,L|446:132,1,72,12|0,1:2|0:0,0:0:0:0:
409,285,16792,6,0,P|371:271|318:272,1,72,2|2,1:2|1:2,0:0:0:0:
307,285,17123,1,0,1:0:0:0:
307,285,17233,1,10,1:2:0:0:
331,149,17454,1,2,1:2:0:0:
212,193,17674,2,0,P|250:207|303:206,1,72,2|0,1:2|1:0,0:0:0:0:
199,54,18115,2,0,P|185:92|186:145,1,72,10|2,0:0|1:2,0:0:0:0:
205,282,18557,6,0,P|165:266|119:263,1,72,2|0,1:2|1:0,0:0:0:0:
106,281,18887,1,0,1:0:0:0:
106,281,18998,2,0,L|94:191,1,72,10|0,1:1|1:0,0:0:0:0:
85,91,19439,1,0,1:0:0:0:
10,226,19659,2,0,L|22:136,1,72,2|10,1:2|0:1,0:0:0:0:
50,20,20101,1,2,0:0:0:0:
154,142,20321,6,0,P|199:145|228:141,1,72,2|0,1:2|1:0,0:0:0:0:
255,121,20652,1,0,1:0:0:0:
255,121,20762,1,8,1:2:0:0:
213,237,20983,2,0,P|258:234|287:238,1,72,2|0,1:2|1:0,0:0:0:0:
382,295,21424,1,2,1:2:0:0:
378,156,21645,1,10,0:0:0:0:
471,198,21865,2,0,P|450:205|434:206,1,36,4|0,0:3|0:0,0:0:0:0:
303,124,22086,6,0,L|312:49,1,72,2|2,1:2|1:2,0:0:0:0:
316,16,22417,1,0,1:0:0:0:
316,16,22527,1,10,1:1:0:0:
378,154,22748,1,0,1:0:0:0:
227,104,22968,6,0,P|206:96|183:95,1,36,0|0,1:0|0:0,0:0:0:0:
148,282,23189,2,0,P|170:257|181:224,1,36,8|0,0:0|0:0,0:0:0:0:
28,128,23409,1,12,0:0:0:0:
28,128,23851,6,0,L|35:205,1,72,2|0,1:2|1:0,0:0:0:0:
41,235,24182,1,0,1:0:0:0:
41,235,24292,1,8,1:2:0:0:
123,145,24512,1,2,1:2:0:0:
148,282,24733,6,0,L|193:297,1,36,0|0,1:0|0:0,0:0:0:0:
278,223,24954,2,0,L|233:238,1,36,8|0,0:0|0:0,0:0:0:0:
257,322,25174,2,0,L|302:337,1,36,0|0,1:0|0:0,0:0:0:0:
368,365,25395,2,0,L|413:380,1,36,0|0,1:0|0:0,0:0:0:0:
474,255,25615,6,0,L|463:177,1,72,4|2,1:2|1:2,0:0:0:0:
457,147,25946,1,0,1:0:0:0:
457,147,26057,1,10,1:2:0:0:
374,264,26277,1,2,1:2:0:0:
316,136,26498,2,0,L|327:58,1,72,2|0,1:2|1:0,0:0:0:0:
306,215,26939,1,10,0:0:0:0:
404,82,27159,1,2,0:0:0:0:
245,46,27380,6,0,P|205:37|166:38,1,72,2|0,1:2|1:0,0:0:0:0:
141,53,27711,1,0,1:0:0:0:
141,53,27821,1,8,1:2:0:0:
204,170,28042,1,2,1:2:0:0:
53,147,28262,2,0,P|93:138|132:139,1,72,2|0,1:2|1:0,0:0:0:0:
277,222,28704,1,8,0:0:0:0:
145,255,28924,2,0,P|139:232|141:211,1,36,6|0,0:3|0:0,0:0:0:0:
284,140,29145,6,0,L|389:131,1,72,2|0,1:2|1:0,0:0:0:0:
391,128,29476,1,0,1:0:0:0:
391,128,29586,1,10,1:1:0:0:
277,59,29807,1,0,1:0:0:0:
277,222,30027,6,0,L|288:278,1,36,0|0,1:0|0:0,0:0:0:0:
408,44,30248,2,0,L|419:-12,1,36,8|0,0:0|0:0,0:0:0:0:
206,101,30468,1,12,0:0:0:0:
206,101,30909,6,0,L|124:120,1,72,2|2,1:2|1:2,0:0:0:0:
100,126,31240,1,0,1:0:0:0:
100,126,31351,1,10,1:2:0:0:
152,27,31571,1,2,1:2:0:0:
211,184,31792,2,0,P|221:223|215:267,1,72,2|2,1:2|1:2,0:0:0:0:
64,233,32233,2,0,P|103:223|147:229,1,72,10|2,0:0|1:2,0:0:0:0:
292,295,32674,6,0,P|332:304|372:304,1,72,2|0,1:2|1:0,0:0:0:0:
395,289,33005,1,0,1:0:0:0:
395,289,33115,1,10,1:1:0:0:
344,145,33336,2,0,P|337:183|339:222,1,72,2|0,1:2|1:0,0:0:0:0:
397,84,33777,1,2,1:2:0:0:
474,230,33998,2,0,P|481:268|479:307,1,72,10|0,0:0|0:0,0:0:0:0:
344,145,34439,6,0,P|306:138|262:144,1,72,2|2,1:2|1:2,0:0:0:0:
243,161,34770,1,0,1:0:0:0:
243,161,34880,1,8,1:2:0:0:
283,17,35101,1,2,1:2:0:0:
186,101,35321,2,0,P|148:108|104:102,1,72,2|0,1:2|1:0,0:0:0:0:
17,9,35762,1,10,0:0:0:0:
75,173,35983,2,0,P|79:195|77:212,1,36,6|0,0:3|0:0,0:0:0:0:
42,314,36204,6,0,L|123:312,1,72,2|2,1:2|1:2,0:0:0:0:
149,310,36534,1,0,1:0:0:0:
149,310,36645,1,10,1:1:0:0:
77,208,36865,1,2,1:2:0:0:
224,199,37086,6,0,L|217:240,1,36,0|0,1:0|0:0,0:0:0:0:
71,79,37307,2,0,L|78:120,1,36,8|0,0:0|0:0,0:0:0:0:
234,318,37527,1,12,0:0:0:0:
234,318,37968,6,0,P|282:301|319:302,1,72,2|2,1:2|1:2,0:0:0:0:
337,309,38299,1,0,1:0:0:0:
337,309,38409,1,10,1:2:0:0:
306,202,38630,1,2,1:2:0:0:
408,240,38851,1,2,1:2:0:0:
225,173,39071,1,8,0:0:0:0:
306,202,39292,1,2,1:2:0:0:
292,119,39512,1,0,1:0:0:0:
145,162,39733,6,0,L|153:219,3,53.9999983520508,6|0|0|0,0:0|1:0|1:0|1:0,0:0:0:0:
60,164,40615,2,0,L|68:107,3,53.9999983520508,0|0|0|0,1:0|1:0|1:0|1:0,0:0:0:0:
121,17,41498,6,0,L|181:23,3,53.9999983520508,2|0|0|0,1:2|1:0|1:0|1:0,0:0:0:0:
259,88,42380,2,0,L|199:94,3,53.9999983520508,0|0|0|0,1:0|1:0|1:0|1:0,0:0:0:0:
184,229,43262,6,0,L|171:162,3,53.9999983520508,2|0|0|0,1:2|1:0|1:0|1:0,0:0:0:0:
274,234,44145,2,0,L|261:301,3,53.9999983520508,0|0|0|0,1:0|1:0|1:0|1:0,0:0:0:0:
358,211,45027,5,2,0:0:0:0:
185,257,45248,1,10,0:0:0:0:
149,264,45358,1,8,0:0:0:0:
114,272,45468,1,2,1:2:0:0:
274,234,45689,1,2,1:2:0:0:
113,100,45909,1,10,0:0:0:0:
123,143,46019,1,8,0:0:0:0:
134,187,46130,1,2,1:2:0:0:
354,101,46351,1,10,1:2:0:0:
346,57,46461,1,8,0:0:0:0:
313,28,46571,1,10,0:0:0:0:
269,26,46681,1,8,0:0:0:0:
234,53,46792,5,6,0:0:0:0:
425,146,47012,1,2,1:2:0:0:
233,239,47233,2,0,P|220:161|223:131,1,107.999996704102,10|0,0:0|0:3,0:0:0:0:
301,280,47674,1,0,1:0:0:0:
134,173,47895,1,2,1:2:0:0:
305,20,48115,1,10,0:2:0:0:
299,175,48336,1,2,1:2:0:0:
168,48,48557,6,0,B|108:49|108:49|71:77|71:77|11:77,1,161.999995056153,2|0,1:2|0:0,0:0:0:0:
38,1,48998,1,8,0:0:0:0:
134,173,49218,1,2,1:2:0:0:
250,40,49439,2,0,L|261:154,1,107.999996704102,2|0,1:2|0:0,0:0:0:0:
113,360,49880,2,0,L|124:246,1,107.999996704102,8|2,0:0|0:0,0:0:0:0:
335,141,50321,6,0,B|423:138|379:198|487:188,1,161.999995056153,4|0,1:2|0:0,0:0:0:0:
461,114,50762,1,8,0:0:0:0:
418,291,50983,1,2,1:2:0:0:
252,140,51204,2,0,B|164:137|208:197|100:187,1,161.999995056153,2|0,1:2|0:0,0:0:0:0:
126,113,51645,1,10,0:0:0:0:
169,290,51866,1,2,0:0:0:0:
293,69,52086,5,2,1:2:0:0:
347,322,52307,1,2,0:0:0:0:
103,187,52527,1,10,0:0:0:0:
378,148,52748,1,2,1:2:0:0:
234,375,52968,1,2,1:2:0:0:
103,187,53189,1,10,0:0:0:0:
89,239,53299,1,8,0:0:0:0:
100,291,53409,1,10,0:0:0:0:
294,132,53630,1,10,0:0:0:0:
308,183,53740,1,8,0:0:0:0:
297,235,53850,5,6,1:2:0:0:
205,53,54071,1,0,1:0:0:0:
180,291,54292,2,0,B|230:287|230:287|283:318|283:318|367:313,1,161.999995056153,10|0,0:0|0:0,0:0:0:0:
377,246,54733,1,2,1:2:0:0:
217,364,54954,1,2,1:2:0:0:
294,132,55174,1,10,0:0:0:0:
407,321,55395,1,2,1:2:0:0:
479,149,55615,6,0,L|358:140,1,107.999996704102,2|0,1:2|0:0,0:0:0:0:
119,116,56057,1,8,0:0:0:0:
341,62,56277,1,2,1:2:0:0:
257,265,56498,2,0,L|378:255,1,107.999996704102,2|0,1:2|0:0,0:0:0:0:
234,65,56939,2,0,L|244:186,1,107.999996704102,8|2,0:0|0:0,0:0:0:0:
29,198,57380,6,0,B|90:193|90:193|139:220|139:220|201:213,1,161.999995056153,6|0,1:2|0:0,0:0:0:0:
243,173,57821,1,8,0:0:0:0:
68,273,58042,1,2,1:2:0:0:
118,64,58262,2,0,B|179:59|179:59|228:86|228:86|290:79,1,161.999995056153,2|0,1:2|0:0,0:0:0:0:
332,34,58703,1,8,0:0:0:0:
157,139,58924,1,2,0:0:0:0:
347,234,59145,5,2,1:2:0:0:
272,80,59365,2,0,L|264:138,1,53.9999983520508,8|0,1:2|1:0,0:0:0:0:
213,333,59586,1,10,1:2:0:0:
213,333,59696,2,0,L|205:279,1,53.9999983520508,8|2,1:2|1:2,0:0:0:0:
104,146,59917,1,8,1:2:0:0:
104,146,60027,2,0,P|139:137|170:143,1,53.9999983520508,10|0,1:2|1:0,0:0:0:0:
286,266,60248,1,10,1:2:0:0:
325,301,60358,1,8,1:2:0:0:
379,301,60468,2,0,P|385:265|381:231,1,53.9999983520508,10|0,1:2|1:0,0:0:0:0:
272,80,60689,2,0,P|266:116|270:150,1,53.9999983520508,2|0,1:2|1:0,0:0:0:0:
466,206,60909,6,0,P|408:173|317:202,1,161.999995056153,6|0,1:2|0:0,0:0:0:0:
286,266,61351,1,8,0:0:0:0:
48,150,61571,2,0,P|106:117|197:146,1,161.999995056153,2|0,1:2|0:0,0:0:0:0:
228,210,62013,1,0,1:0:0:0:
194,23,62233,1,10,0:0:0:0:
125,191,62454,1,0,1:0:0:0:
319,91,62674,6,0,L|440:80,1,107.999996704102,2|2,1:2|0:0,0:0:0:0:
279,18,63115,1,10,0:0:0:0:
397,182,63336,1,2,0:0:0:0:
491,14,63557,1,2,1:2:0:0:
399,202,63777,1,2,1:2:0:0:
272,7,63998,1,10,0:0:0:0:
512,5,64218,1,2,0:0:0:0:
327,271,64439,6,0,B|225:286|262:222|142:240,1,161.999995056153,6|0,1:2|0:0,0:0:0:0:
107,278,64880,1,8,0:0:0:0:
92,93,65101,2,0,L|103:200,1,107.999996704102,2|0,1:2|1:0,0:0:0:0:
265,36,65542,2,0,L|158:47,1,107.999996704102,2|8,1:2|0:0,0:0:0:0:
341,189,65983,2,0,L|330:82,1,107.999996704102,2|0,1:2|1:0,0:0:0:0:
190,222,66424,2,0,L|254:217,1,53.9999983520508,2|0,0:0|0:0,0:0:0:0:
421,199,66645,5,10,0:0:0:0:
233,127,66865,1,2,1:2:0:0:
286,306,67086,1,2,1:2:0:0:
411,61,67307,6,0,L|415:130,1,53.9999983520508,8|0,0:0|0:0,0:0:0:0:
426,331,67527,2,0,L|422:277,1,53.9999983520508,10|0,0:0|0:0,0:0:0:0:
497,195,67748,1,0,1:0:0:0:
281,206,67968,6,0,B|218:203|218:203|165:221|165:221|115:217,1,161.999995056153,4|0,1:2|0:0,0:0:0:0:
47,204,68409,2,0,B|30:161|30:161|45:95,1,107.999996704102,8|0,0:0|0:0,0:0:0:0:
227,280,68851,2,0,B|244:323|244:323|229:389,1,107.999996704102,0|0,1:0|1:0,0:0:0:0:
113,142,69292,1,8,0:0:0:0:
57,315,69512,1,2,1:2:0:0:
104,339,69622,1,0,1:0:0:0:
157,337,69732,1,6,1:2:0:0:
391,77,71498,6,0,L|303:67,1,72,6|4,1:2|0:3,0:0:0:0:
292,59,71829,1,4,0:3:0:0:
292,59,71939,1,12,0:3:0:0:
260,173,72159,2,0,L|272:133,1,36,4|4,1:3|0:3,0:0:0:0:
212,80,72380,1,4,1:3:0:0:
164,173,72601,2,0,L|152:133,1,36,4|4,1:3|0:3,0:0:0:0:
212,65,72821,1,12,0:3:0:0:
217,246,73042,1,4,0:3:0:0:
217,246,73152,1,4,0:3:0:0:
217,246,73262,6,0,L|215:351,1,72,4|4,1:3|0:3,0:0:0:0:
215,346,73593,1,4,0:3:0:0:
215,346,73704,1,12,0:3:0:0:
306,239,73924,2,0,P|329:237|345:237,1,36,4|4,1:3|0:3,0:0:0:0:
416,284,74145,1,4,1:3:0:0:
309,331,74365,2,0,P|332:333|348:333,1,36,4|4,1:3|0:3,0:0:0:0:
431,283,74586,1,12,0:3:0:0:
217,246,74807,2,0,P|211:223|212:205,1,36,4|4,0:2|0:3,0:0:0:0:
267,61,75027,6,0,L|344:55,1,72,4|4,1:3|0:3,0:0:0:0:
367,49,75358,1,4,0:3:0:0:
367,49,75468,1,12,0:3:0:0:
277,141,75689,2,0,L|234:144,1,36,4|4,1:3|0:3,0:0:0:0:
131,100,75909,1,4,1:3:0:0:
339,212,76130,2,0,L|296:215,1,36,12|4,1:3|0:3,0:0:0:0:
131,100,76351,2,0,L|9:113,1,108,12|0,0:3|0:0,0:0:0:0:
23,111,76792,5,2,1:2:0:0:
55,278,77012,1,8,0:0:0:0:
55,278,77113,2,0,L|45:225,1,45,8|0,0:0|0:0,0:0:0:0:
131,100,77319,1,8,0:0:0:0:
131,100,77429,2,0,L|141:153,1,45,8|0,0:0|0:0,0:0:0:0:
189,351,77657,1,8,0:0:0:0:
179,307,77768,1,8,0:0:0:0:
169,263,77877,2,0,L|156:206,1,45,8|0,0:0|1:0,0:0:0:0:
258,43,78098,1,8,0:2:0:0:
285,77,78208,1,0,1:0:0:0:
285,122,78318,1,0,1:0:0:0:
259,157,78429,1,0,1:0:0:0:
217,170,78557,6,0,L|319:165,1,72,6|2,1:2|1:2,0:0:0:0:
317,164,78887,1,0,1:0:0:0:
317,164,78998,1,10,1:1:0:0:
265,266,79218,1,2,1:2:0:0:
413,244,79439,2,0,L|311:239,1,72,2|0,1:2|1:2,0:0:0:0:
497,248,79880,1,10,0:0:0:0:
415,326,80101,1,2,0:0:0:0:
415,158,80321,6,0,L|410:79,1,72,2|0,1:2|1:0,0:0:0:0:
411,57,80652,1,0,1:0:0:0:
411,57,80762,2,0,L|325:61,1,72,8|2,1:2|1:2,0:0:0:0:
316,78,81093,1,2,1:2:0:0:
316,78,81204,2,0,L|230:74,1,72,2|2,1:2|1:2,0:0:0:0:
121,62,81645,1,8,0:0:0:0:
172,171,81865,2,0,P|176:154|175:131,1,36,6|0,0:3|0:0,0:0:0:0:
36,25,82086,6,0,P|32:71|39:107,1,72,2|2,1:2|1:2,0:0:0:0:
58,121,82417,1,0,1:0:0:0:
58,121,82527,1,10,1:1:0:0:
121,62,82748,1,0,1:0:0:0:
148,243,82968,6,0,L|85:236,1,36,2|0,1:1|0:0,0:0:0:0:
204,53,83189,2,0,L|267:46,1,36,8|0,0:0|0:0,0:0:0:0:
233,269,83409,1,4,0:0:0:0:
233,269,83851,6,0,L|311:261,1,72,2|2,1:2|1:2,0:0:0:0:
333,256,84182,1,0,1:0:0:0:
333,256,84292,1,10,1:2:0:0:
258,166,84512,1,2,1:2:0:0:
415,168,84733,2,0,L|337:176,1,72,2|2,1:2|1:2,0:0:0:0:
293,29,85174,2,0,L|312:115,1,72,10|2,0:0|0:0,0:0:0:0:
135,103,85615,6,0,P|175:90|224:90,1,72,2|0,1:2|1:0,0:0:0:0:
232,96,85946,1,0,1:0:0:0:
232,96,86057,1,10,1:1:0:0:
84,169,86277,2,0,P|124:182|173:182,1,72,2|0,1:2|1:0,0:0:0:0:
57,91,86718,1,2,1:2:0:0:
19,218,86939,2,0,L|27:303,1,72,10|0,0:0|0:0,0:0:0:0:
153,183,87380,6,0,P|196:179|238:188,1,72,2|2,1:2|1:2,0:0:0:0:
244,201,87711,1,0,1:0:0:0:
244,201,87821,1,8,1:2:0:0:
193,89,88042,1,2,1:2:0:0:
291,132,88262,2,0,P|334:136|376:127,1,72,2|0,1:2|1:0,0:0:0:0:
427,19,88704,1,10,0:0:0:0:
455,168,88924,2,0,L|450:208,1,36,6|0,0:3|0:0,0:0:0:0:
436,285,89145,6,0,P|399:270|359:268,1,72,2|2,1:2|1:2,0:0:0:0:
338,271,89476,1,0,1:0:0:0:
338,271,89586,1,10,1:1:0:0:
381,362,89807,1,0,1:0:0:0:
276,354,90027,6,0,P|272:328|275:313,1,36,2|0,1:1|0:0,0:0:0:0:
362,131,90248,2,0,P|366:157|363:172,1,36,8|0,0:0|0:0,0:0:0:0:
197,311,90468,1,12,0:2:0:0:
197,311,90909,6,0,L|120:296,1,72,2|0,1:2|1:0,0:0:0:0:
99,287,91240,1,0,1:0:0:0:
99,287,91351,1,8,1:2:0:0:
184,222,91571,1,0,1:0:0:0:
83,178,91792,6,0,L|90:133,1,36,2|0,1:2|0:0,0:0:0:0:
108,68,92012,2,0,L|115:23,1,36,10|0,0:0|0:0,0:0:0:0:
214,76,92233,2,0,L|207:121,1,36,2|0,1:2|0:0,0:0:0:0:
189,186,92453,2,0,L|182:231,1,36,6|0,1:3|0:0,0:0:0:0:
313,159,92674,6,0,P|357:156|388:162,1,72,4|2,0:0|1:2,0:0:0:0:
408,177,93005,1,0,1:0:0:0:
408,177,93115,1,10,1:2:0:0:
321,77,93336,1,2,1:2:0:0:
285,231,93556,2,0,L|295:314,1,72,2|0,1:2|1:0,0:0:0:0:
469,131,93998,1,10,0:0:0:0:
426,284,94218,1,2,0:0:0:0:
314,161,94439,6,0,P|278:156|243:160,1,72,2|0,1:2|1:0,0:0:0:0:
223,181,94770,1,0,1:0:0:0:
223,179,94880,1,8,1:2:0:0:
268,32,95101,1,2,1:2:0:0:
172,113,95321,2,0,L|163:39,1,72,2|0,1:2|1:0,0:0:0:0:
135,202,95762,1,8,0:0:0:0:
54,137,95983,2,0,L|97:133,1,36,6|0,0:3|0:0,0:0:0:0:
145,280,96204,6,0,L|63:288,1,72,2|2,1:2|1:2,0:0:0:0:
45,293,96534,1,0,1:0:0:0:
45,293,96645,1,10,1:1:0:0:
114,364,96865,1,0,1:0:0:0:
222,266,97086,6,0,L|216:216,1,36,0|0,1:0|0:0,0:0:0:0:
194,37,97306,2,0,L|198:72,1,36,8|0,0:0|0:0,0:0:0:0:
302,262,97527,1,12,0:0:0:0:
302,262,97968,6,0,L|398:248,1,72,2|0,1:2|1:0,0:0:0:0:
401,244,98299,1,0,1:0:0:0:
401,244,98409,1,8,1:2:0:0:
291,179,98630,1,2,1:2:0:0:
353,90,98851,2,0,P|367:132|364:162,1,72,2|2,1:2|1:2,0:0:0:0:
222,46,99292,2,0,P|264:32|294:35,1,72,10|2,0:0|0:0,0:0:0:0:
461,201,99733,6,0,P|448:144|456:107,1,72,2|0,1:2|1:2,0:0:0:0:
462,99,100064,1,0,1:0:0:0:
462,99,100174,1,10,1:1:0:0:
494,273,100395,2,0,P|453:281|415:271,1,72,2|0,1:2|1:0,0:0:0:0:
356,210,100836,1,2,1:2:0:0:
393,345,101056,2,0,P|352:337|314:347,1,72,10|0,0:0|0:0,0:0:0:0:
172,378,101498,6,0,L|160:295,1,72,2|2,1:2|1:2,0:0:0:0:
155,278,101829,1,0,1:0:0:0:
155,278,101939,1,8,1:2:0:0:
81,344,102159,1,2,1:2:0:0:
232,264,102380,2,0,L|220:181,1,72,2|0,1:2|1:0,0:0:0:0:
207,31,102821,1,8,0:0:0:0:
104,130,103042,2,0,L|144:124,1,36,6|0,0:3|0:0,0:0:0:0:
319,102,103262,6,0,L|226:114,1,72,2|2,1:2|1:2,0:0:0:0:
215,118,103593,1,0,1:0:0:0:
215,118,103704,1,10,1:1:0:0:
282,14,103924,1,2,1:2:0:0:
356,204,104145,6,0,L|346:248,1,36,2|0,1:1|0:0,0:0:0:0:
474,61,104365,2,0,L|464:105,1,36,8|0,0:0|0:0,0:0:0:0:
418,321,104586,1,12,0:2:0:0:
418,321,105027,6,0,L|440:247,1,72,2|2,1:2|1:2,0:0:0:0:
445,223,105358,1,0,1:0:0:0:
445,223,105468,1,10,1:2:0:0:
340,297,105689,1,2,1:2:0:0:
418,321,105909,1,2,1:2:0:0:
266,267,106130,1,8,0:0:0:0:
327,216,106351,1,2,1:2:0:0:
340,297,106571,1,0,1:0:0:0:
166,233,106792,6,0,L|181:174,1,53.9999983520508,6|0,0:0|0:0,0:0:0:0:
208,104,107233,2,0,L|223:45,1,53.9999983520508,0|0,1:0|0:0,0:0:0:0:
132,24,107674,2,0,L|117:83,1,53.9999983520508,0|0,1:0|0:0,0:0:0:0:
90,153,108115,2,0,L|75:212,1,53.9999983520508,0|2,1:0|0:0,0:0:0:0:
283,113,108556,6,0,L|351:128,1,53.9999983520508,2|0,1:2|0:0,0:0:0:0:
413,145,108998,2,0,L|481:160,1,53.9999983520508,0|0,1:0|0:0,0:0:0:0:
444,255,109439,2,0,L|376:240,1,53.9999983520508,2|0,1:2|0:0,0:0:0:0:
314,223,109880,2,0,L|246:208,1,53.9999983520508,0|0,1:0|0:0,0:0:0:0:
96,115,110321,6,0,L|82:183,1,53.9999983520508,2|0,1:2|0:0,0:0:0:0:
67,240,110762,2,0,L|53:308,1,53.9999983520508,0|0,1:0|0:0,0:0:0:0:
146,313,111204,2,0,L|156:260,1,53.9999983520508,0|0,1:0|0:0,0:0:0:0:
175,188,111645,2,0,L|185:135,1,53.9999983520508,0|0,1:0|0:0,0:0:0:0:
114,34,112086,5,0,1:0:0:0:
268,48,112306,1,10,0:0:0:0:
232,52,112416,1,8,0:0:0:0:
197,60,112527,2,0,P|191:33|193:20,1,36,2|0,1:2|1:0,0:0:0:0:
354,17,112748,2,0,P|360:44|358:57,1,36,10|0,0:0|1:0,0:0:0:0:
338,208,112968,1,10,0:0:0:0:
328,163,113078,1,8,0:0:0:0:
319,119,113188,1,2,1:2:0:0:
374,317,113409,1,10,0:0:0:0:
338,289,113519,1,8,0:0:0:0:
295,278,113629,1,10,0:0:0:0:
250,285,113739,1,8,0:0:0:0:
211,307,113850,5,6,0:0:0:0:
319,119,114071,1,2,1:2:0:0:
135,260,114292,2,0,L|120:144,1,107.999996704102,10|0,0:0|0:0,0:0:0:0:
101,18,114733,1,2,1:2:0:0:
214,217,114954,1,2,1:2:0:0:
52,210,115174,1,10,0:0:0:0:
179,17,115395,1,2,0:0:0:0:
214,217,115615,6,0,B|317:223|259:164|383:168,1,161.999995056153,2|0,1:2|0:0,0:0:0:0:
431,207,116056,1,8,0:0:0:0:
378,48,116277,1,2,1:2:0:0:
347,251,116498,2,0,L|360:364,1,107.999996704102,2|0,1:2|1:0,0:0:0:0:
443,99,116939,2,0,L|430:212,1,107.999996704102,8|2,0:0|0:0,0:0:0:0:
297,32,117380,6,0,B|196:29|261:90|127:74,1,161.999995056153,6|0,1:2|0:0,0:0:0:0:
175,0,117821,1,8,0:0:0:0:
278,107,118042,1,2,1:2:0:0:
80,183,118262,2,0,B|181:180|116:241|250:225,1,161.999995056153,2|0,1:2|0:0,0:2:0:0:
202,151,118703,1,8,0:0:0:0:
99,258,118924,1,2,1:2:0:0:
47,111,119145,5,2,1:2:0:0:
202,151,119365,1,2,0:0:0:0:
5,197,119586,1,10,0:0:0:0:
119,64,119806,1,2,0:0:0:0:
174,297,120027,1,2,1:2:0:0:
47,111,120248,1,10,0:0:0:0:
38,58,120358,1,8,0:0:0:0:
56,7,120468,1,10,0:0:0:0:
202,151,120689,1,2,1:2:0:0:
206,119,120799,1,0,1:0:0:0:
199,87,120909,5,6,1:2:0:0:
162,229,121130,1,0,1:2:0:0:
285,91,121351,2,0,B|302:152|302:152|287:190|287:190|299:246,1,161.999995056153,10|0,0:0|0:0,0:0:0:0:
319,318,121792,1,0,1:2:0:0:
202,151,122012,1,2,0:0:0:0:
380,200,122233,1,10,0:0:0:0:
194,338,122454,1,2,0:0:0:0:
475,343,122674,6,0,B|415:342|415:342|367:318|367:318|318:317,1,161.999995056153,2|0,1:2|0:0,0:0:0:0:
270,372,123115,1,8,0:0:0:0:
247,209,123336,1,2,0:0:0:0:
99,332,123556,2,0,P|75:256|110:176,1,161.999995056153,2|0,1:2|0:0,0:0:0:0:
151,124,123998,1,8,0:0:0:0:
247,209,124218,1,2,0:0:0:0:
274,25,124439,6,0,B|216:26|216:26|172:45|172:45|112:46,1,161.999995056153,6|0,1:2|0:0,0:0:0:0:
40,41,124880,1,8,0:0:0:0:
238,103,125101,1,2,1:2:0:0:
89,188,125321,2,0,B|148:187|148:187|191:208|191:208|251:209,1,161.999995056153,2|0,1:2|0:0,0:0:0:0:
321,201,125762,1,8,0:0:0:0:
121,266,125983,1,2,1:2:0:0:
238,103,126204,5,2,1:2:0:0:
353,269,126424,1,8,0:0:0:0:
333,318,126534,1,8,0:0:0:0:
286,342,126644,1,10,0:0:0:0:
443,336,126865,1,2,1:2:0:0:
355,183,127086,1,10,0:0:0:0:
374,133,127196,1,8,0:0:0:0:
421,109,127306,1,10,0:0:0:0:
282,220,127527,1,10,0:0:0:0:
234,244,127637,1,8,0:0:0:0:
181,252,127747,1,10,0:0:0:0:
128,243,127857,1,8,0:0:0:0:
81,216,127968,6,0,B|75:157|75:157|101:109|101:109|94:54,1,161.999995056153,6|0,1:2|0:0,0:0:0:0:
20,89,128409,1,8,0:0:0:0:
234,244,128630,2,0,B|240:184|240:184|214:136|214:136|221:81,1,161.999995056153,2|0,1:2|0:0,0:0:0:0:
294,119,129071,1,0,1:0:0:0:
171,303,129292,2,0,P|227:325|279:314,1,107.999996704102,10|0,0:0|1:0,0:0:0:0:
381,106,129733,6,0,P|367:160|385:224,1,107.999996704102,2|2,1:2|1:2,0:0:0:0:
482,368,130174,1,10,0:0:0:0:
471,150,130395,1,2,0:0:0:0:
313,250,130615,1,2,1:2:0:0:
484,137,130836,1,2,1:2:0:0:
484,381,131056,1,10,0:0:0:0:
297,240,131277,1,2,0:0:0:0:
503,103,131498,6,0,P|500:40|397:21,1,161.999995056153,6|0,1:2|0:0,0:0:0:0:
359,55,131939,1,8,0:0:0:0:
403,243,132159,2,0,P|407:180|392:130,1,107.999996704102,2|0,1:2|1:0,0:0:0:0:
212,110,132601,2,0,P|285:126|332:115,1,107.999996704102,2|8,1:2|0:0,0:0:0:0:
151,53,133042,1,2,0:0:0:0:
179,258,133262,5,6,1:2:0:0:
48,162,133483,1,2,0:0:0:0:
212,110,133704,1,10,0:0:0:0:
179,258,133924,1,2,1:2:0:0:
81,88,134145,1,2,0:0:0:0:
48,291,134365,6,0,L|105:278,1,53.9999983520508,8|0,0:0|0:0,0:0:0:0:
312,223,134586,2,0,L|259:235,1,53.9999983520508,10|0,0:0|0:0,0:0:0:0:
165,178,134806,1,0,1:0:0:0:
198,344,135027,6,0,B|254:330|254:330|303:343|303:343|363:324,1,161.999995056153,6|0,1:2|0:0,0:0:0:0:
428,294,135468,2,0,L|387:190,1,107.999996704102,8|0,0:0|0:0,0:0:0:0:
323,38,135909,1,0,1:0:0:0:
475,162,136130,1,0,1:0:0:0:
310,222,136351,1,8,0:0:0:0:
445,51,136571,1,2,0:0:0:0:
248,115,136792,6,0,L|129:148,1,107.999996704102,2|0,1:2|0:0,0:0:0:0:
172,23,137233,1,8,0:0:0:0:
221,213,137454,1,0,1:0:0:0:
92,70,137674,5,10,0:0:0:0:
290,23,137895,1,0,1:0:0:0:
96,212,138115,5,8,0:0:0:0:
294,259,138336,1,2,1:2:0:0:
172,23,138556,6,0,P|183:80|150:141,1,90,6|8,1:2|0:1,0:0:0:0:
149,146,138887,1,8,0:1:0:0:
149,146,138998,1,8,0:0:0:0:
265,102,139218,1,10,0:1:0:0:
214,263,139439,2,0,P|211:213|236:168,1,90,2|8,1:2|0:1,0:0:0:0:
254,183,139770,1,8,0:1:0:0:
254,183,139880,2,0,P|304:197|349:186,1,90,10|8,0:0|0:1,0:0:0:0:
411,41,140321,6,0,P|396:101|411:157,1,90,2|8,1:3|0:1,0:0:0:0:
412,151,140652,1,8,0:1:0:0:
412,151,140762,1,8,0:0:0:0:
298,117,140983,1,10,0:1:0:0:
410,237,141204,2,0,P|425:297|410:353,1,90,2|8,1:2|0:1,0:0:0:0:
421,324,141534,1,8,0:1:0:0:
383,337,141645,1,10,1:1:0:0:
345,321,141755,1,8,1:1:0:0:
301,311,141865,1,8,1:1:0:0:
258,320,141975,1,8,1:1:0:0:
221,345,142086,6,0,P|173:362|128:354,1,90,6|8,1:2|0:1,0:0:0:0:
106,350,142417,1,8,0:1:0:0:
106,350,142527,1,8,0:0:0:0:
186,209,142748,1,8,0:1:0:0:
81,266,142968,2,0,L|68:174,1,90,0|8,1:0|0:1,0:0:0:0:
59,137,143299,1,8,0:1:0:0:
59,137,143409,1,8,0:0:0:0:
186,209,143630,1,8,0:1:0:0:
168,55,143851,6,0,P|221:64|266:51,1,90,2|8,1:2|0:1,0:0:0:0:
286,29,144181,1,8,0:1:0:0:
286,29,144292,1,8,0:0:0:0:
239,142,144512,1,8,0:1:0:0:
369,123,144733,1,0,1:0:0:0:
321,281,144954,1,8,0:1:0:0:
316,236,145064,1,8,0:0:0:0:
312,195,145174,1,8,0:0:0:0:
335,362,145395,1,0,1:0:0:0:
426,192,145615,6,0,L|417:287,1,90,6|8,1:2|0:1,0:0:0:0:
407,321,145946,1,8,0:1:0:0:
407,321,146056,1,8,0:0:0:0:
501,251,146277,1,10,0:1:0:0:
369,123,146498,2,0,L|275:144,1,90,2|8,1:2|0:1,0:0:0:0:
242,154,146829,1,8,0:1:0:0:
242,154,146939,1,10,0:0:0:0:
305,42,147159,1,8,0:1:0:0:
163,119,147380,6,0,P|159:172|176:218,1,90,2|8,1:2|0:1,0:0:0:0:
197,236,147711,1,8,0:1:0:0:
197,236,147821,1,8,0:0:0:0:
76,172,148042,1,10,0:1:0:0:
54,307,148262,2,0,P|114:290|148:303,1,90,2|8,1:2|0:1,0:0:0:0:
138,297,148593,1,8,0:1:0:0:
168,325,148704,1,8,1:1:0:0:
204,351,148814,1,8,1:1:0:0:
247,360,148924,1,8,1:1:0:0:
291,352,149034,1,8,1:1:0:0:
328,326,149145,6,0,L|319:228,1,90,6|8,1:2|0:1,0:0:0:0:
316,196,149476,1,8,0:1:0:0:
316,196,149586,1,8,0:0:0:0:
410,266,149806,1,8,0:1:0:0:
392,55,150027,2,0,L|401:153,1,90,0|8,1:0|0:1,0:0:0:0:
404,185,150358,1,8,0:1:0:0:
404,185,150468,1,8,0:0:0:0:
476,102,150688,1,8,0:1:0:0:
316,29,150909,6,0,P|272:24|227:36,1,90,2|8,1:2|0:1,0:0:0:0:
203,67,151240,1,8,0:1:0:0:
203,67,151351,1,8,0:0:0:0:
282,189,151571,1,8,0:1:0:0:
125,160,151792,1,0,1:0:0:0:
278,102,152012,1,8,0:1:0:0:
288,145,152122,1,8,0:0:0:0:
282,189,152233,1,8,0:0:0:0:
125,160,152454,1,8,0:1:0:0:
168,149,152564,1,8,0:1:0:0:
212,155,152674,6,0,P|209:217|228:256,1,90,4|8,1:2|0:1,0:0:0:0:
250,268,153005,1,8,0:1:0:0:
250,268,153115,2,0,P|253:330|234:369,1,90,10|8,0:0|0:1,0:0:0:0:
59,282,153556,1,2,1:2:0:0:
181,308,153777,2,0,L|128:297,1,45,8|8,1:1|1:1,0:0:0:0:
12,213,153998,2,0,L|10:115,1,90,10|8,1:2|0:1,0:0:0:0:
197,120,154439,5,0,1:0:0:0:
87,58,154659,2,0,P|64:56|42:59,2,45,10|8|8,0:1|1:0|0:0,0:0:0:0:
205,20,155101,1,10,0:1:0:0:
121,145,155321,1,2,1:2:0:0:
272,186,155542,1,10,1:1:0:0:
272,186,155652,1,8,1:1:0:0:
272,186,155762,1,10,1:2:0:0:
205,40,155983,1,10,1:1:0:0:
191,238,156204,6,0,P|238:277|280:280,1,90,2|8,1:2|0:1,0:0:0:0:
305,262,156534,1,8,0:1:0:0:
305,262,156645,2,0,P|294:321|302:367,1,90,10|8,0:0|0:1,0:0:0:0:
498,338,157086,2,0,P|451:299|409:296,1,90,2|8,1:2|1:1,0:0:0:0:
384,314,157416,1,8,1:1:0:0:
384,314,157527,2,0,P|395:255|387:209,1,90,10|8,1:2|0:1,0:0:0:0:
273,118,157968,6,0,L|177:130,1,90,2|8,1:2|0:1,0:0:0:0:
139,140,158299,1,8,0:1:0:0:
139,140,158409,2,0,P|150:88|139:45,1,90,8|8,0:0|0:1,0:0:0:0:
9,220,158851,2,0,P|61:209|104:220,1,90,2|8,1:2|1:1,0:0:0:0:
96,216,159181,1,8,1:1:0:0:
130,245,159292,1,10,1:2:0:0:
142,287,159402,1,8,1:1:0:0:
178,314,159512,1,8,1:1:0:0:
222,315,159622,1,8,1:1:0:0:
258,289,159733,6,0,P|277:248|275:195,1,90,6|10,1:2|0:1,0:0:0:0:
253,165,160064,1,8,0:1:0:0:
253,165,160174,2,0,P|303:178|347:169,1,90,10|8,0:0|0:1,0:0:0:0:
444,56,160615,1,2,1:2:0:0:
420,215,160836,1,8,1:1:0:0:
420,215,160946,1,8,1:1:0:0:
420,215,161056,2,0,P|426:163|412:123,1,90,10|8,1:2|0:1,0:0:0:0:
312,37,161498,5,2,1:2:0:0:
253,165,161718,2,0,L|263:215,2,45,10|8|8,0:1|0:1|0:0,0:0:0:0:
163,42,162159,1,10,1:1:0:0:
324,118,162380,1,2,1:2:0:0:
166,162,162601,1,10,1:1:0:0:
166,162,162711,1,8,1:1:0:0:
166,162,162821,1,10,1:2:0:0:
233,0,163042,1,10,0:1:0:0:
361,192,163262,6,0,L|350:295,1,90,2|8,1:2|0:1,0:0:0:0:
340,325,163593,1,8,0:1:0:0:
340,325,163704,2,0,P|289:304|239:306,1,90,10|8,0:0|0:1,0:0:0:0:
109,342,164145,2,0,L|120:239,1,90,2|8,1:2|1:1,0:0:0:0:
130,209,164476,1,8,1:1:0:0:
130,209,164587,2,0,P|181:230|231:228,1,90,10|8,1:2|0:1,0:0:0:0:
345,140,165027,5,2,1:2:0:0:
240,22,165248,1,8,0:1:0:0:
240,22,165358,1,8,0:1:0:0:
240,22,165468,1,10,0:0:0:0:
192,147,165689,1,0,1:0:0:0:
403,73,165909,1,8,0:0:0:0:
424,112,166019,1,8,0:0:0:0:
428,156,166129,1,8,0:0:0:0:
138,80,166351,1,10,0:0:0:0:
116,119,166461,1,8,0:0:0:0:
112,163,166571,1,8,0:0:0:0:
289,334,166792,5,6,1:2:0:0:
46,149,177380,5,0,1:0:0:0:
59,228,177601,1,0,1:0:0:0:
119,109,177821,1,0,1:0:0:0:
141,244,178042,1,0,1:0:0:0:
191,75,178262,1,0,1:0:0:0:
216,266,178483,1,0,1:0:0:0:
264,49,178704,1,0,1:0:0:0:
294,288,178924,1,0,1:0:0:0:
388,158,179145,5,8,0:0:0:0:
344,167,179255,1,8,0:0:0:0:
299,176,179365,2,0,P|290:144|291:126,1,45,2|0,1:2|1:0,0:0:0:0:
457,120,179586,2,0,P|466:152|465:170,1,45,10|0,0:0|1:0,0:0:0:0:
489,335,179806,1,10,0:0:0:0:
478,291,179916,1,8,0:0:0:0:
467,247,180027,2,0,L|420:234,1,45,2|0,1:2|1:0,0:0:0:0:
279,346,180248,1,10,1:2:0:0:
290,302,180358,1,8,0:0:0:0:
306,260,180468,2,0,L|359:271,1,45,2|0,1:2|1:0,0:0:0:0:
407,381,180689,2,0,L|362:371,1,45,2|0,1:2|1:0,0:0:0:0:
216,287,180909,5,6,1:2:0:0:
512,271,181130,1,2,1:2:0:0:
341,163,181351,2,0,P|337:226|354:276,1,107.999996704102,10|0,0:0|0:0,0:0:0:0:
448,99,181792,1,0,1:0:0:0:
262,202,182012,1,2,1:2:0:0:
469,297,182233,1,10,0:0:0:0:
370,82,182454,1,2,0:0:0:0:
282,288,182674,6,0,B|173:292|218:233|87:242,1,161.999995056153,2|0,1:2|0:0,0:0:0:0:
133,321,183115,1,8,0:0:0:0:
262,202,183336,1,2,1:2:0:0:
62,286,183556,2,0,B|55:224|55:224|78:186|78:186|73:122,1,161.999995056153,2|0,1:2|0:0,0:0:0:0:
0,170,183998,1,8,0:0:0:0:
138,323,184218,1,2,0:0:0:0:
203,95,184439,6,0,B|278:91|264:158|368:148,1,161.999995056153,6|0,1:2|0:0,0:0:0:0:
337,64,184880,1,8,0:0:0:0:
300,223,185101,1,2,0:0:0:0:
73,130,185321,2,0,B|146:126|132:193|219:184,1,161.999995056153,2|0,1:2|0:0,0:0:0:0:
203,95,185762,1,8,0:0:0:0:
166,254,185983,1,2,0:0:0:0:
108,30,186204,5,2,1:2:0:0:
27,216,186424,1,2,0:0:0:0:
219,184,186645,1,10,0:0:0:0:
11,67,186865,1,2,1:2:0:0:
135,271,187086,1,2,1:2:0:0:
200,71,187306,1,10,0:0:0:0:
251,59,187416,1,8,0:0:0:0:
302,75,187526,1,10,0:0:0:0:
456,201,187748,1,10,0:0:0:0:
405,217,187858,1,8,0:0:0:0:
354,205,187968,5,6,1:2:0:0:
407,72,188189,1,2,1:2:0:0:
491,273,188409,2,0,L|480:386,1,107.999996704102,10|0,0:0|0:0,0:0:0:0:
292,247,188851,1,0,1:2:0:0:
454,203,189071,1,2,1:2:0:0:
404,368,189292,1,10,0:0:0:0:
479,188,189512,1,2,0:0:0:0:
258,255,189733,6,0,B|201:255|201:255|147:229|147:229|72:228,1,161.999995056153,2|0,1:2|0:0,0:0:0:0:
28,230,190174,1,8,0:0:0:0:
123,364,190395,1,2,1:2:0:0:
210,168,190615,2,0,L|199:53,1,107.999996704102,2|0,1:2|0:0,0:0:0:0:
28,230,191056,2,10,L|39:115,1,107.999996704102,10|2,0:0|0:2,0:0:0:0:
284,106,191498,6,0,B|345:118|345:118|385:149|385:149|438:160,1,161.999995056153,6|0,1:2|0:0,0:0:0:0:
415,71,191939,1,8,0:0:0:0:
311,195,192159,1,2,1:2:0:0:
187,69,192380,2,0,B|126:81|126:81|86:112|86:112|33:123,1,161.999995056153,2|0,1:2|0:0,0:0:0:0:
60,31,192821,1,8,0:0:0:0:
172,149,193042,1,10,1:2:0:0:
182,200,193152,1,8,0:0:0:0:
176,254,193262,5,10,0:0:0:0:
369,189,193483,1,8,0:0:0:0:
316,200,193593,1,8,0:0:0:0:
263,193,193704,2,0,P|258:162|262:131,1,53.9999983520508,10|0,0:0|0:0,0:0:0:0:
442,159,193924,2,0,P|447:190|443:221,1,53.9999983520508,2|0,1:2|0:0,0:0:0:0:
345,321,194145,1,10,0:0:0:0:
297,344,194255,1,8,0:0:0:0:
244,336,194365,1,10,0:0:0:0:
205,300,194475,1,8,0:0:0:0:
186,272,194586,5,2,1:2:0:0:
166,246,194696,1,0,1:0:0:0:
137,230,194806,1,2,1:2:0:0:
104,233,194916,1,0,1:0:0:0:
73,244,195027,6,0,B|71:184|71:184|100:145|100:145|99:54,1,161.999995056153,6|0,1:2|0:0,0:0:0:0:
43,34,195468,1,8,0:0:0:0:
253,244,195689,2,0,B|255:184|255:184|226:145|226:145|227:54,1,161.999995056153,2|0,1:2|0:0,0:0:0:0:
274,28,196130,1,0,1:0:0:0:
160,219,196351,2,0,L|150:343,1,107.999996704102,10|0,0:0|0:0,0:0:0:0:
305,122,196792,5,2,1:2:0:0:
251,332,197012,1,2,0:0:0:0:
144,134,197233,1,10,0:0:0:0:
254,349,197454,1,2,1:2:0:0:
309,109,197674,1,2,1:2:0:0:
124,133,197895,1,2,0:0:0:0:
350,271,198115,1,10,0:0:0:0:
208,46,198336,1,2,0:0:0:0:
137,308,198556,6,0,P|81:288|77:180,1,161.999995056153,6|0,1:2|0:0,0:0:0:0:
124,133,198998,1,8,0:0:0:0:
207,349,199218,2,0,P|214:285|189:237,1,107.999996704102,2|0,1:2|0:0,0:0:0:0:
39,19,199659,2,0,P|32:83|57:131,1,107.999996704102,2|8,1:2|0:0,0:0:0:0:
196,246,200101,1,2,0:0:0:0:
302,20,200321,5,2,1:2:0:0:
124,132,200542,1,2,0:0:0:0:
283,240,200762,1,10,0:0:0:0:
179,23,200983,1,2,1:2:0:0:
113,261,201204,1,2,1:2:0:0:
336,232,201424,6,0,L|275:241,1,53.9999983520508,8|0,0:0|0:0,0:0:0:0:
59,268,201645,2,0,L|112:260,1,53.9999983520508,10|0,0:0|0:0,0:0:0:0:
181,135,201865,1,0,1:0:0:0:
205,343,202086,6,0,B|272:333|272:333|322:349|322:349|389:339,1,161.999995056153,6|0,1:2|0:0,0:0:0:0:
438,320,202527,2,0,L|411:216,1,107.999996704102,8|0,0:0|0:0,0:0:0:0:
372,37,202968,1,0,1:0:0:0:
332,251,203189,1,0,1:0:0:0:
446,78,203409,1,8,0:0:0:0:
503,269,203630,1,2,0:0:0:0:
305,89,203851,6,0,B|210:89|252:148|122:129,1,161.999995056153,2|0,1:2|0:0,0:0:0:0:
92,84,204292,1,8,0:0:0:0:
163,262,204512,2,0,P|167:227|163:200,1,53.9999983520508,12|0,0:2|0:0,0:0:0:0:
18,130,204733,1,10,0:0:0:0:
7,182,204843,1,8,0:0:0:0:
19,234,204953,1,8,0:0:0:0:
209,278,205174,1,8,0:0:0:0:
163,262,205284,1,8,0:0:0:0:
110,264,205395,1,10,0:0:0:0:
70,298,205504,1,8,0:0:0:0:
59,350,205615,6,0,B|117:346|117:346|158:366|158:366|225:363,1,161.999995056153,6|0,1:2|0:0,0:0:0:0:
301,363,206056,2,0,L|284:246,1,107.999996704102,8|0,0:0|0:0,0:0:0:0:
143,80,206498,2,0,L|160:197,1,107.999996704102,2|0,1:2|0:0,0:0:0:0:
199,18,206939,1,8,0:2:0:0:
75,137,207159,1,0,0:0:0:0:
290,258,207380,6,0,B|385:261|336:206|459:217,1,161.999995056153,4|0,1:2|0:0,0:0:0:0:
495,268,207821,2,0,L|476:385,1,107.999996704102,8|0,0:0|0:0,0:0:0:0:
317,174,208262,2,0,L|336:57,1,107.999996704102,2|0,1:2|0:0,0:0:0:0:
415,295,208704,1,8,0:0:0:0:
469,57,208924,1,2,0:0:0:0:
248,116,209145,5,12,0:0:0:0:
504,185,209365,1,0,1:0:0:0:
177,229,209586,5,8,0:0:0:0:
433,160,209806,1,0,1:0:0:0:
159,89,210027,6,0,L|32:60,1,125.999996154785,10|0,0:0|1:0,0:0:0:0:
152,316,210468,2,0,L|279:287,1,125.999996154785,8|0,0:0|1:0,0:0:0:0:
225,44,210909,5,14,0:0:0:0:
152,316,211130,1,0,1:0:0:0:
292,95,211351,5,8,0:0:0:0:
334,355,211571,1,0,1:0:0:0:
78,150,211792,6,0,L|60:279,1,125.999996154785,10|0,0:0|1:0,0:0:0:0:
225,44,212233,1,8,0:0:0:0:
274,287,212454,1,10,0:0:0:0:
259,201,212674,5,2,0:0:0:0:
