osu file format v14

[General]
AudioFilename: audio.mp3
AudioLeadIn: 0
PreviewTime: 45027
Countdown: 0
SampleSet: Soft
StackLeniency: 0.7
Mode: 0
LetterboxInBreaks: 0
WidescreenStoryboard: 1

[Editor]
Bookmarks: 69723,71488,166792,177380,212664
DistanceSpacing: 2.1
BeatDivisor: 4
GridSize: 32
TimelineZoom: 1.5

[Metadata]
Title:Still Into You
TitleUnicode:Still Into You
Artist:Paramore
ArtistUnicode:Paramore
Creator:-[Shady]-
Version:Kowari's Hard
Source:
Tags:english pop rock Hayley Williams Taylor York Zac Farro Kowari Smoke
BeatmapID:2301455
BeatmapSetID:1074482

[Difficulty]
HPDrainRate:5
CircleSize:3.8
OverallDifficulty:6
ApproachRate:7.5
SliderMultiplier:1.8
SliderTickRate:1

[Events]
//Background and Video events
0,0,"Paramore.jpg",0,0
//Break Periods
//Storyboard Layer 0 (Background)
//Storyboard Layer 1 (Fail)
//Storyboard Layer 2 (Pass)
//Storyboard Layer 3 (Foreground)
//Storyboard Layer 4 (Overlay)
//Storyboard Sound Samples

[TimingPoints]
910,441.176470588235,4,2,1,55,1,0
11498,-125,4,2,1,55,0,0
39733,-166.666666666667,4,2,1,50,0,0
45248,-125,4,2,1,70,0,0
46792,-100,4,2,1,85,0,1
69733,-111.111111111111,4,2,1,85,0,0
71498,-125,4,2,1,55,0,0
76792,-100,4,2,1,65,0,0
77012,-91.743119266055,4,2,1,65,0,0
77113,441.176470588235,4,2,1,65,1,0
77319,441.176470588235,4,2,1,65,1,0
77657,441.176470588235,4,2,1,65,1,0
78557,441.176470588235,4,2,1,55,1,0
78557,-125,4,2,1,55,0,0
106792,-166.666666666667,4,2,1,50,0,0
112306,-125,4,2,1,70,0,0
112968,-100,4,2,1,70,0,0
113851,-100,4,2,1,85,0,1
138556,-100,4,2,2,65,0,0
166792,-166.666666666667,4,2,1,50,0,0
177380,-125,4,2,1,55,0,0
179145,-100,4,2,1,70,0,0
180909,-90.9090909090909,4,2,1,85,0,1
209145,-90.9090909090909,4,2,1,90,0,1
212674,-71.4285714285714,4,2,1,50,0,0

[Colours]
Combo1 : 132,240,237
Combo2 : 205,234,138

[HitObjects]
256,192,2674,12,2,11057,0:0:0:0:
491,35,11498,6,0,P|450:20|414:29,1,72,4|2,0:0|1:2,0:0:0:0:
366,115,11939,1,10,1:1:0:0:
366,115,12159,1,2,1:2:0:0:
425,193,12380,2,0,L|415:273,1,72,2|0,1:2|1:0,0:0:0:0:
315,270,12821,2,0,L|325:350,1,72,10|2,0:0|0:0,0:0:0:0:
240,384,13262,6,0,B|182:383|184:339|193:342|192:286|124:306,1,144,2|8,1:2|1:2,0:0:0:0:
55,352,13924,1,2,1:2:0:0:
55,352,14145,2,0,L|42:271,1,72,2|0,1:2|1:0,0:0:0:0:
101,205,14586,1,10,0:0:0:0:
24,146,14807,1,6,0:3:0:0:
81,65,15027,6,0,P|123:54|179:138,1,144,2|10,1:2|1:1,0:0:0:0:
284,108,15689,1,0,1:0:0:0:
284,108,15909,2,0,L|273:197,1,72,2|8,1:0|0:0,0:0:0:0:
256,285,16351,1,12,1:2:0:0:
256,285,16792,6,0,B|306:275|306:275|353:302|353:302|400:293,1,144,2|10,1:2|1:2,0:0:0:0:
480,313,17454,1,2,1:2:0:0:
480,313,17674,2,0,P|500:268|496:236,1,72,2|0,1:2|1:0,0:0:0:0:
433,181,18115,2,0,P|399:150|367:143,1,72,10|2,0:0|1:2,0:0:0:0:
324,62,18557,6,0,L|178:86,1,144,2|10,1:2|1:1,0:0:0:0:
113,146,19218,1,0,1:0:0:0:
113,146,19439,2,0,P|80:123|68:89,1,72,0|2,1:0|1:2,0:0:0:0:
199,176,19880,2,0,L|186:260,1,72,10|2,0:1|0:0,0:0:0:0:
161,338,20321,6,0,P|161:285|78:257,1,144,2|8,1:2|1:2,0:0:0:0:
20,310,20983,2,0,L|26:394,2,72,2|0|2,1:2|1:0|1:2,0:0:0:0:
31,192,21645,2,0,L|41:111,1,72,10|4,0:0|0:3,0:0:0:0:
83,34,22086,5,2,1:2:0:0:
83,34,22307,2,0,B|174:27|118:95|226:82,1,144,2|0,1:2|1:0,0:0:0:0:
300,29,22968,2,0,L|292:113,1,72,0|8,1:0|0:0,0:0:0:0:
279,194,23409,1,12,0:0:0:0:
279,194,23851,6,0,P|316:252|395:238,1,144,2|8,1:2|1:2,0:0:0:0:
448,182,24512,1,2,1:2:0:0:
448,182,24733,2,0,L|439:103,1,72,0|8,1:0|0:0,0:0:0:0:
366,50,25174,1,0,1:0:0:0:
286,100,25395,1,0,1:0:0:0:
279,194,25615,6,0,P|242:252|163:238,1,144,4|10,1:2|1:2,0:0:0:0:
122,168,26277,1,2,1:2:0:0:
122,168,26498,2,0,L|204:157,1,72,2|0,1:2|1:0,0:0:0:0:
248,84,26939,2,0,P|260:40|246:11,1,72,10|2,0:0|0:0,0:0:0:0:
152,6,27380,6,0,L|-6:27,1,144,2|8,1:2|1:2,0:0:0:0:
64,109,28042,1,2,1:2:0:0:
64,109,28262,2,0,P|89:147|93:190,1,72,2|0,1:2|1:0,0:0:0:0:
161,248,28704,2,0,P|146:296|118:316,1,72,8|6,0:0|0:3,0:0:0:0:
49,352,29145,5,2,1:2:0:0:
49,352,29365,2,0,B|96:340|96:340|143:358|143:358|195:346,1,144,0|0,1:0|1:0,0:0:0:0:
261,268,30027,2,0,P|301:275|326:313,1,72,0|8,1:0|0:0,0:0:0:0:
361,381,30468,1,12,0:0:0:0:
361,381,30909,6,0,L|375:221,1,144,2|10,1:2|1:2,0:0:0:0:
433,144,31571,1,2,1:2:0:0:
433,144,31792,2,0,L|426:62,1,72,2|2,1:2|1:2,0:0:0:0:
308,77,32233,2,0,L|315:-5,1,72,10|2,0:0|1:2,0:0:0:0:
350,155,32674,6,0,P|314:112|218:131,1,144,2|10,1:2|1:1,0:0:0:0:
157,185,33336,2,0,L|140:98,2,72,2|0|2,1:2|1:0|1:2,0:0:0:0:
182,287,33998,1,10,0:0:0:0:
182,287,34439,6,0,B|90:264|90:264|44:304,1,144,2|8,1:2|1:2,0:0:0:0:
13,190,35101,1,2,1:2:0:0:
13,190,35321,2,0,P|12:148|31:121,1,72,2|0,1:2|1:0,0:0:0:0:
112,25,35762,2,0,P|110:71|143:98,1,72,10|6,0:0|0:3,0:0:0:0:
218,134,36204,5,2,1:2:0:0:
218,134,36424,2,0,B|304:112|304:112|347:128|350:163,1,144,2|2,1:2|1:2,0:0:0:0:
455,130,37086,2,0,L|447:222,1,72,0|8,1:0|0:0,0:0:0:0:
478,299,37527,1,12,0:0:0:0:
478,299,37968,6,0,P|454:347|360:328,1,144,2|10,1:2|1:2,0:0:0:0:
317,276,38630,1,2,1:2:0:0:
317,276,38851,2,0,L|235:290,1,72,2|8,1:2|0:0,0:0:0:0:
142,196,39292,2,0,L|212:208,1,72,2|0,1:2|1:0,0:0:0:0:
280,138,39733,5,6,0:0:0:0:
276,122,41498,1,2,1:2:0:0:
273,101,43263,1,2,1:2:0:0:
27,346,45248,6,0,L|37:390,2,36,10|8|2,0:0|0:0|1:2,0:0:0:0:
76,227,45689,1,2,1:2:0:0:
128,343,45909,6,0,L|138:387,2,36,10|8|2,0:0|0:0|1:2,0:0:0:0:
182,214,46350,1,10,1:2:0:0:
194,203,46461,1,8,0:0:0:0:
211,199,46571,1,10,0:0:0:0:
226,206,46682,1,8,0:0:0:0:
238,221,46792,6,0,B|192:253|192:253|227:122,1,180,6|10,0:0|0:0,0:0:0:0:
129,79,47454,1,0,0:3:0:0:
209,11,47674,2,0,P|259:10|296:51,1,90,0|2,1:0|1:2,0:0:0:0:
352,144,48115,2,0,P|379:97|378:52,1,90,10|2,0:2|1:2,0:0:0:0:
263,157,48557,6,0,L|452:189,1,180,2|8,1:2|0:0,0:0:0:0:
463,293,49218,1,2,1:2:0:0:
383,367,49439,2,0,P|354:319|359:267,1,90,2|0,1:2|0:0,0:0:0:0:
318,167,49880,2,0,P|270:196|253:235,1,90,8|2,0:0|0:0,0:0:0:0:
159,186,50321,6,0,P|151:260|233:334,1,180,4|8,1:2|0:0,0:0:0:0:
321,282,50983,1,2,1:2:0:0:
321,282,51204,2,0,L|418:268,1,90,2|0,1:2|0:0,0:0:0:0:
504,201,51645,2,0,L|407:187,1,90,10|2,0:0|0:0,0:0:0:0:
391,94,52086,6,0,P|365:42|301:29,1,90,2|2,1:2|0:0,0:0:0:0:
281,101,52527,2,0,P|245:127|201:132,1,90,10|2,0:0|1:2,0:0:0:0:
144,55,52968,5,2,1:2:0:0:
84,132,53189,1,10,0:0:0:0:
84,132,53299,1,8,0:0:0:0:
84,132,53409,1,10,0:0:0:0:
162,205,53630,1,10,0:0:0:0:
162,205,53740,1,8,0:0:0:0:
162,205,53851,6,0,L|147:310,1,90,6|0,1:2|1:0,0:0:0:0:
191,384,54292,2,0,P|179:317|71:313,1,180,10|2,0:0|1:2,0:0:0:0:
28,208,54954,1,2,1:2:0:0:
108,133,55174,2,0,P|136:88|136:46,1,90,10|2,0:0|1:2,0:0:0:0:
54,13,55615,6,0,B|114:34|114:34|171:7|171:7|235:27,1,180,2|8,1:2|0:0,0:0:0:0:
333,27,56277,1,2,1:2:0:0:
392,123,56498,2,0,P|362:184|247:172,1,180,2|8,1:2|0:0,0:0:0:0:
239,111,57159,5,0,1:0:0:0:
242,105,57270,1,0,1:0:0:0:
245,99,57380,2,0,L|260:287,1,180,6|8,1:2|0:0,0:0:0:0:
339,354,58042,1,2,1:2:0:0:
423,297,58262,2,0,B|458:262|453:211|402:188|402:188|330:222,1,180,2|8,1:2|0:0,0:0:0:0:
264,280,58924,5,2,0:0:0:0:
264,280,59145,2,0,L|169:260,1,90,2|8,1:2|1:2,0:0:0:0:
179,273,59476,1,0,1:0:0:0:
182,284,59586,2,0,P|120:326|46:291,1,135,10|8,1:2|1:2,0:0:0:0:
45,296,60027,2,0,L|61:196,1,90,10|10,1:2|1:2,0:0:0:0:
10,59,60468,2,0,L|17:117,3,45,10|0|2|0,1:2|1:0|1:2|1:0,0:0:0:0:
16,126,60909,6,0,B|75:140|94:80|72:85|89:12|178:50,1,180,6|8,1:2|0:0,0:0:0:0:
214,141,61571,2,0,P|147:151|127:266,1,180,2|0,1:2|1:0,0:0:0:0:
199,335,62233,6,0,B|313:304|313:304|354:318|358:351,1,180,10|2,0:0|1:2,0:0:0:0:
435,235,62895,1,2,0:0:0:0:
435,235,63115,2,0,P|387:220|339:242,1,90,10|2,0:0|0:0,0:0:0:0:
299,151,63557,5,2,1:2:0:0:
375,82,63777,1,2,1:2:0:0:
306,7,63998,1,10,0:0:0:0:
222,75,64218,1,2,0:0:0:0:
296,161,64439,6,0,L|315:350,1,180,6|8,1:2|0:0,0:0:0:0:
194,384,65101,2,0,P|153:361|146:315,1,90,2|0,1:2|1:0,0:0:0:0:
62,263,65542,2,0,P|82:209|118:194,1,90,2|8,1:2|0:0,0:0:0:0:
152,93,65983,1,2,1:2:0:0:
152,93,66204,2,0,L|248:113,1,90,0|2,1:0|0:0,0:0:0:0:
315,38,66645,5,10,0:0:0:0:
315,38,66865,1,2,1:2:0:0:
381,115,67086,1,2,1:2:0:0:
346,213,67307,1,8,0:0:0:0:
420,283,67527,2,0,P|480:274|509:239,1,90,10|0,0:0|1:0,0:0:0:0:
432,196,67968,6,0,B|389:249|389:249|433:372,2,180,4|8|0,1:2|0:0|1:0,0:0:0:0:
486,116,69071,1,0,1:0:0:0:
486,116,69292,2,0,P|448:86|397:81,1,90,8|2,0:0|1:2,0:0:0:0:
301,43,69733,6,0,L|319:147,1,80.9999975280763,6|0,1:2|0:0,0:0:0:0:
327,360,71498,6,0,P|285:372|221:297,1,144,6|12,1:2|0:3,0:0:0:0:
272,227,72159,1,4,1:3:0:0:
272,227,72380,2,0,L|351:238,1,72,4|4,1:3|1:3,0:0:0:0:
431,249,72821,1,12,0:3:0:0:
431,249,73262,6,0,L|415:78,1,144,4|12,1:3|0:3,0:0:0:0:
365,38,73924,1,4,1:3:0:0:
365,38,74145,2,0,P|331:63|321:103,1,72,4|4,1:3|1:3,0:0:0:0:
273,172,74586,1,12,0:3:0:0:
200,120,74807,1,4,0:2:0:0:
135,186,75027,6,0,B|57:163|57:163|15:176|8:210,1,144,4|12,1:3|0:3,0:0:0:0:
49,291,75689,1,4,1:3:0:0:
49,291,75909,2,0,L|130:273,1,72,4|12,1:3|1:3,0:0:0:0:
210,246,76351,1,12,0:3:0:0:
210,246,76792,5,2,1:2:0:0:
294,320,77012,2,0,L|279:378,1,45,8|8,0:0|0:0,0:0:0:0:
404,292,77319,2,0,L|392:248,1,45,8|8,0:0|0:0,0:0:0:0:
363,146,77657,5,8,0:0:0:0:
366,136,77768,1,8,0:0:0:0:
375,127,77878,1,8,0:0:0:0:
393,125,77988,1,0,1:0:0:0:
412,136,78098,2,0,L|465:148,3,45,8|0|0|0,0:2|1:0|1:0|1:0,0:0:0:0:
479,151,78557,6,0,P|500:108|420:37,1,144,6|10,1:2|1:1,0:0:0:0:
359,14,79218,1,2,1:2:0:0:
359,14,79439,2,0,L|270:28,1,72,2|0,1:2|1:2,0:0:0:0:
221,89,79880,2,0,L|149:77,1,72,10|2,0:0|0:0,0:0:0:0:
96,4,80321,6,0,B|53:33|53:33|71:135,1,144,2|8,1:2|1:2,0:0:0:0:
150,179,80983,1,2,1:2:0:0:
150,179,81204,2,0,P|156:219|133:255,1,72,2|2,1:2|1:2,0:0:0:0:
42,286,81645,2,0,P|67:316|105:322,1,72,8|6,0:0|0:3,0:0:0:0:
180,369,82086,5,2,1:2:0:0:
180,369,82307,2,0,L|332:348,1,144,2|0,1:2|1:0,0:0:0:0:
380,273,82968,2,0,P|388:237|366:198,1,72,2|8,1:1|0:0,0:0:0:0:
283,174,83409,1,4,0:0:0:0:
283,174,83851,6,0,P|277:126|376:70,1,144,2|10,1:2|1:2,0:0:0:0:
417,7,84512,1,2,1:2:0:0:
474,80,84733,2,0,L|458:163,1,72,2|2,1:2|1:2,0:0:0:0:
388,212,85174,2,0,L|404:295,1,72,10|2,0:0|0:0,0:0:0:0:
468,345,85615,6,0,B|395:353|424:290|325:308,1,144,2|10,1:2|1:1,0:0:0:0:
235,359,86277,2,0,P|283:338|290:236,1,144,2|2,1:2|1:2,0:0:0:0:
226,202,86939,2,0,L|137:217,1,72,10|0,0:0|0:0,0:0:0:0:
54,165,87380,5,2,1:2:0:0:
54,165,87601,2,0,B|137:192|137:192|184:148,1,144,2|2,1:2|1:2,0:0:0:0:
253,93,88262,2,0,P|246:47|225:24,1,72,2|0,1:2|1:0,0:0:0:0:
324,156,88704,2,0,P|306:196|270:215,1,72,10|6,0:0|0:3,0:0:0:0:
328,292,89145,5,2,1:2:0:0:
328,292,89365,2,0,B|412:319|412:319|451:308|453:274,1,144,2|0,1:2|1:0,0:0:0:0:
506,205,90027,2,0,L|496:118,1,72,2|8,1:1|0:0,0:0:0:0:
475,29,90468,1,12,0:2:0:0:
475,29,90909,6,0,B|436:21|436:21|378:50|378:50|331:38,1,144,2|8,1:2|1:2,0:0:0:0:
247,6,91571,1,0,1:0:0:0:
247,6,91792,2,0,P|219:36|218:75,1,72,2|10,1:2|0:0,0:0:0:0:
269,151,92233,1,2,1:2:0:0:
201,219,92454,1,6,1:3:0:0:
263,294,92674,6,0,L|341:286,1,72,4|2,0:0|1:2,0:0:0:0:
193,355,93115,2,0,L|121:347,1,72,10|2,1:2|1:2,0:0:0:0:
48,283,93556,2,0,P|38:244|128:196,1,144,2|10,1:2|0:0,0:0:0:0:
196,218,94218,1,2,0:0:0:0:
252,119,94439,6,0,B|210:126|210:126|168:101|168:101|110:109,1,144,2|8,1:2|1:2,0:0:0:0:
52,47,95101,1,2,1:2:0:0:
52,47,95321,2,0,P|76:10|120:2,1,72,2|0,1:2|1:0,0:0:0:0:
196,27,95762,2,0,L|288:10,1,72,8|6,0:0|0:3,0:0:0:0:
368,56,96204,5,2,1:2:0:0:
368,56,96424,2,0,P|327:42|271:126,1,144,2|0,1:2|1:0,0:0:0:0:
183,151,97086,2,0,L|201:236,1,72,0|8,1:0|0:0,0:0:0:0:
229,321,97527,1,12,0:0:0:0:
229,321,97968,6,0,B|321:287|321:287|365:324,1,144,2|8,1:2|1:2,0:0:0:0:
439,365,98630,1,2,1:2:0:0:
439,365,98851,2,0,P|470:340|479:298,1,72,2|2,1:2|1:2,0:0:0:0:
433,223,99291,1,10,0:0:0:0:
473,142,99512,1,2,0:0:0:0:
410,79,99733,6,0,L|241:101,1,144,2|10,1:2|1:1,0:0:0:0:
168,85,100395,2,0,P|209:88|245:190,1,144,2|2,1:2|1:2,0:0:0:0:
338,204,101056,2,0,P|292:190|219:261,1,144,10|2,0:0|1:2,0:0:0:0:
270,331,101718,6,0,L|345:321,2,72,2|8|2,1:2|1:2|1:2,0:0:0:0:
185,380,102380,2,0,L|86:363,1,72,2|0,1:2|1:0,0:0:0:0:
47,293,102821,1,8,0:0:0:0:
121,228,103042,1,6,0:3:0:0:
51,162,103262,5,2,1:2:0:0:
51,162,103483,2,0,P|39:114|120:52,1,144,2|2,1:2|1:2,0:0:0:0:
181,2,104145,2,0,L|263:19,1,72,2|8,1:1|0:0,0:0:0:0:
352,37,104586,1,12,0:2:0:0:
352,37,105027,6,0,L|316:187,1,144,2|10,1:2|1:2,0:0:0:0:
380,249,105689,1,2,1:2:0:0:
380,249,105909,2,0,P|426:250|456:233,1,72,2|8,1:2|0:0,0:0:0:0:
435,133,106351,2,0,P|389:132|359:149,1,72,2|0,1:2|1:0,0:0:0:0:
297,208,106792,6,0,B|280:212|280:212|220:182|220:182|186:190,3,107.999996704102,6|0|0|0,0:0|1:0|1:0|1:0,0:0:0:0:
133,151,108556,6,0,P|139:112|209:98,3,107.999996704102,2|0|2|0,1:2|1:0|1:2|1:0,0:0:0:0:
300,117,110321,6,0,L|278:11,3,107.999996704102,2|0|0|0,1:2|1:0|1:0|1:0,0:0:0:0:
386,166,112086,5,0,1:0:0:0:
297,255,112306,2,0,L|248:243,2,36,10|8|2,0:0|0:0|1:2,0:0:0:0:
387,318,112748,5,10,0:0:0:0:
387,318,112858,1,0,1:0:0:0:
387,318,112968,2,0,L|439:303,2,45,10|8|2,0:0|0:0|1:2,0:0:0:0:
298,373,113409,1,10,0:0:0:0:
286,380,113520,1,8,0:0:0:0:
269,378,113630,1,10,0:0:0:0:
256,367,113740,1,8,0:0:0:0:
245,351,113851,6,0,B|149:321|149:321|94:328|78:400,2,180,6|10|2,0:0|0:0|1:2,0:0:0:0:
324,271,114954,1,2,1:2:0:0:
295,163,115174,2,0,L|183:193,1,90,10|2,0:0|0:0,0:0:0:0:
96,231,115615,6,0,P|160:216|174:103,1,180,2|8,1:2|0:0,0:0:0:0:
81,71,116277,1,2,1:2:0:0:
174,15,116498,2,0,L|271:36,1,90,2|0,1:2|1:0,0:0:0:0:
336,109,116939,2,0,L|423:89,1,90,8|2,0:0|0:0,0:0:0:0:
495,204,117380,6,0,B|458:192|458:192|374:252|374:252|313:221,1,180,6|8,1:2|0:0,0:0:0:0:
246,198,118042,1,2,1:2:0:0:
246,198,118262,2,0,P|310:218|298:346,1,180,2|8,1:2|0:0,0:2:0:0:
224,366,118924,1,2,1:2:0:0:
147,298,119145,6,0,L|57:282,1,90,2|2,1:2|0:0,0:0:0:0:
135,172,119586,2,0,L|45:156,1,90,10|2,0:0|0:0,0:0:0:0:
173,69,120027,1,2,1:2:0:0:
251,148,120248,1,10,0:0:0:0:
260,143,120358,1,8,0:0:0:0:
268,139,120468,1,10,0:0:0:0:
347,61,120689,1,2,1:2:0:0:
356,67,120799,1,0,1:0:0:0:
367,73,120909,6,0,P|418:62|443:26,1,90,6|0,1:2|1:2,0:0:0:0:
512,156,121351,2,0,B|456:137|444:202|451:198|466:283|380:262,1,180,10|0,0:0|1:2,0:0:0:0:
336,354,122012,1,2,0:0:0:0:
336,354,122233,2,0,L|430:365,1,90,10|2,0:0|0:0,0:0:0:0:
312,258,122674,6,0,P|305:314|189:334,1,180,2|8,1:2|0:0,0:0:0:0:
154,245,123336,1,2,0:0:0:0:
214,152,123556,2,0,L|231:47,1,90,2|0,1:2|1:0,0:0:0:0:
222,45,123887,1,0,1:0:0:0:
211,31,123998,2,0,P|165:12|112:37,1,90,8|2,0:0|0:0,0:0:0:0:
50,100,124439,6,0,B|83:214|83:214|25:264,1,180,6|8,1:2|0:0,0:0:0:0:
96,353,125101,1,2,1:2:0:0:
96,353,125321,2,0,P|145:318|154:274,1,90,2|0,1:2|0:0,0:0:0:0:
251,251,125762,2,0,P|237:202|210:174,1,90,8|2,0:0|1:2,0:0:0:0:
277,93,126204,6,0,L|379:112,1,90,2|8,1:2|0:0,0:0:0:0:
376,119,126534,1,8,0:0:0:0:
384,129,126645,2,0,P|399:174|364:235,1,90,10|2,0:0|1:2,0:0:0:0:
290,261,127086,2,0,L|232:246,2,45,10|8|10,0:0|0:0|0:0,0:0:0:0:
373,333,127527,2,0,L|431:318,3,45,10|8|10|8,0:0|0:0|0:0|0:0,0:0:0:0:
468,332,127968,6,0,P|476:271|378:214,1,180,6|8,1:2|0:0,0:0:0:0:
286,138,128630,2,0,L|186:169,1,90,2|0,1:2|0:0,0:0:0:0:
104,118,129071,1,0,1:0:0:0:
43,212,129292,2,0,P|58:262|95:284,1,90,10|0,0:0|1:0,0:0:0:0:
144,368,129733,6,0,L|248:348,1,90,2|2,1:2|1:2,0:0:0:0:
321,280,130174,2,0,L|217:260,1,90,10|2,0:0|0:0,0:0:0:0:
182,174,130615,5,2,1:2:0:0:
240,83,130836,1,2,1:2:0:0:
341,60,131056,1,10,0:0:0:0:
423,112,131277,1,2,0:0:0:0:
445,224,131498,6,0,B|418:331|418:331|431:373|476:379,1,180,6|8,1:2|0:0,0:0:0:0:
383,308,132159,2,0,P|333:297|287:317,1,90,2|0,1:2|1:0,0:0:0:0:
209,251,132601,2,0,P|162:275|135:321,1,90,2|8,1:2|0:0,0:0:0:0:
36,383,133042,5,2,0:0:0:0:
36,383,133262,2,0,L|29:276,1,90,6|2,1:2|0:0,0:0:0:0:
5,192,133704,5,10,0:0:0:0:
5,192,133924,1,2,1:2:0:0:
82,113,134145,1,2,0:0:0:0:
165,182,134365,1,8,0:0:0:0:
261,130,134586,2,0,P|286:82|279:41,1,90,10|0,0:0|1:0,0:0:0:0:
191,9,135027,6,0,B|147:14|125:56|125:56|65:75|19:23,2,180,6|8|0,1:2|0:0|1:0,0:0:0:0:
287,52,136130,1,0,1:0:0:0:
287,52,136351,2,0,L|385:36,1,90,8|2,0:0|0:0,0:0:0:0:
466,101,136792,6,0,P|462:161|429:186,1,90,2|0,1:2|0:0,0:0:0:0:
403,279,137233,2,0,P|350:281|314:248,1,90,8|0,0:0|1:0,0:0:0:0:
265,181,137674,5,10,0:0:0:0:
192,248,137895,1,0,1:0:0:0:
234,339,138115,1,8,0:0:0:0:
234,339,138336,1,2,1:2:0:0:
168,247,138556,6,0,L|60:265,1,90,6|8,1:2|0:1,0:0:0:0:
72,271,138887,1,8,0:1:0:0:
66,279,138998,1,8,0:0:0:0:
8,183,139218,1,10,0:1:0:0:
55,84,139439,2,0,P|103:65|147:85,1,90,2|8,1:2|0:1,0:0:0:0:
248,60,139880,2,0,P|277:103|267:158,1,90,10|8,0:0|0:1,0:0:0:0:
198,242,140321,6,0,L|319:228,1,90,2|8,1:3|0:1,0:0:0:0:
300,243,140652,1,8,0:1:0:0:
314,254,140762,2,0,L|403:243,1,90,8|10,0:0|0:1,0:0:0:0:
489,167,141204,6,0,P|469:117|417:101,1,90,2|8,1:2|0:1,0:0:0:0:
416,103,141534,1,8,0:1:0:0:
399,111,141645,1,10,1:1:0:0:
320,148,141865,1,8,1:1:0:0:
273,237,142086,5,6,1:2:0:0:
206,153,142306,1,8,0:1:0:0:
206,153,142417,1,8,0:1:0:0:
206,153,142527,2,0,L|223:43,1,90,8|8,0:0|0:1,0:0:0:0:
124,6,142968,5,0,1:0:0:0:
48,82,143189,2,0,L|2:70,2,45,8|8|8,0:1|0:1|0:0,0:0:0:0:
108,171,143630,1,8,0:1:0:0:
46,265,143851,6,0,P|93:214|216:248,1,180,2|8,1:2|0:0,0:0:0:0:
202,241,144402,1,8,0:1:0:0:
206,255,144512,1,8,0:1:0:0:
198,352,144733,2,0,L|311:338,1,90,0|8,1:0|0:1,0:0:0:0:
300,332,145064,1,8,0:0:0:0:
310,325,145174,2,0,P|335:283|330:235,1,90,8|0,0:0|1:0,0:0:0:0:
251,166,145615,6,0,L|268:70,1,90,6|8,1:2|0:1,0:0:0:0:
277,71,145946,1,8,0:1:0:0:
286,67,146056,1,8,0:0:0:0:
372,35,146277,1,10,0:1:0:0:
443,120,146498,2,0,P|421:170|375:192,1,90,2|8,1:2|0:1,0:0:0:0:
374,294,146939,2,0,P|322:303|277:278,1,90,10|8,0:0|0:1,0:0:0:0:
227,201,147380,5,2,1:2:0:0:
144,274,147601,1,8,0:1:0:0:
144,274,147711,1,8,0:1:0:0:
144,274,147821,2,0,L|154:328,2,45,8|0|10,0:0|0:0|0:1,0:0:0:0:
61,187,148262,2,0,L|71:88,1,90,2|8,1:2|0:1,0:0:0:0:
61,84,148593,1,8,0:1:0:0:
53,72,148704,2,0,P|94:40|142:46,1,90,8|8,1:1|1:1,0:0:0:0:
204,122,149145,5,6,1:2:0:0:
317,98,149365,1,8,0:1:0:0:
317,98,149476,1,8,0:1:0:0:
317,98,149586,2,0,L|324:-7,1,90,8|8,0:0|0:1,0:0:0:0:
386,178,150027,5,0,1:0:0:0:
305,246,150248,2,0,L|256:232,2,45,8|8|8,0:1|0:1|0:0,0:0:0:0:
369,336,150689,1,8,0:1:0:0:
452,269,150909,6,0,P|477:221|469:174,1,90,2|8,1:2|0:1,0:0:0:0:
466,168,151240,1,8,0:1:0:0:
455,154,151351,2,0,P|414:127|371:133,1,90,8|8,0:0|0:1,0:0:0:0:
306,62,151792,6,0,L|202:42,1,90,0|8,1:0|0:1,0:0:0:0:
198,42,152123,1,8,0:0:0:0:
184,40,152233,1,8,0:0:0:0:
86,126,152454,1,8,0:1:0:0:
99,134,152564,1,8,0:1:0:0:
109,143,152674,2,0,P|124:191|104:233,1,90,4|8,1:2|0:1,0:0:0:0:
21,277,153115,6,0,L|217:244,1,180,10|2,0:0|1:2,0:0:0:0:
282,300,153777,1,8,1:1:0:0:
282,300,153998,2,0,P|283:353|255:381,1,90,10|8,1:2|0:1,0:0:0:0:
174,353,154439,5,0,1:0:0:0:
132,266,154659,2,0,P|203:215|190:112,1,180,10|10,0:1|0:1,0:0:0:0:
129,57,155321,2,0,L|218:43,1,90,2|10,1:2|1:1,0:0:0:0:
315,6,155762,2,0,L|404:20,1,90,10|10,1:2|1:1,0:0:0:0:
490,90,156204,6,0,B|436:135|436:135|494:235,1,180,2|10,1:2|0:0,0:0:0:0:
457,320,156865,1,8,0:1:0:0:
449,329,156976,1,8,0:1:0:0:
439,339,157086,2,0,P|391:351|350:334,1,90,2|8,1:2|1:1,0:0:0:0:
306,241,157527,1,10,1:2:0:0:
380,164,157748,1,8,0:1:0:0:
308,91,157968,6,0,L|196:108,1,90,2|8,1:2|0:1,0:0:0:0:
215,119,158299,1,8,0:1:0:0:
210,134,158409,2,0,P|166:163|105:153,1,90,8|8,0:0|0:1,0:0:0:0:
40,92,158851,5,2,1:2:0:0:
120,148,159071,1,8,1:1:0:0:
136,249,159292,1,10,1:2:0:0:
71,328,159512,1,8,1:1:0:0:
20,247,159733,6,0,L|120:237,1,90,6|10,1:2|0:1,0:0:0:0:
185,320,160174,2,0,L|274:328,1,90,10|8,0:0|0:1,0:0:0:0:
365,262,160615,2,0,P|380:205|350:166,1,90,2|8,1:2|1:1,0:0:0:0:
348,172,160946,1,8,1:1:0:0:
334,176,161056,1,10,1:2:0:0:
248,118,161277,1,8,0:1:0:0:
320,30,161498,6,0,L|421:44,1,90,2|10,1:2|0:1,0:0:0:0:
239,112,161939,2,0,L|138:126,1,90,8|10,0:0|1:1,0:0:0:0:
72,200,162380,5,2,1:2:0:0:
21,290,162601,1,10,1:1:0:0:
111,344,162821,1,10,1:2:0:0:
164,259,163042,1,10,0:1:0:0:
256,215,163262,6,0,P|325:227|347:313,1,135,2|8,1:2|0:1,0:0:0:0:
369,295,163704,2,0,P|350:347|319:367,1,90,10|8,0:0|0:1,0:0:0:0:
231,348,164145,1,2,1:2:0:0:
179,268,164365,1,8,1:1:0:0:
90,248,164586,2,0,P|39:272|24:319,1,90,10|8,1:2|0:1,0:0:0:0:
101,376,165027,5,2,1:2:0:0:
164,308,165248,1,8,0:1:0:0:
98,249,165468,2,0,L|88:152,1,90,10|0,0:0|1:0,0:0:0:0:
163,73,165909,6,0,L|213:84,2,45,8|8|8,0:0|0:0|0:0,0:0:0:0:
81,24,166351,1,10,0:0:0:0:
72,25,166461,1,8,0:0:0:0:
63,26,166571,1,8,0:0:0:0:
54,28,166681,1,8,0:0:0:0:
46,30,166792,6,0,P|29:69|79:121,3,107.999996704102,6|0|0|0,1:2|1:0|1:0|1:0,0:0:0:0:
230,106,168556,6,0,L|207:211,3,107.999996704102,2|0|0|0,1:2|1:0|1:0|1:0,0:0:0:0:
463,182,170321,6,0,P|427:162|355:192,1,107.999996704102,2|0,1:2|1:0,0:0:0:0:
257,71,171204,2,0,P|301:73|342:11,1,107.999996704102,0|0,1:0|1:0,0:0:0:0:
206,229,172086,6,0,L|222:335,1,107.999996704102,2|0,1:2|1:0,0:0:0:0:
47,188,172968,2,0,L|63:81,1,107.999996704102,0|0,1:0|1:0,0:0:0:0:
202,8,173851,5,2,1:2:0:0:
141,84,174292,1,0,1:0:0:0:
161,184,174733,1,0,1:0:0:0:
258,222,175174,1,0,1:0:0:0:
332,144,175615,5,2,1:2:0:0:
214,112,176056,1,0,1:0:0:0:
106,170,176497,1,0,1:0:0:0:
89,296,176939,1,0,1:0:0:0:
270,335,177380,6,0,P|287:284|308:263,1,72,0|0,1:0|1:0,0:0:0:0:
369,232,177821,2,0,P|413:236|442:251,1,72,0|0,1:0|1:0,0:0:0:0:
394,318,178262,5,0,1:0:0:0:
369,232,178483,1,0,1:0:0:0:
404,142,178704,1,0,1:0:0:0:
365,50,178924,1,0,1:0:0:0:
266,16,179145,5,8,0:0:0:0:
258,21,179255,1,8,0:0:0:0:
251,25,179365,2,0,L|265:82,2,45,2|0|10,1:2|1:0|0:0,0:0:0:0:
168,136,179806,2,0,L|178:92,2,45,10|8|2,0:0|0:0|1:2,0:0:0:0:
236,214,180248,1,10,1:2:0:0:
170,281,180468,1,2,1:2:0:0:
163,268,180579,1,0,1:0:0:0:
150,260,180689,1,2,1:2:0:0:
134,257,180799,1,0,1:0:0:0:
115,262,180909,6,0,B|183:267|189:193|178:204|177:124|277:146,2,198.000006042481,6|10|0,1:2|0:0|1:0,0:0:0:0:
236,326,182012,1,2,1:2:0:0:
304,236,182233,2,0,P|350:209|398:212,1,99.0000030212403,10|2,0:0|0:0,0:0:0:0:
461,301,182674,6,0,L|427:88,1,198.000006042481,2|8,1:2|0:0,0:0:0:0:
350,29,183336,1,2,1:2:0:0:
252,76,183556,2,0,P|244:123|271:172,1,99.0000030212403,2|0,1:2|0:0,0:0:0:0:
237,275,183998,2,0,P|293:280|338:251,1,99.0000030212403,8|2,0:0|0:0,0:0:0:0:
140,237,184439,6,0,B|26:270|26:270|-23:241|5:190,1,198.000006042481,6|8,1:2|0:0,0:0:0:0:
79,132,185101,1,2,0:0:0:0:
79,132,185321,2,0,L|53:25,1,99.0000030212403,2|0,1:2|0:0,0:0:0:0:
177,156,185762,2,0,L|153:252,1,99.0000030212403,8|2,0:0|0:0,0:0:0:0:
228,348,186204,6,0,P|285:340|316:311,1,99.0000030212403,2|2,1:2|0:0,0:0:0:0:
398,242,186645,2,0,P|383:185|347:153,1,99.0000030212403,10|2,0:0|1:2,0:0:0:0:
251,175,187086,1,2,1:2:0:0:
217,71,187306,1,10,0:0:0:0:
211,65,187417,1,8,0:0:0:0:
204,60,187527,1,10,0:0:0:0:
306,19,187748,1,10,0:0:0:0:
311,28,187858,1,8,0:0:0:0:
316,36,187968,6,0,L|418:23,1,99.0000030212403,6|2,1:2|1:2,0:0:0:0:
512,154,188409,2,0,P|447:148|399:265,1,198.000006042481,10|0,0:0|1:2,0:0:0:0:
493,334,189071,1,2,1:2:0:0:
493,334,189292,2,0,L|476:219,1,99.0000030212403,10|2,0:0|0:0,0:0:0:0:
374,167,189733,6,0,P|322:173|286:222,1,99.0000030212403,2|0,1:2|0:0,0:0:0:0:
202,264,190174,2,0,P|202:320|235:366,1,99.0000030212403,8|2,0:0|1:2,0:0:0:0:
208,172,190615,2,0,L|7:134,1,198.000006042481,2|10,1:2|0:0,0:0:0:0:
122,77,191277,1,2,0:2:0:0:
117,193,191498,6,0,P|78:233|24:242,1,99.0000030212403,6|0,1:2|0:0,0:0:0:0:
163,285,191939,2,0,P|144:329|161:375,1,99.0000030212403,8|2,0:0|1:2,0:0:0:0:
260,323,192380,2,0,B|394:365|394:365|459:300,1,198.000006042481,2|8,1:2|0:0,0:0:0:0:
457,198,193042,1,10,1:2:0:0:
451,185,193152,1,8,0:0:0:0:
443,174,193262,2,0,P|392:164|347:193,1,99.0000030212403,10|8,0:0|0:0,0:0:0:0:
351,202,193593,1,8,0:0:0:0:
349,218,193704,2,0,L|236:193,1,99.0000030212403,10|2,0:0|1:2,0:0:0:0:
165,114,194145,6,0,L|177:58,3,49.5000015106202,10|8|10|8,0:0|0:0|0:0|0:0,0:0:0:0:
141,150,194586,2,0,L|151:198,3,49.5000015106202,2|0|2|0,1:2|1:0|1:2|1:0,0:0:0:0:
155,213,195027,6,0,P|212:213|248:334,1,198.000006042481,6|8,1:2|0:0,0:0:0:0:
146,360,195689,2,0,B|252:328|252:328|305:340|312:388,1,198.000006042481,2|0,1:2|1:0,0:0:0:0:
417,384,196351,2,0,L|434:269,1,99.0000030212403,10|0,0:0|0:0,0:0:0:0:
505,179,196792,6,0,P|501:119|465:93,1,99.0000030212403,2|2,1:2|0:0,0:0:0:0:
380,37,197233,2,0,P|323:56|300:106,1,99.0000030212403,10|2,0:0|1:2,0:0:0:0:
346,192,197674,5,2,1:2:0:0:
314,291,197895,1,2,0:0:0:0:
211,326,198115,1,10,0:0:0:0:
128,262,198336,1,2,0:0:0:0:
97,157,198556,6,0,L|118:44,2,99.0000030212403,6|0|8,1:2|0:0|0:0,0:0:0:0:
22,253,199218,2,0,P|63:290|124:275,1,99.0000030212403,2|0,1:2|0:0,0:0:0:0:
203,329,199659,2,0,P|247:282|252:239,1,99.0000030212403,2|8,1:2|0:0,0:0:0:0:
195,157,200101,1,2,0:0:0:0:
286,79,200321,6,0,P|335:119|341:172,1,99.0000030212403,2|2,1:2|0:0,0:0:0:0:
393,251,200762,2,0,L|509:233,2,99.0000030212403,10|2|2,0:0|1:2|1:2,0:0:0:0:
289,323,201424,5,8,0:0:0:0:
161,280,201645,2,0,P|110:321|102:366,1,99.0000030212403,10|0,0:0|1:0,0:0:0:0:
199,383,202086,6,0,L|181:181,2,198.000006042481,6|8|0,1:2|0:0|1:0,0:0:0:0:
302,367,203189,1,0,1:0:0:0:
306,371,203409,2,0,P|332:317|330:276,1,99.0000030212403,8|2,0:0|0:0,0:0:0:0:
396,176,203851,6,0,L|286:158,1,99.0000030212403,2|0,1:2|0:0,0:0:0:0:
221,84,204292,2,0,L|123:99,1,99.0000030212403,8|12,0:0|0:2,0:0:0:0:
48,173,204733,2,0,L|-8:163,2,49.5000015106202,10|8|8,0:0|0:0|0:0,0:0:0:0:
93,272,205174,2,0,L|149:262,3,49.5000015106202,8|8|10|8,0:0|0:0|0:0|0:0,0:0:0:0:
176,257,205615,6,0,P|202:207|195:158,1,99.0000030212403,6|0,1:2|0:0,0:0:0:0:
287,99,206056,2,0,P|262:48|216:25,1,99.0000030212403,8|0,0:0|0:0,0:0:0:0:
396,82,206498,2,0,P|310:116|309:244,1,198.000006042481,2|8,1:2|0:2,0:0:0:0:
508,330,207380,6,0,B|455:314|455:314|382:364|382:364|309:339,1,198.000006042481,4|8,1:2|0:0,0:0:0:0:
108,205,208262,5,2,1:2:0:0:
42,281,208483,1,0,0:0:0:0:
92,366,208704,2,0,P|147:364|183:330,1,99.0000030212403,8|2,0:0|0:0,0:0:0:0:
252,260,209145,6,0,L|233:157,1,99.0000030212403,12|0,0:0|1:0,0:0:0:0:
361,179,209586,2,0,L|342:76,1,99.0000030212403,8|0,0:0|1:0,0:0:0:0:
224,233,210027,6,0,L|205:130,1,99.0000030212403,10|0,0:0|1:0,0:0:0:0:
333,152,210468,2,0,L|314:49,1,99.0000030212403,8|0,0:0|1:0,0:0:0:0:
187,17,210909,6,0,P|131:22|91:68,1,99.0000030212403,14|0,0:0|1:0,0:0:0:0:
77,202,211351,2,0,P|41:163|37:110,1,99.0000030212403,8|0,0:0|1:0,0:0:0:0:
229,167,211792,2,0,B|188:143|188:143|178:145|178:145|138:124,1,99.0000030212403,10|0,0:0|1:0,0:0:0:0:
256,256,212233,5,8,0:0:0:0:
221,349,212454,1,10,0:0:0:0:
235,368,212674,5,2,0:0:0:0:
