osu file format v14

[General]
AudioFilename: audio.mp3
AudioLeadIn: 0
PreviewTime: 113043
Countdown: 1
SampleSet: None
StackLeniency: 0.7
Mode: 0
LetterboxInBreaks: 0
WidescreenStoryboard: 1

[Editor]
Bookmarks: 6561,12487,24339,34710,36191,59895,59987,60080,60173,60265,65821,71747,82117,83598,107302,113228,122117,125080,125173,125265,125358,125450,130442,130998,131090,131183,131276,131368,136183,148776,148868,148961,149053,149146
DistanceSpacing: 1
BeatDivisor: 2
GridSize: 32
TimelineZoom: 1.8

[Metadata]
Title:Pressure
TitleUnicode:Pressure
Artist:Paramore
ArtistUnicode:Paramore
Creator:Veridian
Version:Normal
Source:All We Know is Falling
Tags:h
BeatmapID:1989085
BeatmapSetID:952593

[Difficulty]
HPDrainRate:4
CircleSize:3
OverallDifficulty:4
ApproachRate:4
SliderMultiplier:1
SliderTickRate:1

[Events]
//Background and Video events
0,0,"maxresdefault.jpg",0,0
//Break Periods
2,60087,64122
2,125087,129122
2,131013,135974
//Storyboard Layer 0 (Background)
//Storyboard Layer 1 (Fail)
//Storyboard Layer 2 (Pass)
//Storyboard Layer 3 (Foreground)
//Storyboard Sound Samples

[TimingPoints]
628,370.37037037037,4,1,1,80,1,0
6368,-100,4,1,0,80,0,0
6553,-100,4,1,1,80,0,0
36183,-100,4,1,0,80,0,1
36368,-100,4,1,1,80,0,0
36932,-100,4,1,1,80,0,0
40813,-100,4,1,1,100,0,0
40905,-100,4,1,1,5,0,0
40998,-100,4,1,1,100,0,0
41090,-100,4,1,1,5,0,0
41183,-100,4,1,1,100,0,0
41276,-100,4,1,1,5,0,0
41368,-100,4,1,0,70,0,0
41739,-100,4,1,1,80,0,0
42109,-100,4,1,0,80,0,0
42294,-100,4,1,1,80,0,0
48035,-100,4,1,0,80,0,1
48220,-100,4,1,1,80,0,0
48784,-100,4,1,1,80,0,0
52665,-100,4,1,1,100,0,0
52757,-100,4,1,1,5,0,0
52850,-100,4,1,1,100,0,0
52942,-100,4,1,1,5,0,0
53035,-100,4,1,1,100,0,0
53128,-100,4,1,1,5,0,0
53220,-100,4,1,0,70,0,0
53405,-100,4,1,1,80,0,0
53961,-100,4,1,0,80,0,0
54146,-100,4,1,1,80,0,0
65813,-100,4,1,1,80,0,0
83590,-100,4,1,0,80,0,1
83776,-100,4,1,1,80,0,0
84339,-100,4,1,1,80,0,0
88220,-100,4,1,1,100,0,0
88312,-100,4,1,1,5,0,0
88405,-100,4,1,1,100,0,0
88497,-100,4,1,1,5,0,0
88590,-100,4,1,1,100,0,0
88683,-100,4,1,1,5,0,0
88775,-100,4,1,0,70,0,0
89146,-100,4,1,1,80,0,0
89516,-100,4,1,0,80,0,0
89701,-100,4,1,1,80,0,0
95442,-100,4,1,0,80,0,1
95627,-100,4,1,1,80,0,0
96191,-100,4,1,1,80,0,0
100072,-100,4,1,1,100,0,0
100164,-100,4,1,1,5,0,0
100257,-100,4,1,1,100,0,0
100349,-100,4,1,1,5,0,0
100442,-100,4,1,1,100,0,0
100535,-100,4,1,1,5,0,0
100627,-100,4,1,0,70,0,0
100812,-100,4,1,1,80,0,0
101368,-100,4,1,0,80,0,0
101553,-100,4,1,1,80,0,0
107294,-100,4,1,1,80,0,0
113035,-100,4,1,0,80,0,0
113405,-100,4,1,1,100,0,0
122109,-100,4,1,1,80,0,1
125072,-100,4,1,1,80,0,0
130535,-100,4,1,1,5,0,0
130627,-100,4,1,1,80,0,0
130905,-100,4,1,1,5,0,0
130997,-100,4,1,1,80,0,0
137665,-100,4,1,1,80,0,0
147479,-100,4,1,1,80,0,0
151739,-90.9090909090909,4,1,0,80,0,1
152016,-90.9090909090909,4,1,1,80,0,1
162850,-100,4,1,1,80,0,0
163590,-90.9090909090909,4,1,0,80,0,1
163868,-90.9090909090909,4,1,1,80,0,1
168405,-90.9090909090909,4,1,1,100,0,1
168498,-90.9090909090909,4,1,1,5,0,1
168590,-90.9090909090909,4,1,1,100,0,1
168683,-90.9090909090909,4,1,1,5,0,1
168776,-90.9090909090909,4,1,0,80,0,1
169516,-100,4,1,1,80,0,1
174331,-90.9090909090909,4,1,1,100,0,1
174424,-90.9090909090909,4,1,1,5,0,1
174516,-90.9090909090909,4,1,1,100,0,1
174609,-90.9090909090909,4,1,1,5,0,1
174702,-90.9090909090909,4,1,0,80,0,1
174887,-90.9090909090909,4,1,1,80,0,1
175442,-90.9090909090909,4,1,0,100,0,0

[Colours]
Combo1 : 255,255,255
Combo2 : 49,72,128
Combo3 : 175,35,35
Combo4 : 240,249,72
Combo5 : 176,227,70
Combo6 : 253,194,72
Combo7 : 238,77,149
Combo8 : 183,183,183

[HitObjects]
256,16,5813,5,8,0:0:0:0:
256,164,6368,1,4,0:2:0:0:
336,104,6739,22,0,P|384:104|448:196,1,150,2|2,0:0|0:0,0:0:0:0:
448,276,7665,1,8,0:0:0:0:
332,372,8220,2,0,P|284:372|220:280,1,150,2|2,0:0|0:0,0:0:0:0:
220,200,9146,1,12,0:0:0:0:
108,300,9702,6,0,L|80:146,1,150,2|2,0:0|0:0,0:0:0:0:
64,52,10627,1,8,0:0:0:0:
204,108,11183,2,0,P|264:132|352:96,2,150,2|2|10,0:0|0:0|0:0,0:0:0:0:
204,108,12479,53,0,0:0:0:0:
492,192,13590,1,8,0:0:0:0:
492,292,13961,2,0,P|400:332|300:220,1,250,2|2,0:0|0:0,0:0:0:0:
300,140,15257,1,2,0:0:0:0:
24,356,16553,101,8,0:0:0:0:
108,300,16924,2,0,L|62:40,1,250,2|2,0:0|0:0,0:0:0:0:
148,0,18220,1,2,0:0:0:0:
396,248,19516,5,8,0:0:0:0:
328,176,19887,2,0,B|200:124|200:236|72:172,1,250,2|2,0:0|0:0,0:0:0:0:
20,104,21183,1,2,0:0:0:0:
256,364,22479,101,8,0:0:0:0:
332,300,22850,2,0,P|360:240|324:152,1,150,2|2,0:0|0:0,0:0:0:0:
256,104,23776,1,2,0:0:0:0:
332,40,24146,1,2,0:0:0:0:
180,40,24702,22,0,P|132:40|36:160,1,200,14|14,0:0|0:0,0:0:0:0:
36,244,25813,1,6,0:0:0:0:
204,352,26553,2,0,L|420:313,1,200,6|4,0:0|0:0,0:0:0:0:
488,368,27665,22,0,P|504:316|400:216,1,200,14|14,0:0|0:0,0:0:0:0:
316,216,28776,1,6,0:0:0:0:
420,108,29331,1,2,0:0:0:0:
316,0,29887,1,14,0:0:0:0:
148,108,30627,6,0,L|185:320,1,200,14|14,0:0|0:0,0:0:0:0:
104,368,31739,1,6,0:0:0:0:
0,196,32479,2,0,P|-35:119|10:6,1,200,6|4,0:0|0:0,0:0:0:0:
184,96,33961,5,6,0:0:0:0:
254,25,34331,1,14,0:0:0:0:
324,96,34702,1,2,0:0:0:0:
504,192,36183,6,0,P|484:232|328:236,1,200,4|10,0:2|0:0,0:0:0:0:
276,176,37294,2,0,P|196:132|100:188,1,200,2|2,0:0|0:0,0:0:0:0:
28,244,38405,1,10,0:0:0:0:
108,304,38776,1,2,0:0:0:0:
308,300,39516,37,2,0:0:0:0:
380,368,39887,1,10,0:0:0:0:
452,296,40257,1,2,0:0:0:0:
380,228,40627,6,0,B|380:163|380:163|375:158|375:158|384:158|384:158|380:153|380:153|380:89,1,150,2|0,0:0|0:0,0:0:0:0:
380,40,41368,1,6,0:0:0:0:
252,192,42109,6,0,P|160:236|80:192,1,200,4|10,0:2|0:0,0:0:0:0:
164,136,43220,2,0,L|200:340,1,200,2|2,0:0|0:0,0:0:0:0:
288,380,44331,1,8,0:0:0:0:
376,332,44702,6,0,L|410:135,1,200,2|0,0:0|0:0,0:0:0:0:
436,40,45813,1,10,0:0:0:0:
340,68,46183,2,0,B|248:32|248:124|136:68,2,200,2|2|2,0:0|0:0|0:0,0:0:0:0:
412,136,48035,6,0,P|452:220|404:320,1,200,4|10,0:2|0:0,0:0:0:0:
312,300,49146,2,0,L|95:261,1,200,2|2,0:0|0:0,0:0:0:0:
44,194,50257,1,10,0:0:0:0:
114,123,50627,1,2,0:0:0:0:
255,264,51368,5,2,0:0:0:0:
325,334,51739,1,10,0:1:0:0:
395,263,52109,1,2,0:0:0:0:
324,192,52479,54,0,B|324:127|324:127|319:122|319:122|328:122|328:122|324:117|324:117|324:53,1,150,2|0,0:0|0:0,0:0:0:0:
324,4,53220,1,6,0:0:0:0:
208,168,53961,6,0,P|136:168|72:280,1,200,4|10,0:2|0:0,0:0:0:0:
132,344,55072,2,0,L|348:305,1,200,2|2,0:0|0:0,0:0:0:0:
412,368,56183,1,8,0:0:0:0:
420,268,56553,6,0,P|459:179|419:90,1,200,2|0,0:0|0:0,0:0:0:0:
348,19,57665,1,10,0:0:0:0:
276,88,58035,2,0,B|184:128|184:52|80:88,2,200,2|2|0,0:0|0:0|0:0,0:0:0:0:
348,19,59887,37,0,0:0:0:0:
188,284,65442,5,8,0:0:0:0:
258,354,65813,1,0,0:0:0:0:
396,136,66923,101,8,0:0:0:0:
328,208,67294,2,0,B|200:260|200:148|72:212,1,250,2|2,0:0|0:0,0:0:0:0:
20,280,68590,1,2,0:0:0:0:
256,20,69886,5,8,0:0:0:0:
332,84,70257,2,0,P|360:144|324:232,1,150,2|0,0:0|0:0,0:0:0:0:
256,280,71183,1,2,0:0:0:0:
332,344,71553,1,2,0:0:0:0:
180,344,72109,6,0,P|132:344|36:224,1,200,14|14,0:0|0:0,0:0:0:0:
36,140,73220,1,6,0:0:0:0:
142,246,73776,1,2,0:0:0:0:
247,140,74331,1,14,0:0:0:0:
444,96,75072,22,0,P|460:148|356:248,1,200,14|14,0:0|0:0,0:0:0:0:
360,148,76183,1,6,0:0:0:0:
254,42,76738,1,2,0:0:0:0:
147,148,77294,1,14,0:0:0:0:
256,316,78034,6,0,L|468:279,1,200,14|14,0:0|0:0,0:0:0:0:
500,192,79146,1,6,0:0:0:0:
393,85,79702,1,2,0:0:0:0:
287,190,80257,1,14,0:0:0:0:
74,0,81368,5,6,0:0:0:0:
3,70,81738,1,14,0:0:0:0:
74,140,82109,1,0,0:0:0:0:
504,192,83590,6,0,P|484:152|328:148,1,200,4|10,0:2|0:0,0:0:0:0:
276,208,84701,2,0,P|196:252|100:196,1,200,2|2,0:0|0:0,0:0:0:0:
28,140,85812,1,10,0:0:0:0:
108,80,86183,1,2,0:0:0:0:
308,84,86923,37,2,0:0:0:0:
380,16,87294,1,10,0:0:0:0:
452,88,87664,1,2,0:0:0:0:
380,156,88034,6,0,B|380:221|380:221|375:226|375:226|384:226|384:226|380:231|380:231|380:295,1,150,2|0,0:0|0:0,0:0:0:0:
380,344,88775,1,6,0:0:0:0:
252,192,89516,6,0,P|160:148|80:192,1,200,4|10,0:2|0:0,0:0:0:0:
164,248,90627,2,0,L|200:44,1,200,2|2,0:0|0:0,0:0:0:0:
288,4,91738,1,8,0:0:0:0:
376,52,92109,6,0,L|410:249,1,200,2|0,0:0|0:0,0:0:0:0:
436,344,93220,1,10,0:0:0:0:
340,316,93590,2,0,B|248:352|248:260|136:316,2,200,2|2|2,0:0|0:0|0:0,0:0:0:0:
412,248,95442,6,0,P|452:164|404:64,1,200,4|10,0:2|0:0,0:0:0:0:
312,84,96553,2,0,L|95:123,1,200,2|2,0:0|0:0,0:0:0:0:
44,190,97664,1,10,0:0:0:0:
114,261,98034,1,2,0:0:0:0:
255,120,98775,5,2,0:0:0:0:
325,50,99146,1,10,0:1:0:0:
395,121,99516,1,2,0:0:0:0:
324,192,99886,54,0,B|324:257|324:257|319:262|319:262|328:262|328:262|324:267|324:267|324:331,1,150,2|0,0:0|0:0,0:0:0:0:
324,380,100627,1,6,0:0:0:0:
208,216,101368,6,0,P|136:216|72:104,1,200,4|10,0:2|0:0,0:0:0:0:
132,40,102479,2,0,L|348:78,1,200,2|2,0:0|0:0,0:0:0:0:
412,16,103590,1,8,0:0:0:0:
420,116,103960,6,0,P|459:204|419:293,1,200,2|0,0:0|0:0,0:0:0:0:
348,365,105072,1,10,0:0:0:0:
276,296,105442,2,0,B|184:256|184:332|80:296,2,200,2|2|0,0:0|0:0|0:0,0:0:0:0:
468,356,107665,53,8,0:0:0:0:
450,257,108035,1,8,0:0:0:0:
433,159,108405,1,8,0:0:0:0:
308,4,109146,101,0,0:0:0:0:
325,102,109516,1,8,0:0:0:0:
343,201,109886,1,8,0:0:0:0:
232,368,110627,5,8,0:0:0:0:
214,269,110997,1,8,0:0:0:0:
197,171,111367,1,8,0:0:0:0:
72,16,112108,21,0,0:0:0:0:
89,114,112478,1,10,0:0:0:0:
107,213,112848,1,0,0:0:0:0:
107,213,113035,1,4,0:2:0:0:
40,288,113405,22,0,P|76:308|180:284,1,150,2|2,0:0|0:0,0:0:0:0:
248,215,114331,1,8,0:0:0:0:
316,80,114887,2,0,P|280:60|176:84,1,150,2|2,0:0|0:0,0:0:0:0:
108,153,115813,1,12,0:0:0:0:
248,215,116368,6,0,L|409:186,1,150,2|2,0:0|0:0,0:0:0:0:
472,252,117294,1,8,0:0:0:0:
468,100,117850,2,0,L|306:71,1,150,2|2,0:0|0:0,0:0:0:0:
244,137,118776,1,6,0:0:0:0:
112,68,119331,6,0,P|92:104|124:216,1,150,2|2,0:0|0:0,0:0:0:0:
184,276,120257,1,8,0:0:0:0:
316,345,120813,2,0,P|336:309|304:197,1,150,2|2,0:0|0:0,0:0:0:0:
244,137,121739,1,12,0:0:0:0:
288,48,122109,53,8,0:0:0:0:
388,64,122479,1,8,0:0:0:0:
404,164,122850,1,10,0:0:0:0:
314,207,123220,1,10,0:0:0:0:
244,137,123590,1,8,0:0:0:0:
144,132,123961,1,8,0:0:0:0:
72,200,124331,1,10,0:0:0:0:
76,300,124702,1,2,0:0:0:0:
76,300,124887,1,6,0:0:0:0:
256,140,130442,69,4,0:0:0:0:
256,240,130813,1,4,0:0:0:0:
332,40,137294,22,0,P|380:40|476:160,1,200,6|4,0:0|0:0,0:0:0:0:
476,244,138405,1,6,0:0:0:0:
370,138,138961,1,0,0:0:0:0:
265,244,139516,1,6,0:0:0:0:
68,288,140257,22,0,P|52:236|156:136,1,200,6|4,0:0|0:0,0:0:0:0:
152,236,141368,1,6,0:0:0:0:
222,306,141739,1,4,0:0:0:0:
292,235,142109,1,14,0:0:0:0:
503,23,143219,6,0,L|291:60,1,200,6|6,0:0|0:0,0:0:0:0:
259,147,144331,1,6,0:0:0:0:
152,40,144887,1,2,0:0:0:0:
46,145,145442,1,6,0:0:0:0:
256,356,146553,5,14,0:0:0:0:
327,286,146923,1,4,0:0:0:0:
256,216,147294,1,6,0:0:0:0:
256,192,147479,12,0,148776,0:0:0:0:
136,24,151739,6,0,L|177:260,1,220.000006713867,6|2,0:2|0:0,0:0:0:0:
192,348,152850,2,0,P|252:368|348:248,1,220.000006713867,10|10,0:0|0:0,0:0:0:0:
428,190,153961,1,2,0:0:0:0:
350,112,154331,1,10,0:0:0:0:
194,267,155072,37,10,0:0:0:0:
116,344,155442,1,0,0:0:0:0:
38,266,155813,1,10,0:0:0:0:
120,192,156183,2,0,P|140:140|108:32,2,165.000005035401,2|6|10,0:0|0:0|0:0,0:0:0:0:
38,266,157665,22,0,B|146:214|146:314|250:262,1,220.000006713867,0|2,0:0|0:0,0:0:0:0:
284,368,158776,2,0,L|325:131,2,220.000006713867,10|10|14,0:0|0:0|0:0,0:0:0:0:
184,324,160627,2,0,L|69:344,2,110.000003356934,0|8|2,0:0|0:0|0:0,0:0:0:0:
180,212,161739,2,0,P|144:168|192:12,1,220.000006713867,8|8,0:0|0:0,0:0:0:0:
256,84,162850,70,0,L|409:56,1,150,10|8,0:0|0:0,0:0:0:0:
403,57,163590,54,0,P|448:152|401:247,1,220.000006713867,6|2,0:2|0:0,0:0:0:0:
496,308,164702,2,0,L|267:267,1,220.000006713867,10|10,0:0|0:0,0:0:0:0:
201,347,165813,1,2,0:0:0:0:
123,269,166183,1,10,0:0:0:0:
278,113,166924,85,10,0:0:0:0:
355,35,167294,1,2,0:0:0:0:
432,112,167665,1,10,0:0:0:0:
352,188,168035,2,0,P|324:240|356:344,1,165.000005035401,2|0,0:0|0:0,0:0:0:0:
385,373,168776,1,6,0:0:0:0:
216,264,169516,6,0,P|172:264|124:60,1,300,0|2,0:0|0:0,0:0:0:0:
216,60,170998,2,0,L|271:375,1,300,8|10,0:0|0:0,0:0:0:0:
368,352,172479,2,0,P|412:352|460:148,1,300,0|2,0:0|0:0,0:0:0:0:
395,82,173961,102,0,B|327:82|327:82|319:78|319:78|320:86|320:86|311:82|311:82|251:80,1,150,8|0,0:0|0:0,0:0:0:0:
204,81,174702,1,6,0:0:0:0:
133,151,175072,1,8,0:0:0:0:
203,221,175442,1,4,0:2:0:0:
