osu file format v14

[General]
AudioFilename: audio.mp3
AudioLeadIn: 0
PreviewTime: 113043
Countdown: 1
SampleSet: None
StackLeniency: 0.7
Mode: 0
LetterboxInBreaks: 0
WidescreenStoryboard: 0

[Editor]
Bookmarks: 6561,12487,24339,34710,36191,59895,59987,60080,60173,60265,65821,71747,82117,83598,107302,113228,122117,125080,125173,125265,125358,125450,130442,130998,131090,131183,131276,131368,136183,148776,148868,148961,149053,149146
DistanceSpacing: 0.5
BeatDivisor: 4
GridSize: 32
TimelineZoom: 2.4

[Metadata]
Title:Pressure
TitleUnicode:Pressure
Artist:Paramore
ArtistUnicode:Paramore
Creator:Veridian
Version:Insane
Source:All We Know is Falling
Tags:h
BeatmapID:1989084
BeatmapSetID:952593

[Difficulty]
HPDrainRate:6
CircleSize:3.8
OverallDifficulty:7
ApproachRate:8.6
SliderMultiplier:1.9
SliderTickRate:1

[Events]
//Background and Video events
0,0,"maxresdefault.jpg",0,0
//Break Periods
2,60272,64331
2,125272,129783
2,131198,135524
//Storyboard Layer 0 (Background)
//Storyboard Layer 1 (Fail)
//Storyboard Layer 2 (Pass)
//Storyboard Layer 3 (Foreground)
//Storyboard Sound Samples

[TimingPoints]
628,370.37037037037,4,1,1,80,1,0
6368,-100,4,1,0,80,0,0
6553,-100,4,1,1,80,0,0
36183,-100,4,1,0,80,0,1
36368,-100,4,1,1,80,0,0
36932,-83.3333333333333,4,1,1,80,0,0
40813,-83.3333333333333,4,1,1,100,0,0
40905,-83.3333333333333,4,1,1,5,0,0
40998,-83.3333333333333,4,1,1,100,0,0
41090,-83.3333333333333,4,1,1,5,0,0
41183,-83.3333333333333,4,1,1,100,0,0
41276,-83.3333333333333,4,1,1,5,0,0
41368,-133.333333333333,4,1,0,70,0,0
41739,-133.333333333333,4,1,1,80,0,0
42109,-83.3333333333333,4,1,0,80,0,0
42294,-83.3333333333333,4,1,1,80,0,0
48035,-83.3333333333333,4,1,0,80,0,1
48220,-83.3333333333333,4,1,1,80,0,0
48784,-83.3333333333333,4,1,1,80,0,0
52665,-83.3333333333333,4,1,1,100,0,0
52757,-83.3333333333333,4,1,1,5,0,0
52850,-83.3333333333333,4,1,1,100,0,0
52942,-83.3333333333333,4,1,1,5,0,0
53035,-83.3333333333333,4,1,1,100,0,0
53128,-83.3333333333333,4,1,1,5,0,0
53220,-133.333333333333,4,1,0,70,0,0
53405,-133.333333333333,4,1,1,80,0,0
53961,-83.3333333333333,4,1,0,80,0,0
54146,-83.3333333333333,4,1,1,80,0,0
65813,-100,4,1,1,80,0,0
83590,-100,4,1,0,80,0,1
83776,-100,4,1,1,80,0,0
84339,-83.3333333333333,4,1,1,80,0,0
88220,-83.3333333333333,4,1,1,100,0,0
88312,-83.3333333333333,4,1,1,5,0,0
88405,-83.3333333333333,4,1,1,100,0,0
88497,-83.3333333333333,4,1,1,5,0,0
88590,-83.3333333333333,4,1,1,100,0,0
88683,-83.3333333333333,4,1,1,5,0,0
88775,-133.333333333333,4,1,0,70,0,0
89146,-133.333333333333,4,1,1,80,0,0
89516,-83.3333333333333,4,1,0,80,0,0
89701,-83.3333333333333,4,1,1,80,0,0
95442,-83.3333333333333,4,1,0,80,0,1
95627,-83.3333333333333,4,1,1,80,0,0
96191,-83.3333333333333,4,1,1,80,0,0
100072,-83.3333333333333,4,1,1,100,0,0
100164,-83.3333333333333,4,1,1,5,0,0
100257,-83.3333333333333,4,1,1,100,0,0
100349,-83.3333333333333,4,1,1,5,0,0
100442,-83.3333333333333,4,1,1,100,0,0
100535,-83.3333333333333,4,1,1,5,0,0
100627,-133.333333333333,4,1,0,70,0,0
100812,-133.333333333333,4,1,1,80,0,0
101368,-133.333333333333,4,1,0,80,0,0
101553,-83.3333333333333,4,1,1,80,0,0
107294,-133.333333333333,4,1,1,80,0,0
113035,-133.333333333333,4,1,0,80,0,0
113405,-100,4,1,1,100,0,0
122109,-100,4,1,1,80,0,1
125072,-100,4,1,1,80,0,0
130535,-100,4,1,1,5,0,0
130627,-100,4,1,1,80,0,0
130905,-100,4,1,1,5,0,0
130997,-100,4,1,1,80,0,0
137665,-133.333333333333,4,1,1,80,0,0
147479,-100,4,1,1,80,0,0
151739,-83.3333333333333,4,1,0,80,0,1
152016,-83.3333333333333,4,1,1,80,0,1
162850,-100,4,1,1,80,0,0
163590,-83.3333333333333,4,1,0,80,0,1
163868,-83.3333333333333,4,1,1,80,0,1
168405,-83.3333333333333,4,1,1,100,0,1
168498,-83.3333333333333,4,1,1,5,0,1
168590,-83.3333333333333,4,1,1,100,0,1
168683,-83.3333333333333,4,1,1,5,0,1
168776,-133.333333333333,4,1,0,80,0,1
169516,-83.3333333333333,4,1,1,80,0,1
174331,-83.3333333333333,4,1,1,100,0,1
174424,-83.3333333333333,4,1,1,5,0,1
174516,-83.3333333333333,4,1,1,100,0,1
174609,-83.3333333333333,4,1,1,5,0,1
174702,-133.333333333333,4,1,0,80,0,1
174887,-133.333333333333,4,1,1,80,0,1
175442,-100,4,1,0,100,0,0

[Colours]
Combo1 : 255,255,255
Combo2 : 49,72,128
Combo3 : 175,35,35
Combo4 : 240,249,72
Combo5 : 176,227,70
Combo6 : 253,194,72
Combo7 : 238,77,149
Combo8 : 183,183,183

[HitObjects]
144,136,5813,5,8,0:0:0:0:
148,159,5906,1,0,0:0:0:0:
152,183,5998,1,0,0:0:0:0:
168,336,6183,1,0,0:0:0:0:
68,360,6368,2,0,B|60:312|60:312|84:271,1,95,4|0,0:2|0:0,0:0:0:0:
216,76,6739,22,0,B|262:156|262:156|248:251,1,190,2|4,0:0|0:0,0:0:0:0:
152,183,7294,1,2,0:0:0:0:
344,256,7479,1,4,0:0:0:0:
248,340,7665,1,8,0:0:0:0:
428,212,7850,2,0,P|440:256|428:304,1,95,2|0,0:0|0:0,0:0:0:0:
512,160,8220,6,0,P|444:172|364:80,1,190,2|4,0:0|0:0,0:0:0:0:
468,67,8776,1,2,0:0:0:0:
268,108,8961,1,4,0:0:0:0:
348,0,9146,1,12,0:0:0:0:
196,168,9331,2,0,B|172:127|172:127|179:79,1,95,2|0,0:0|0:0,0:0:0:0:
92,248,9702,6,0,L|279:280,1,190,2|4,0:0|0:0,0:0:0:0:
332,208,10257,1,2,0:0:0:0:
400,372,10442,1,4,0:0:0:0:
480,208,10627,1,8,0:0:0:0:
272,144,10813,2,0,B|312:120|312:120|360:127,1,95,2|0,0:0|0:0,0:0:0:0:
103,247,11183,6,0,B|184:294|184:294|279:280,1,190,2|4,0:0|0:0,0:0:0:0:
204,192,11739,1,2,0:0:0:0:
52,328,11924,1,4,0:0:0:0:
20,132,12109,1,12,0:0:0:0:
204,192,12294,1,10,0:0:0:0:
120,104,12479,5,0,0:0:0:0:
202,89,12665,1,4,0:0:0:0:
285,74,12850,1,8,0:0:0:0:
285,74,13590,2,0,P|340:52|432:92,1,142.5,8|0,0:0|0:0,0:0:0:0:
436,92,13961,5,2,0:0:0:0:
348,188,14146,1,4,0:0:0:0:
500,284,14331,1,8,0:0:0:0:
388,356,14516,2,0,L|404:261,1,95,2|0,0:0|0:0,0:0:0:0:
436,92,14887,1,2,0:0:0:0:
264,188,15072,1,8,0:0:0:0:
300,276,15257,2,0,B|212:304|212:220|112:276,1,190,2|4,0:0|0:0,0:0:0:0:
100,288,15813,1,8,0:0:0:0:
100,288,16553,2,0,L|72:134,1,142.5,8|0,0:0|0:0,0:0:0:0:
92,130,16924,101,2,0:0:0:0:
200,248,17109,1,4,0:0:0:0:
308,132,17294,1,8,0:0:0:0:
224,68,17479,2,0,B|200:108|200:108|207:156,1,95,2|0,0:0|0:0,0:0:0:0:
300,308,17850,2,0,B|307:260|307:260|283:219,1,95,2|8,0:0|0:0,0:0:0:0:
140,16,18220,2,0,L|344:52,1,190,2|4,0:0|0:0,0:0:0:0:
343,32,18776,1,8,0:0:0:0:
344,32,19516,2,0,P|410:9|475:34,1,142.5,8|0,0:0|0:0,0:0:0:0:
492,51,19887,5,2,0:0:0:0:
324,192,20072,1,4,0:0:0:0:
408,108,20257,1,0,0:0:0:0:
512,224,20442,2,0,L|413:206,1,95,2|0,0:0|0:0,0:0:0:0:
220,124,20813,2,0,L|318:106,1,95,2|8,0:0|0:0,0:0:0:0:
368,296,21183,2,0,P|312:223|221:227,1,190,2|4,0:0|0:0,0:0:0:0:
204,244,21739,1,8,0:0:0:0:
204,244,22479,2,0,L|231:90,1,142.5,8|0,0:0|0:0,0:0:0:0:
211,86,22850,101,2,0:0:0:0:
116,196,23035,1,4,0:0:0:0:
12,84,23220,1,8,0:0:0:0:
108,36,23405,5,2,0:0:0:0:
112,59,23498,1,0,0:0:0:0:
116,83,23590,1,8,0:0:0:0:
144,308,23776,1,2,0:0:0:0:
20,240,23961,1,0,0:0:0:0:
240,280,24146,2,0,B|247:327|247:327|223:368,1,95,2|4,0:0|0:0,0:0:0:0:
196,196,24516,5,0,0:0:0:0:
196,196,24702,2,0,P|252:184|311:219,1,95,14|0,0:0|0:0,0:0:0:0:
436,276,25072,2,0,P|380:288|321:253,1,95,6|0,0:0|0:0,0:0:0:0:
288,88,25442,1,14,0:0:0:0:
388,196,25627,1,0,0:0:0:0:
424,4,25813,22,0,L|404:114,1,95,6|0,0:0|0:0,0:0:0:0:
424,114,26183,1,12,0:0:0:0:
248,244,26553,2,0,L|267:354,1,95,6|0,0:0|0:0,0:0:0:0:
248,354,26923,1,12,0:0:0:0:
304,172,27109,1,0,0:0:0:0:
164,252,27294,5,4,0:0:0:0:
124,96,27479,1,2,0:0:0:0:
124,96,27665,2,0,B|171:89|171:89|212:113,1,95,14|0,0:0|0:0,0:0:0:0:
164,252,28035,2,0,B|123:276|123:276|76:269,1,95,6|0,0:0|0:0,0:0:0:0:
16,60,28405,1,14,0:0:0:0:
108,188,28590,1,0,0:0:0:0:
8,320,28776,6,0,B|-40:228|56:228|-8:120,1,190,6|8,0:0|0:0,0:0:0:0:
108,16,29331,2,0,P|199:12|254:85,1,190,2|0,0:0|0:0,0:0:0:0:
256,216,29887,1,14,0:0:0:0:
156,104,30072,1,0,0:0:0:0:
328,152,30257,6,0,L|428:135,1,95,4|0,0:0|0:0,0:0:0:0:
301,297,30627,2,0,P|245:309|186:274,1,95,14|0,0:0|0:0,0:0:0:0:
372,232,30998,2,0,P|428:220|487:255,1,95,6|0,0:0|0:0,0:0:0:0:
372,364,31368,1,14,0:0:0:0:
256,216,31553,1,0,0:0:0:0:
147,366,31739,38,0,P|91:293|0:296,1,190,6|12,0:0|0:0,0:0:0:0:
48,384,32294,1,2,0:0:0:0:
240,384,32479,2,0,L|223:283,1,95,6|0,0:0|0:0,0:0:0:0:
200,116,32850,1,12,0:0:0:0:
128,216,33035,1,0,0:0:0:0:
172,32,33220,22,0,B|219:25|219:25|260:49,1,95,4|0,0:0|0:0,0:0:0:0:
348,180,33590,2,0,B|307:204|307:204|260:197,1,95,12|0,0:0|0:0,0:0:0:0:
452,164,33961,2,0,L|439:234,1,47.5,6|0,0:0|0:0,0:0:0:0:
456,228,34146,1,2,0:0:0:0:
388,96,34331,2,0,L|366:-26,1,95,14|0,0:0|0:0,0:0:0:0:
456,320,34702,5,2,0:0:0:0:
368,276,34887,1,8,0:0:0:0:
344,280,34979,1,8,0:0:0:0:
320,284,35072,1,10,0:0:0:0:
297,288,35165,1,8,0:0:0:0:
273,292,35257,2,0,L|199:303,1,47.5,0|0,0:0|0:0,0:0:0:0:
120,384,35442,5,10,0:0:0:0:
160,356,35535,1,0,0:0:0:0:
188,320,35627,1,0,0:0:0:0:
188,272,35720,1,0,0:0:0:0:
168,228,35813,1,2,0:0:0:0:
128,200,35905,1,0,0:0:0:0:
104,160,35998,1,0,0:0:0:0:
104,112,36090,1,0,0:0:0:0:
132,72,36183,5,4,0:2:0:0:
352,196,36368,1,4,0:0:0:0:
208,136,36553,1,0,0:0:0:0:
432,24,36739,1,4,0:0:0:0:
292,8,36924,2,0,L|314:137,1,95,10|0,0:0|0:0,0:0:0:0:
340,304,37294,1,2,0:0:0:0:
480,248,37479,38,0,B|424:216|376:248|376:248|324:284|264:248,1,227.999993041992,0|0,0:0|0:0,0:0:0:0:
120,112,38035,1,2,0:0:0:0:
320,184,38220,1,4,0:0:0:0:
192,320,38405,2,0,B|168:268|168:268|174:210,1,113.999996520996,10|0,0:0|0:0,0:0:0:0:
336,75,38776,2,0,B|342:132|342:132|318:184,1,113.999996520996,2|0,0:0|0:0,0:0:0:0:
236,16,39146,21,0,0:0:0:0:
448,160,39331,1,4,0:0:0:0:
244,120,39516,2,0,L|106:95,1,113.999996520996,2|4,0:0|0:0,0:0:0:0:
244,288,39887,2,0,L|381:263,1,113.999996520996,10|0,0:0|0:0,0:0:0:0:
448,328,40257,1,2,0:0:0:0:
319,183,40442,1,4,0:0:0:0:
172,332,40627,101,2,0:0:0:0:
144,156,40813,2,0,L|131:226,1,56.9999982604981,0|0,0:0|2:0,0:0:0:0:
164,172,40998,2,0,L|151:242,1,56.9999982604981,0|0,0:0|2:0,0:0:0:0:
180,184,41183,2,0,L|167:254,1,56.9999982604981,0|0,0:0|2:0,0:0:0:0:
106,77,41368,2,0,B|153:70|153:70|196:87|196:87|244:80,1,142.500005435944,6|2,0:0|0:0,0:0:0:0:
256,92,41924,1,0,0:0:0:0:
452,192,42109,21,4,0:2:0:0:
244,276,42294,1,4,0:0:0:0:
428,192,42479,1,0,0:0:0:0:
256,92,42665,1,4,0:0:0:0:
368,32,42850,2,0,L|347:146,1,113.999996520996,10|0,0:0|0:0,0:0:0:0:
308,360,43220,1,2,0:0:0:0:
204,308,43405,6,0,B|260:340|308:308|308:308|360:272|420:308,1,227.999993041992,4|0,0:0|0:0,0:0:0:0:
256,232,43961,1,2,0:0:0:0:
124,360,44146,1,4,0:0:0:0:
12,296,44331,2,0,L|149:271,1,113.999996520996,8|0,0:0|0:0,0:0:0:0:
320,188,44702,2,0,L|182:163,1,113.999996520996,2|0,0:0|0:0,0:0:0:0:
88,80,45072,5,0,0:0:0:0:
212,12,45257,1,4,0:0:0:0:
0,80,45442,1,0,0:0:0:0:
208,168,45627,1,4,0:0:0:0:
88,284,45813,2,0,P|69:231|88:179,1,113.999996520996,10|0,0:0|0:0,0:0:0:0:
308,104,46183,1,2,0:0:0:0:
380,192,46368,38,0,L|127:236,1,227.999993041992,0|0,0:0|0:0,0:0:0:0:
308,104,46924,1,2,0:0:0:0:
384,292,47109,1,4,0:0:0:0:
464,136,47294,5,10,0:0:0:0:
256,360,47665,1,2,0:0:0:0:
188,68,48035,5,4,0:2:0:0:
296,12,48220,1,4,0:0:0:0:
192,188,48405,1,0,0:0:0:0:
64,68,48590,1,4,0:0:0:0:
280,108,48776,2,0,B|304:160|304:160|298:218,1,113.999996520996,10|0,0:0|0:0,0:0:0:0:
192,380,49146,1,2,0:0:0:0:
88,344,49331,6,0,B|76:229|76:229|123:127,1,227.999993041992,4|0,0:0|0:0,0:0:0:0:
298,216,49887,1,2,0:0:0:0:
192,288,50072,1,4,0:0:0:0:
280,108,50257,2,0,L|398:128,1,113.999996520996,10|0,0:0|0:0,0:0:0:0:
504,272,50627,2,0,L|391:291,1,113.999996520996,2|0,0:0|0:0,0:0:0:0:
192,172,50998,5,0,0:0:0:0:
272,346,51183,1,4,0:0:0:0:
184,64,51368,2,0,P|132:45|56:85,1,113.999996520996,2|4,0:0|0:0,0:0:0:0:
246,251,51739,2,0,P|195:269|119:230,1,113.999996520996,10|0,0:1|0:2,0:0:0:0:
416,176,52109,2,0,P|364:157|288:197,1,113.999996520996,2|0,0:0|0:0,0:0:0:0:
361,261,52479,69,2,0:0:0:0:
476,64,52665,2,0,L|412:75,1,56.9999982604981,0|0,0:0|2:0,0:0:0:0:
452,44,52850,2,0,L|388:55,1,56.9999982604981,0|0,0:0|2:0,0:0:0:0:
432,20,53035,2,0,L|368:31,1,56.9999982604981,0|0,0:0|2:0,0:0:0:0:
180,16,53220,1,6,0:0:0:0:
164,102,53405,1,4,0:0:0:0:
251,117,53590,1,0,0:0:0:0:
266,31,53775,1,0,0:0:0:0:
76,100,53961,53,4,0:2:0:0:
164,236,54146,1,4,0:0:0:0:
266,31,54331,1,0,0:0:0:0:
16,184,54516,1,4,0:0:0:0:
112,304,54702,2,0,P|164:323|240:283,1,113.999996520996,10|0,0:0|0:0,0:0:0:0:
388,196,55072,1,2,0:0:0:0:
296,144,55257,38,0,B|264:200|296:248|296:248|332:300|296:360,1,227.999993041992,4|0,0:0|0:0,0:0:0:0:
184,192,55813,1,2,0:0:0:0:
380,104,55998,1,4,0:0:0:0:
184,40,56183,2,0,L|317:16,1,113.999996520996,8|0,0:0|0:0,0:0:0:0:
184,192,56553,2,0,L|71:172,1,113.999996520996,2|0,0:0|0:0,0:0:0:0:
24,84,56924,21,0,0:0:0:0:
80,280,57109,1,4,0:0:0:0:
184,192,57294,1,0,0:0:0:0:
0,232,57479,1,4,0:0:0:0:
180,320,57665,2,0,B|232:344|232:344|290:338,1,113.999996520996,10|0,0:0|0:0,0:0:0:0:
437,260,58035,1,2,0:0:0:0:
401,156,58220,6,0,B|286:144|286:144|184:191,1,227.999993041992,0|0,0:0|0:0,0:0:0:0:
300,244,58776,1,2,0:0:0:0:
164,84,58961,1,4,0:0:0:0:
60,167,59146,2,0,L|83:300,1,113.999996520996,8|0,0:0|0:0,0:0:0:0:
280,356,59516,2,0,L|299:243,1,113.999996520996,0|0,0:0|0:0,0:0:0:0:
164,84,59887,37,0,0:0:0:0:
164,84,60072,1,4,0:0:0:0:
164,84,65257,5,0,0:0:0:0:
164,84,65442,1,8,0:0:0:0:
48,184,65813,101,0,0:0:0:0:
130,169,65999,1,4,0:0:0:0:
213,154,66184,1,8,0:0:0:0:
213,154,66924,2,0,P|268:132|360:172,1,142.5,8|0,0:0|0:0,0:0:0:0:
361,172,67294,5,2,0:0:0:0:
278,235,67479,1,4,0:0:0:0:
364,68,67665,1,8,0:0:0:0:
456,148,67850,2,0,B|463:195|463:195|439:236,1,95,2|0,0:0|0:0,0:0:0:0:
364,364,68220,1,2,0:0:0:0:
278,235,68405,1,8,0:0:0:0:
460,356,68590,102,0,L|266:321,1,190,2|4,0:0|0:0,0:0:0:0:
256,336,69146,1,8,0:0:0:0:
256,336,69887,2,0,P|190:311|124:333,1,142.5,8|0,0:0|0:0,0:0:0:0:
107,350,70257,1,2,0:0:0:0:
48,168,70442,1,4,0:0:0:0:
0,264,70627,2,0,L|157:236,1,142.5,8|0,0:0|0:0,0:0:0:0:
157,222,70998,5,8,0:0:0:0:
40,16,71183,1,2,0:0:0:0:
256,116,71368,1,0,0:0:0:0:
232,111,71461,1,0,0:0:0:0:
208,107,71553,2,0,L|137:94,1,47.5,2|0,0:0|0:0,0:0:0:0:
336,72,71739,6,0,P|348:128|313:187,1,95,4|0,0:0|0:0,0:0:0:0:
256,328,72109,2,0,P|243:282|255:237,1,95,14|0,0:0|0:0,0:0:0:0:
432,300,72479,2,0,L|325:281,1,95,6|0,0:0|0:0,0:0:0:0:
256,112,72850,1,14,0:0:0:0:
164,284,73035,1,0,0:0:0:0:
80,152,73220,22,0,B|134:242|38:242|86:334,1,190,6|12,0:0|0:0,0:0:0:0:
1,117,73776,2,0,P|92:120|148:48,1,190,2|0,0:0|0:0,0:0:0:0:
50,28,74331,1,14,0:0:0:0:
184,192,74516,1,0,0:0:0:0:
308,28,74702,5,4,0:0:0:0:
240,112,74887,1,2,0:0:0:0:
240,112,75072,2,0,L|362:133,1,95,14|0,0:0|0:0,0:0:0:0:
504,64,75442,2,0,L|381:42,1,95,6|0,0:0|0:0,0:0:0:0:
336,232,75813,1,14,0:0:0:0:
240,112,75998,1,0,0:0:0:0:
436,248,76183,6,0,P|380:320|289:317,1,190,6|8,0:0|0:0,0:0:0:0:
156,227,76739,2,0,B|245:273|245:177|335:232,1,190,2|0,0:0|0:0,0:0:0:0:
136,368,77294,2,0,L|148:297,1,47.5,14|0,0:0|0:0,0:0:0:0:
48,228,77479,2,0,L|56:274,1,47.5,0|0,0:0|0:0,0:0:0:0:
104,128,77665,6,0,B|57:135|57:135|16:111,1,95,4|0,0:0|0:0,0:0:0:0:
156,32,78035,2,0,B|197:8|197:8|244:15,1,95,14|0,0:0|0:0,0:0:0:0:
216,192,78405,2,0,P|203:146|215:101,1,95,6|0,0:0|0:0,0:0:0:0:
408,36,78776,1,14,0:0:0:0:
296,140,78961,1,0,0:0:0:0:
375,223,79146,38,0,L|412:10,1,190,6|12,0:0|0:0,0:0:0:0:
248,379,79702,2,0,L|210:166,1,190,2|0,0:0|0:0,0:0:0:0:
96,124,80257,1,14,0:0:0:0:
256,36,80442,1,0,0:0:0:0:
8,172,80627,22,0,P|-4:126|7:81,1,95,4|0,0:0|0:0,0:0:0:0:
92,224,80998,2,0,P|104:269|92:314,1,95,12|0,0:0|0:0,0:0:0:0:
0,336,81368,2,0,L|15:245,1,47.5,6|0,0:0|0:0,0:0:0:0:
24,272,81553,1,2,0:0:0:0:
204,272,81739,2,0,L|226:401,1,95,14|0,0:0|0:0,0:0:0:0:
188,180,82109,5,0,0:0:0:0:
360,116,82294,1,0,0:0:0:0:
164,52,82479,1,0,0:0:0:0:
336,116,82664,1,0,0:0:0:0:
104,208,82850,1,0,0:0:0:0:
304,116,83035,1,0,0:0:0:0:
72,8,83220,1,8,0:0:0:0:
68,31,83313,1,0,0:0:0:0:
64,55,83405,1,0,0:0:0:0:
60,78,83498,1,0,0:0:0:0:
56,102,83590,5,4,0:2:0:0:
104,316,83776,1,4,0:0:0:0:
200,144,83961,1,0,0:0:0:0:
8,248,84146,1,4,0:0:0:0:
216,352,84331,2,0,B|221:295|221:295|197:243,1,113.999996520996,10|0,0:0|0:0,0:0:0:0:
356,64,84702,1,2,0:0:0:0:
414,144,84887,6,0,B|355:179|303:143|303:143|255:111|199:143,1,227.999993041992,0|0,0:0|0:0,0:0:0:0:
100,192,85442,1,2,0:0:0:0:
208,24,85627,1,4,0:0:0:0:
24,124,85813,2,0,B|0:176|0:176|5:232,1,113.999996520996,10|0,0:0|0:0,0:0:0:0:
216,344,86183,2,0,B|221:287|221:287|197:235,1,113.999996520996,2|0,0:0|0:0,0:0:0:0:
112,304,86553,37,0,0:0:0:0:
328,376,86739,1,4,0:0:0:0:
440,256,86924,2,0,L|294:281,1,113.999996520996,2|4,0:0|0:0,0:0:0:0:
156,108,87294,2,0,L|301:133,1,113.999996520996,10|0,0:0|0:0,0:0:0:0:
444,164,87665,1,2,0:0:0:0:
376,28,87850,1,4,0:0:0:0:
272,216,88035,5,2,0:0:0:0:
337,331,88220,2,0,L|325:267,1,56.9999982604981,0|0,0:0|2:0,0:0:0:0:
356,336,88405,2,0,L|344:272,1,56.9999982604981,0|0,0:0|2:0,0:0:0:0:
376,344,88590,2,0,L|364:280,1,56.9999982604981,0|0,0:0|2:0,0:0:0:0:
181,186,88776,2,0,B|174:233|174:233|191:276|191:276|184:324,1,142.500005435944,6|2,0:0|0:0,0:0:0:0:
272,216,89331,1,0,0:0:0:0:
184,92,89516,5,4,0:2:0:0:
92,292,89702,1,4,0:0:0:0:
12,88,89887,1,0,0:0:0:0:
92,208,90072,1,4,0:0:0:0:
20,384,90257,2,0,L|-5:238,1,113.999996520996,10|0,0:0|0:0,0:0:0:0:
184,92,90627,1,2,0:0:0:0:
260,16,90813,6,0,P|341:11|408:144,1,227.999993041992,4|0,0:0|0:0,0:0:0:0:
360,307,91368,1,2,0:0:0:0:
308,112,91553,1,4,0:0:0:0:
440,236,91739,2,0,B|464:288|464:288|459:345,1,113.999996520996,8|0,0:0|0:0,0:0:0:0:
289,220,92109,2,0,B|284:163|284:163|308:111,1,113.999996520996,2|0,0:0|0:0,0:0:0:0:
284,368,92479,5,0,0:0:0:0:
156,208,92665,1,4,0:0:0:0:
360,308,92850,1,0,0:0:0:0:
156,376,93035,1,4,0:0:0:0:
104,304,93220,2,0,P|157:285|209:304,1,113.999996520996,10|0,0:0|0:0,0:0:0:0:
156,96,93590,1,2,0:0:0:0:
208,176,93776,6,0,P|155:195|102:176,1,113.999996520996,0|0,0:0|0:0,0:0:0:0:
104,24,94146,2,0,B|160:-8|208:24|208:24|260:60|319:25,1,227.999993041992,0|4,0:0|0:0,0:0:0:0:
360,176,94702,1,10,0:0:0:0:
448,44,94887,1,0,0:0:0:0:
244,180,95072,2,0,L|269:321,1,113.999996520996,2|0,0:0|0:0,0:0:0:0:
476,176,95442,37,4,0:2:0:0:
318,25,95627,1,4,0:0:0:0:
420,260,95813,1,0,0:0:0:0:
512,100,95998,1,4,0:0:0:0:
311,241,96183,2,0,B|368:236|368:236|420:260,1,113.999996520996,10|0,0:0|0:0,0:0:0:0:
318,25,96553,1,2,0:0:0:0:
256,120,96739,22,0,B|154:167|154:167|39:155,1,227.999993041992,4|0,0:0|0:0,0:0:0:0:
140,68,97294,1,2,0:0:0:0:
32,248,97479,1,4,0:0:0:0:
124,360,97665,2,0,L|149:214,1,113.999996520996,10|0,0:0|0:0,0:0:0:0:
19,42,98035,2,0,L|38:154,1,113.999996520996,2|0,0:0|0:0,0:0:0:0:
232,248,98405,5,0,0:0:0:0:
140,68,98590,1,4,0:0:0:0:
404,248,98776,2,0,P|423:300|403:353,1,113.999996520996,2|4,0:0|0:0,0:0:0:0:
231,142,99146,2,0,P|211:194|231:247,1,113.999996520996,10|0,0:1|0:2,0:0:0:0:
340,12,99516,2,0,P|359:64|339:117,1,113.999996520996,2|0,0:0|0:0,0:0:0:0:
232,248,99887,85,2,0:0:0:0:
204,48,100072,2,0,L|270:59,1,56.9999982604981,0|0,0:0|2:0,0:0:0:0:
196,36,100257,2,0,L|262:47,1,56.9999982604981,0|0,0:0|2:0,0:0:0:0:
188,24,100442,2,0,L|254:35,1,56.9999982604981,0|0,0:0|2:0,0:0:0:0:
339,116,100627,1,6,0:0:0:0:
355,202,100812,1,4,0:0:0:0:
268,217,100997,1,0,0:0:0:0:
253,131,101182,1,0,0:0:0:0:
456,200,101368,37,4,0:2:0:0:
264,308,101553,1,4,0:0:0:0:
412,80,101739,1,0,0:0:0:0:
407,271,101924,1,4,0:0:0:0:
344,20,102109,2,0,B|396:-4|396:-4|453:1,1,113.999996520996,10|0,0:0|0:0,0:0:0:0:
252,132,102479,1,2,0:0:0:0:
188,24,102665,6,0,L|230:264,1,227.999993041992,4|0,0:0|0:0,0:0:0:0:
388,384,103220,2,0,L|410:257,1,113.999996520996,2|4,0:0|0:0,0:0:0:0:
160,320,103590,2,0,B|212:344|212:344|269:339,1,113.999996520996,8|0,0:0|0:0,0:0:0:0:
452,180,103961,2,0,B|395:175|395:175|343:199,1,113.999996520996,2|0,0:0|0:0,0:0:0:0:
160,320,104331,37,0,0:0:0:0:
56,160,104516,1,4,0:0:0:0:
228,248,104702,1,0,0:0:0:0:
60,364,104887,1,4,0:0:0:0:
136,108,105072,2,0,P|156:160|136:213,1,113.999996520996,10|0,0:0|0:0,0:0:0:0:
268,328,105442,1,2,0:0:0:0:
344,384,105627,22,0,B|379:325|343:273|343:273|311:225|343:169,1,227.999993041992,0|0,0:0|0:0,0:0:0:0:
288,64,106183,1,2,0:0:0:0:
416,224,106368,1,4,0:0:0:0:
272,44,106553,1,8,0:0:0:0:
432,244,106924,1,0,0:0:0:0:
496,116,107109,1,0,0:0:0:0:
256,196,107294,53,0,0:0:0:0:
256,196,107479,1,4,0:0:0:0:
168,180,107665,2,0,L|89:166,1,71.2500027179719,8|4,0:0|0:0,0:0:0:0:
201,262,108035,2,0,L|150:323,1,71.2500027179719,8|0,0:0|0:0,0:0:0:0:
288,272,108405,2,0,L|315:347,2,71.2500027179719,8|8|0,0:0|0:0|0:0,0:0:0:0:
224,116,108961,6,0,P|236:68|336:32,1,142.500005435944,4|4,0:0|0:0,0:0:0:0:
376,132,109516,1,8,0:0:0:0:
360,129,109609,1,0,0:0:0:0:
344,126,109702,1,0,0:0:0:0:
328,123,109794,1,0,0:0:0:0:
312,120,109887,1,8,0:0:0:0:
100,220,110072,101,8,0:0:0:0:
100,220,110442,1,4,0:0:0:0:
188,204,110628,2,0,L|266:190,1,71.2500027179719,8|4,0:0|0:0,0:0:0:0:
155,286,110998,2,0,L|206:347,1,71.2500027179719,8|0,0:0|0:0,0:0:0:0:
68,296,111368,2,0,L|40:371,2,71.2500027179719,8|8|0,0:0|0:0|0:0,0:0:0:0:
124,137,111924,6,0,P|100:73|36:48,1,142.500005435944,4|8,0:0|0:0,0:0:0:0:
24,200,112479,1,10,0:0:0:0:
27,184,112572,1,0,0:0:0:0:
30,168,112664,1,2,0:0:0:0:
33,152,112757,1,0,0:0:0:0:
36,136,112850,1,8,0:0:0:0:
296,308,113035,5,4,0:2:0:0:
296,308,113405,2,0,B|250:228|250:228|264:133,1,190,2|4,0:0|0:0,0:0:0:0:
360,201,113960,1,2,0:0:0:0:
168,128,114145,1,4,0:0:0:0:
264,44,114331,1,8,0:0:0:0:
84,172,114516,2,0,P|72:128|84:80,1,95,2|0,0:0|0:0,0:0:0:0:
0,224,114886,22,0,P|68:212|148:304,1,190,2|4,0:0|0:0,0:0:0:0:
44,317,115442,1,2,0:0:0:0:
244,276,115627,1,4,0:0:0:0:
164,384,115812,1,12,0:0:0:0:
316,216,115997,2,0,B|340:257|340:257|333:305,1,95,2|0,0:0|0:0,0:0:0:0:
420,136,116368,6,0,L|233:104,1,190,2|4,0:0|0:0,0:0:0:0:
180,176,116923,1,2,0:0:0:0:
112,12,117108,1,4,0:0:0:0:
32,176,117293,1,8,0:0:0:0:
240,240,117479,2,0,B|200:264|200:264|152:257,1,95,2|0,0:0|0:0,0:0:0:0:
409,137,117849,6,0,B|328:90|328:90|233:104,1,190,2|4,0:0|0:0,0:0:0:0:
308,192,118405,1,2,0:0:0:0:
460,56,118590,1,4,0:0:0:0:
492,252,118775,1,6,0:0:0:0:
308,192,118961,2,0,L|329:314,1,95,0|0,0:0|0:0,0:0:0:0:
216,8,119331,6,0,L|181:204,1,190,2|4,0:0|0:0,0:0:0:0:
156,336,119887,1,2,0:0:0:0:
60,192,120072,1,4,0:0:0:0:
256,276,120257,1,8,0:0:0:0:
72,364,120442,2,0,B|65:316|65:316|89:276,1,95,2|0,0:0|0:0,0:0:0:0:
315,173,120813,38,0,B|362:254|362:254|348:349,1,190,2|4,0:0|0:0,0:0:0:0:
256,276,121368,1,2,0:0:0:0:
316,76,121553,1,4,0:0:0:0:
436,172,121739,1,12,0:0:0:0:
216,136,121924,1,0,0:0:0:0:
353,268,122109,21,8,0:0:0:0:
316,76,122294,1,6,0:0:0:0:
125,113,122479,1,8,0:0:0:0:
162,305,122665,1,6,0:0:0:0:
8,192,122850,5,10,0:0:0:0:
45,0,123035,1,6,0:0:0:0:
236,37,123220,1,10,0:0:0:0:
199,229,123406,1,6,0:0:0:0:
125,113,123590,85,8,0:0:0:0:
419,65,123776,1,6,0:0:0:0:
41,126,123961,1,8,0:0:0:0:
334,172,124147,1,6,0:0:0:0:
139,198,124331,1,10,0:0:0:0:
418,152,124517,1,6,0:0:0:0:
55,212,124702,1,2,0:0:0:0:
333,259,124888,1,6,0:0:0:0:
256,348,125072,69,0,0:0:0:0:
176,140,130442,6,0,L|163:210,1,47.5,4|0,0:0|2:0,0:0:0:0:
163,208,130627,1,0,0:0:0:0:
336,140,130813,2,0,L|349:210,1,47.5,4|0,0:0|2:0,0:0:0:0:
349,208,130998,1,0,0:0:0:0:
60,192,136183,101,0,0:0:0:0:
96,160,136276,1,0,0:0:0:0:
144,152,136368,1,0,0:0:0:0:
192,160,136461,1,0,0:0:0:0:
224,192,136553,1,0,0:0:0:0:
260,224,136646,1,0,0:0:0:0:
308,232,136739,1,0,0:0:0:0:
356,224,136831,1,0,0:0:0:0:
392,192,136924,6,0,L|412:120,1,47.5,4|0,0:0|0:0,0:0:0:0:
288,48,137109,1,0,0:0:0:0:
296,95,137202,1,0,0:0:0:0:
304,142,137294,1,6,0:0:0:0:
472,208,137665,102,0,P|492:172|456:68,1,142.500005435944,14|4,0:0|0:0,0:0:0:0:
404,146,138220,1,0,0:0:0:0:
332,320,138405,2,0,L|481:293,2,142.500005435944,6|4|12,0:0|0:0|0:0,0:0:0:0:
256,192,139516,2,0,L|169:176,1,71.2500027179719,6|0,0:0|0:0,0:0:0:0:
158,199,139794,1,0,0:0:0:0:
158,199,139887,1,4,0:0:0:0:
92,276,140072,1,0,0:0:0:0:
92,276,140165,1,0,0:0:0:0:
92,276,140257,6,0,P|127:297|232:264,2,142.500005435944,6|12|4,0:0|0:0|0:0,0:0:0:0:
156,200,141183,1,0,0:0:0:0:
24,80,141368,2,0,B|95:68|95:68|157:103,1,142.500005435944,6|4,0:0|0:0,0:0:0:0:
368,128,142109,2,0,B|306:162|306:162|235:150,1,142.500005435944,14|4,0:0|0:0,0:0:0:0:
284,40,142665,1,0,0:0:0:0:
286,55,142757,1,0,0:0:0:0:
289,71,142850,1,4,0:0:0:0:
392,236,143035,1,0,0:0:0:0:
395,220,143128,1,0,0:0:0:0:
398,204,143220,102,0,L|423:58,2,142.500005435944,6|12|6,0:0|0:0|0:0,0:0:0:0:
372,360,144146,1,0,0:0:0:0:
296,324,144331,2,0,L|458:299,1,142.500005435944,6|4,0:0|0:0,0:0:0:0:
156,184,144887,2,0,L|296:205,1,142.500005435944,2|0,0:0|0:0,0:0:0:0:
80,220,145442,2,0,P|72:176|88:136,1,71.2500027179719,6|0,0:0|0:0,0:0:0:0:
104,125,145720,1,0,0:0:0:0:
104,125,145813,1,4,0:0:0:0:
160,288,145998,1,0,0:0:0:0:
160,288,146090,1,0,0:0:0:0:
160,288,146183,6,0,B|98:322|98:322|27:310,2,142.500005435944,4|14|4,0:0|0:0|0:0,0:0:0:0:
280,120,147294,2,0,B|315:114|315:114|346:131,1,71.2500027179719,6|8,0:0|0:0,0:0:0:0:
380,164,147572,1,8,0:0:0:0:
428,176,147665,1,8,0:0:0:0:
472,164,147757,1,8,0:0:0:0:
508,136,147850,1,0,0:0:0:0:
464,120,147942,1,8,0:0:0:0:
416,132,148035,1,8,0:0:0:0:
380,164,148127,1,8,0:0:0:0:
364,208,148220,101,0,0:0:0:0:
340,248,148313,1,0,0:0:0:0:
304,280,148405,1,0,0:0:0:0:
256,292,148498,1,0,0:0:0:0:
208,284,148590,1,0,0:0:0:0:
172,252,148683,1,0,0:0:0:0:
152,208,148776,1,0,0:0:0:0:
256,192,148961,12,0,151368,0:0:0:0:
32,52,151739,22,0,L|205:82,1,170.999994781494,6|0,0:2|0:0,0:0:0:0:
220,60,152109,2,0,L|244:193,1,113.999996520996,8|4,0:0|0:0,0:0:0:0:
256,308,152479,1,2,0:0:0:0:
342,145,152665,1,0,0:0:0:0:
140,252,152850,1,10,0:0:0:0:
344,360,153035,22,0,B|379:301|343:249|343:249|311:201|343:145,1,227.999993041992,4|0,0:0|0:0,0:0:0:0:
460,88,153590,2,0,L|437:214,1,113.999996520996,10|4,0:0|0:0,0:0:0:0:
344,360,153961,2,0,L|324:247,1,113.999996520996,2|0,0:0|0:0,0:0:0:0:
294,75,154331,1,10,0:0:0:0:
440,200,154516,1,4,0:0:0:0:
344,0,154702,6,0,P|380:64|340:154,1,170.999994781494,0|0,0:0|0:0,0:0:0:0:
328,164,155072,2,0,L|194:140,1,113.999996520996,10|4,0:0|0:0,0:0:0:0:
144,264,155442,1,0,0:0:0:0:
80,124,155627,1,0,0:0:0:0:
248,268,155813,1,10,0:0:0:0:
144,376,155998,1,4,0:0:0:0:
4,288,156183,6,0,B|39:229|3:177|3:177|-29:129|3:73,1,227.999993041992,2|8,0:0|0:0,0:0:0:0:
297,159,156739,2,0,B|182:171|182:171|80:124,1,227.999993041992,6|0,0:0|0:0,0:0:0:0:
224,64,157294,2,0,B|276:40|276:40|333:45,1,113.999996520996,10|4,0:0|0:0,0:0:0:0:
329,343,157665,6,0,L|294:146,1,170.999994781494,0|0,0:0|0:0,0:0:0:0:
297,159,158035,2,0,L|430:182,1,113.999996520996,8|4,0:0|0:0,0:0:0:0:
224,344,158405,1,2,0:0:0:0:
152,260,158590,1,0,0:0:0:0:
329,343,158776,1,10,0:0:0:0:
96,384,158961,2,0,B|49:282|49:282|61:167,1,227.999993041992,0|0,0:0|0:0,0:0:0:0:
224,88,159516,38,0,B|168:120|120:88|120:88|68:52|9:87,1,227.999993041992,10|0,0:0|0:0,0:0:0:0:
168,12,160072,1,0,0:0:0:0:
228,196,160257,1,14,0:0:0:0:
288,16,160442,1,0,0:0:0:0:
452,128,160627,2,0,L|332:106,1,113.999996520996,0|4,0:0|0:0,0:0:0:0:
228,296,160998,2,0,L|340:276,1,113.999996520996,8|4,0:0|0:0,0:0:0:0:
148,348,161368,22,0,P|129:295|148:242,1,113.999996520996,2|0,0:0|0:0,0:0:0:0:
228,80,161739,1,8,0:0:0:0:
146,28,161924,2,0,B|111:87|147:139|147:139|179:187|147:243,1,227.999993041992,4|0,0:0|0:0,0:0:0:0:
56,188,162479,1,8,0:0:0:0:
228,300,162665,1,4,0:0:0:0:
444,156,162850,5,10,0:0:0:0:
420,160,162942,1,8,0:0:0:0:
396,164,163035,1,8,0:0:0:0:
373,168,163127,1,8,0:0:0:0:
349,172,163220,1,8,0:0:0:0:
325,176,163313,1,8,0:0:0:0:
302,181,163405,1,8,0:0:0:0:
278,185,163498,1,8,0:0:0:0:
256,188,163590,6,0,P|252:248|368:276,1,170.999994781494,6|0,0:2|0:0,0:0:0:0:
356,284,163961,2,0,L|474:304,1,113.999996520996,8|4,0:0|0:0,0:0:0:0:
256,96,164331,1,2,0:0:0:0:
164,280,164516,1,0,0:0:0:0:
84,144,164702,1,10,0:0:0:0:
376,52,164887,54,0,B|274:5|274:5|159:17,1,227.999993041992,0|0,0:0|0:0,0:0:0:0:
380,172,165442,2,0,B|437:177|437:177|489:153,1,113.999996520996,10|4,0:0|0:0,0:0:0:0:
376,52,165813,1,2,0:0:0:0:
332,256,165998,1,4,0:0:0:0:
212,132,166183,1,10,0:0:0:0:
432,256,166368,1,0,0:0:0:0:
336,352,166553,22,0,L|131:315,1,170.999994781494,0|0,0:0|0:0,0:0:0:0:
156,332,166924,2,0,L|130:186,1,113.999996520996,10|4,0:0|0:0,0:0:0:0:
451,368,167294,2,0,L|425:222,1,113.999996520996,2|0,0:0|0:0,0:0:0:0:
400,72,167665,1,10,0:0:0:0:
308,196,167850,1,0,0:0:0:0:
480,124,168035,2,0,P|499:71|479:19,1,113.999996520996,2|0,0:0|0:0,0:0:0:0:
300,48,168405,102,0,L|310:107,1,56.9999982604981,0|0,0:0|2:0,0:0:0:0:
441,199,168590,2,0,L|431:255,1,56.9999982604981,0|0,0:0|2:0,0:0:0:0:
276,360,168776,1,6,0:0:0:0:
260,274,168961,1,0,0:0:0:0:
347,259,169146,1,0,0:0:0:0:
362,345,169331,1,0,0:0:0:0:
136,272,169516,21,0,0:0:0:0:
292,188,169702,1,0,0:0:0:0:
44,272,169887,1,0,0:0:0:0:
168,376,170072,2,0,B|136:320|168:272|168:272|204:220|169:161,1,227.999993041992,4|8,0:0|0:0,0:0:0:0:
92,80,170627,1,2,0:0:0:0:
44,272,170813,1,0,0:0:0:0:
96,56,170998,6,0,B|211:44|211:44|313:91,1,227.999993041992,8|2,0:0|0:0,0:0:0:0:
512,188,171553,2,0,B|410:235|410:235|295:223,1,227.999993041992,4|0,0:0|0:0,0:0:0:0:
416,28,172109,2,0,L|394:150,1,113.999996520996,10|0,0:0|0:0,0:0:0:0:
296,312,172479,5,0,0:0:0:0:
184,159,172665,1,0,0:0:0:0:
396,312,172850,1,0,0:0:0:0:
224,384,173035,2,0,L|182:147,1,227.999993041992,4|0,0:0|0:0,0:0:0:0:
160,16,173590,1,2,0:0:0:0:
300,160,173776,1,0,0:0:0:0:
100,212,173961,54,0,P|81:159|101:107,1,113.999996520996,8|0,0:0|0:0,0:0:0:0:
289,61,174331,2,0,L|367:74,1,56.9999982604981,0|0,0:0|0:0,0:0:0:0:
308,44,174516,2,0,L|386:57,1,56.9999982604981,0|0,0:0|0:0,0:0:0:0:
484,64,174702,1,6,0:0:0:0:
300,156,174887,1,0,0:0:0:0:
448,232,175072,1,8,0:0:0:0:
384,320,175442,101,4,0:2:0:0:
