osu file format v14

[General]
AudioFilename: audio.mp3
AudioLeadIn: 0
PreviewTime: 113043
Countdown: 1
SampleSet: None
StackLeniency: 0.7
Mode: 0
LetterboxInBreaks: 0
WidescreenStoryboard: 1

[Editor]
Bookmarks: 6561,12487,24339,34710,36191,59895,59987,60080,60173,60265,65821,71747,82117,83598,107302,113228,122117,125080,125173,125265,125358,125450,130442,130998,131090,131183,131276,131368,136183,148776,148868,148961,149053,149146
DistanceSpacing: 1
BeatDivisor: 1
GridSize: 32
TimelineZoom: 1.8

[Metadata]
Title:Pressure
TitleUnicode:Pressure
Artist:Paramore
ArtistUnicode:Paramore
Creator:Veridian
Version:Hard
Source:All We Know is Falling
Tags:h
BeatmapID:1989083
BeatmapSetID:952593

[Difficulty]
HPDrainRate:5
CircleSize:3.5
OverallDifficulty:5
ApproachRate:7
SliderMultiplier:1.6
SliderTickRate:1

[Events]
//Background and Video events
0,0,"maxresdefault.jpg",0,0
//Break Periods
2,60395,64357
2,125271,129542
2,131198,135283
//Storyboard Layer 0 (Background)
//Storyboard Layer 1 (Fail)
//Storyboard Layer 2 (Pass)
//Storyboard Layer 3 (Foreground)
//Storyboard Sound Samples

[TimingPoints]
628,370.37037037037,4,1,1,80,1,0
6368,-100,4,1,0,80,0,0
6553,-100,4,1,1,80,0,0
36183,-100,4,1,0,80,0,1
36368,-100,4,1,1,80,0,0
36932,-83.3333333333333,4,1,1,80,0,0
40813,-83.3333333333333,4,1,1,100,0,0
40905,-83.3333333333333,4,1,1,5,0,0
40998,-83.3333333333333,4,1,1,100,0,0
41090,-83.3333333333333,4,1,1,5,0,0
41183,-83.3333333333333,4,1,1,100,0,0
41276,-83.3333333333333,4,1,1,5,0,0
41368,-133.333333333333,4,1,0,70,0,0
41739,-133.333333333333,4,1,1,80,0,0
42109,-83.3333333333333,4,1,0,80,0,0
42294,-83.3333333333333,4,1,1,80,0,0
48035,-83.3333333333333,4,1,0,80,0,1
48220,-83.3333333333333,4,1,1,80,0,0
48784,-83.3333333333333,4,1,1,80,0,0
52665,-83.3333333333333,4,1,1,100,0,0
52757,-83.3333333333333,4,1,1,5,0,0
52850,-83.3333333333333,4,1,1,100,0,0
52942,-83.3333333333333,4,1,1,5,0,0
53035,-83.3333333333333,4,1,1,100,0,0
53128,-83.3333333333333,4,1,1,5,0,0
53220,-133.333333333333,4,1,0,70,0,0
53405,-133.333333333333,4,1,1,80,0,0
53961,-83.3333333333333,4,1,0,80,0,0
54146,-83.3333333333333,4,1,1,80,0,0
65813,-100,4,1,1,80,0,0
83590,-100,4,1,0,80,0,1
83776,-100,4,1,1,80,0,0
84339,-83.3333333333333,4,1,1,80,0,0
88220,-83.3333333333333,4,1,1,100,0,0
88312,-83.3333333333333,4,1,1,5,0,0
88405,-83.3333333333333,4,1,1,100,0,0
88497,-83.3333333333333,4,1,1,5,0,0
88590,-83.3333333333333,4,1,1,100,0,0
88683,-83.3333333333333,4,1,1,5,0,0
88775,-133.333333333333,4,1,0,70,0,0
89146,-133.333333333333,4,1,1,80,0,0
89516,-83.3333333333333,4,1,0,80,0,0
89701,-83.3333333333333,4,1,1,80,0,0
95442,-83.3333333333333,4,1,0,80,0,1
95627,-83.3333333333333,4,1,1,80,0,0
96191,-83.3333333333333,4,1,1,80,0,0
100072,-83.3333333333333,4,1,1,100,0,0
100164,-83.3333333333333,4,1,1,5,0,0
100257,-83.3333333333333,4,1,1,100,0,0
100349,-83.3333333333333,4,1,1,5,0,0
100442,-83.3333333333333,4,1,1,100,0,0
100535,-83.3333333333333,4,1,1,5,0,0
100627,-133.333333333333,4,1,0,70,0,0
100812,-133.333333333333,4,1,1,80,0,0
101368,-133.333333333333,4,1,0,80,0,0
101553,-83.3333333333333,4,1,1,80,0,0
107294,-133.333333333333,4,1,1,80,0,0
113035,-133.333333333333,4,1,0,80,0,0
113405,-100,4,1,1,100,0,0
122109,-100,4,1,1,80,0,1
125072,-100,4,1,1,80,0,0
130535,-100,4,1,1,5,0,0
130627,-100,4,1,1,80,0,0
130905,-100,4,1,1,5,0,0
130997,-100,4,1,1,80,0,0
137665,-133.333333333333,4,1,1,80,0,0
147479,-100,4,1,1,80,0,0
151739,-83.3333333333333,4,1,0,80,0,1
152016,-83.3333333333333,4,1,1,80,0,1
162850,-100,4,1,1,80,0,0
163590,-83.3333333333333,4,1,0,80,0,1
163868,-83.3333333333333,4,1,1,80,0,1
168405,-83.3333333333333,4,1,1,100,0,1
168498,-83.3333333333333,4,1,1,5,0,1
168590,-83.3333333333333,4,1,1,100,0,1
168683,-83.3333333333333,4,1,1,5,0,1
168776,-133.333333333333,4,1,0,80,0,1
169516,-83.3333333333333,4,1,1,80,0,1
174331,-83.3333333333333,4,1,1,100,0,1
174424,-83.3333333333333,4,1,1,5,0,1
174516,-83.3333333333333,4,1,1,100,0,1
174609,-83.3333333333333,4,1,1,5,0,1
174702,-133.333333333333,4,1,0,80,0,1
174887,-133.333333333333,4,1,1,80,0,1
175442,-100,4,1,0,100,0,0

[Colours]
Combo1 : 255,255,255
Combo2 : 49,72,128
Combo3 : 175,35,35
Combo4 : 240,249,72
Combo5 : 176,227,70
Combo6 : 253,194,72
Combo7 : 238,77,149
Combo8 : 183,183,183

[HitObjects]
140,128,5813,6,0,L|140:56,2,40,8|0|0,0:0|0:0|0:0,0:0:0:0:
140,223,6183,1,0,0:0:0:0:
56,272,6368,2,0,P|96:312|148:312,1,80,4|0,0:2|0:0,0:0:0:0:
256,284,6739,22,0,L|226:114,1,160,2|4,0:0|0:0,0:0:0:0:
296,58,7294,2,0,P|356:56|424:144,1,160,2|8,0:0|0:0,0:0:0:0:
421,220,7850,1,2,0:0:0:0:
292,360,8220,2,0,B|216:392|216:320|132:352,1,160,2|4,0:0|0:0,0:0:0:0:
44,376,8776,2,0,L|12:194,1,160,2|12,0:0|0:0,0:0:0:0:
84,150,9331,1,2,0:0:0:0:
272,200,9702,6,0,P|349:194|397:133,1,160,2|4,0:0|0:0,0:0:0:0:
329,65,10257,2,0,L|155:95,1,160,2|8,0:0|0:0,0:0:0:0:
86,39,10813,1,2,0:0:0:0:
114,227,11183,2,0,L|279:197,1,160,2|4,0:0|0:0,0:0:0:0:
280,296,11739,2,0,P|327:357|405:362,1,160,2|12,0:0|0:0,0:0:0:0:
473,294,12294,1,10,0:0:0:0:
405,226,12479,38,0,L|421:131,2,80,0|4|8,0:0|0:0|0:0,0:0:0:0:
405,226,13590,1,8,0:0:0:0:
292,68,13961,2,0,L|262:237,1,160,2|8,0:0|0:0,0:0:0:0:
248,320,14516,1,2,0:0:0:0:
140,160,14887,1,2,0:0:0:0:
36,320,15257,1,2,0:0:0:0:
124,284,15442,6,0,P|133:328|117:369,2,80,0|4|8,0:0|0:0|0:0,0:0:0:0:
124,284,16553,1,8,0:0:0:0:
40,112,16924,2,0,P|87:50|165:45,1,160,2|8,0:0|0:0,0:0:0:0:
233,113,17479,1,2,0:0:0:0:
408,192,17850,1,2,0:0:0:0:
233,271,18220,1,2,0:0:0:0:
300,338,18405,102,0,L|398:320,2,80,0|4|8,0:0|0:0|0:0,0:0:0:0:
300,338,19516,1,8,0:0:0:0:
388,168,19887,2,0,L|230:195,1,160,2|0,0:0|0:0,0:0:0:0:
162,127,20442,1,2,0:0:0:0:
88,304,20813,1,2,0:0:0:0:
12,128,21183,1,2,0:0:0:0:
88,188,21368,6,0,L|88:280,2,80,0|4|8,0:0|0:0|0:0,0:0:0:0:
88,188,22479,1,8,0:0:0:0:
184,20,22850,2,0,P|261:25|309:86,1,160,2|8,0:0|0:0,0:0:0:0:
296,180,23405,2,0,L|285:239,2,40,2|0|8,0:0|0:0|0:0,0:0:0:0:
388,148,23776,1,2,0:0:0:0:
288,312,24146,1,2,0:0:0:0:
212,256,24331,6,0,B|136:220|136:304|40:248,2,160,4|14|6,0:0|0:0|0:0,0:0:0:0:
376,156,25442,2,0,L|475:173,1,80,14|0,0:0|0:0,0:0:0:0:
496,84,25813,2,0,L|306:50,1,160,6|12,0:0|0:0,0:0:0:0:
340,248,26553,2,0,L|182:220,1,160,6|12,0:0|0:0,0:0:0:0:
114,288,27109,1,0,0:0:0:0:
88,196,27294,22,0,P|26:243|21:321,2,160,4|14|6,0:0|0:0|0:0,0:0:0:0:
12,20,28405,2,0,L|110:37,1,80,14|0,0:0|0:0,0:0:0:0:
188,48,28776,2,0,P|235:109|313:114,1,160,6|8,0:0|0:0,0:0:0:0:
372,40,29331,2,0,L|341:213,1,160,2|0,0:0|0:0,0:0:0:0:
412,265,29887,2,0,B|424:304|424:304|404:356,1,80,14|0,0:0|0:0,0:0:0:0:
324,300,30257,6,0,B|248:264|248:348|152:292,2,160,4|14|6,0:0|0:0|0:0,0:0:0:0:
224,136,31368,2,0,L|208:226,1,80,14|0,0:0|0:0,0:0:0:0:
116,236,31739,2,0,L|147:58,1,160,6|12,0:0|0:0,0:0:0:0:
228,32,32294,1,2,0:0:0:0:
312,80,32479,2,0,P|373:127|378:205,1,160,6|12,0:0|0:0,0:0:0:0:
376,300,33035,1,0,0:0:0:0:
292,256,33220,6,0,B|216:220|216:304|120:248,2,160,4|12|6,0:0|0:0|0:0,0:0:0:0:
452,360,34331,2,0,L|470:253,1,80,14|0,0:0|0:0,0:0:0:0:
256,192,34702,12,2,35813,0:0:0:0:
420,188,36183,5,4,0:2:0:0:
360,112,36368,1,4,0:0:0:0:
264,112,36553,1,0,0:0:0:0:
204,188,36739,1,4,0:0:0:0:
120,144,36924,2,0,B|104:188|104:188|128:256,1,95.9999970703126,10|0,0:0|0:0,0:0:0:0:
204,284,37294,1,2,0:0:0:0:
120,332,37479,38,0,L|320:296,1,191.999994140625,0|0,0:0|0:0,0:0:0:0:
380,364,38035,1,2,0:0:0:0:
452,300,38220,1,4,0:0:0:0:
380,236,38405,2,0,B|336:144|428:144|380:52,2,191.999994140625,10|2|0,0:0|0:0|0:0,0:0:0:0:
452,300,39331,21,4,0:0:0:0:
380,364,39516,1,2,0:0:0:0:
312,296,39702,1,4,0:0:0:0:
244,228,39887,2,0,P|176:192|68:232,1,191.999994140625,10|2,0:0|0:0,0:0:0:0:
4,294,40442,1,4,0:0:0:0:
80,356,40627,1,2,0:0:0:0:
80,356,40813,2,0,L|195:334,2,95.9999970703126,0|0|0,0:0|0:0|0:0,0:0:0:0:
4,156,41368,101,6,0:0:0:0:
4,156,42109,21,4,0:2:0:0:
88,200,42294,1,4,0:0:0:0:
172,152,42479,1,0,0:0:0:0:
172,56,42665,1,4,0:0:0:0:
256,104,42850,2,0,L|374:83,1,95.9999970703126,10|0,0:0|0:0,0:0:0:0:
418,155,43220,1,2,0:0:0:0:
364,236,43405,6,0,L|155:272,1,191.999994140625,4|0,0:0|0:0,0:0:0:0:
106,201,43961,1,2,0:0:0:0:
38,268,44146,1,4,0:0:0:0:
12,176,44331,2,0,P|-24:104|44:-8,2,191.999994140625,8|2|0,0:0|0:0|0:0,0:0:0:0:
104,200,45257,5,4,0:0:0:0:
184,148,45442,1,0,0:0:0:0:
184,52,45627,1,4,0:0:0:0:
268,100,45813,2,0,B|314:83|314:83|358:99,1,95.9999970703126,10|0,0:0|0:0,0:0:0:0:
320,180,46183,1,2,0:0:0:0:
416,192,46368,38,0,L|199:230,1,191.999994140625,0|0,0:0|0:0,0:0:0:0:
224,320,46924,1,2,0:0:0:0:
152,380,47109,1,4,0:0:0:0:
56,384,47294,1,10,0:0:0:0:
256,56,48035,21,4,0:2:0:0:
352,56,48220,1,4,0:0:0:0:
416,128,48405,1,0,0:0:0:0:
416,224,48590,1,4,0:0:0:0:
464,308,48776,2,0,B|417:324|417:324|373:308,1,95.9999970703126,10|0,0:0|0:0,0:0:0:0:
304,244,49146,1,2,0:0:0:0:
236,308,49331,6,0,L|271:107,1,191.999994140625,4|0,0:0|0:0,0:0:0:0:
232,32,49887,1,2,0:0:0:0:
136,16,50072,1,4,0:0:0:0:
68,84,50257,2,0,L|31:288,2,191.999994140625,10|2|0,0:0|0:0|0:0,0:0:0:0:
136,16,51183,5,4,0:0:0:0:
232,32,51368,1,2,0:0:0:0:
269,120,51553,1,4,0:0:0:0:
352,72,51739,2,0,B|368:118|368:118|352:162,1,95.9999970703126,10|0,0:1|0:2,0:0:0:0:
271,306,52109,2,0,B|255:262|255:262|272:216,1,95.9999970703126,2|0,0:0|0:0,0:0:0:0:
352,268,52479,1,2,0:0:0:0:
352,268,52665,2,0,L|454:286,2,95.9999970703126,0|0|0,0:0|0:0|0:0,0:0:0:0:
136,228,53220,69,6,0:0:0:0:
136,228,53961,53,4,0:2:0:0:
42,248,54146,1,4,0:0:0:0:
25,154,54331,1,0,0:0:0:0:
120,137,54516,1,4,0:0:0:0:
76,52,54702,2,0,B|122:36|122:36|166:52,1,95.9999970703126,10|0,0:0|0:0,0:0:0:0:
256,92,55072,1,2,0:0:0:0:
308,12,55257,38,0,P|340:51|298:180,1,191.999994140625,4|0,0:0|0:0,0:0:0:0:
224,224,55813,1,2,0:0:0:0:
224,320,55998,1,4,0:0:0:0:
308,364,56183,2,0,L|504:329,2,191.999994140625,8|2|0,0:0|0:0|0:0,0:0:0:0:
224,320,57109,5,4,0:0:0:0:
224,224,57294,1,0,0:0:0:0:
304,168,57479,1,4,0:0:0:0:
384,224,57665,2,0,B|428:240|428:240|474:224,1,95.9999970703126,10|0,0:0|0:0,0:0:0:0:
428,140,58035,1,2,0:0:0:0:
476,56,58220,6,0,B|384:12|384:104|292:56,1,191.999994140625,0|0,0:0|0:0,0:0:0:0:
204,20,58776,1,2,0:0:0:0:
112,48,58961,1,4,0:0:0:0:
88,140,59146,2,0,L|122:333,1,191.999994140625,8|0,0:0|0:0,0:0:0:0:
204,380,59702,1,0,0:0:0:0:
268,308,59887,54,0,L|250:209,2,80,0|4|0,0:0|0:0|0:0,0:0:0:0:
256,192,65257,5,0,0:0:0:0:
256,192,65442,1,8,0:0:0:0:
212,46,65813,102,0,L|114:64,2,80,0|4|8,0:0|0:0|0:0,0:0:0:0:
212,46,66924,1,8,0:0:0:0:
124,216,67295,2,0,L|282:189,1,160,2|8,0:0|0:0,0:0:0:0:
350,257,67850,1,2,0:0:0:0:
424,80,68221,1,2,0:0:0:0:
500,256,68591,1,2,0:0:0:0:
424,196,68776,6,0,L|424:104,2,80,0|4|8,0:0|0:0|0:0,0:0:0:0:
424,196,69887,1,8,0:0:0:0:
328,364,70258,2,0,P|251:359|203:298,1,160,2|8,0:0|0:0,0:0:0:0:
216,204,70813,2,0,L|227:145,2,40,0|0|8,0:0|0:0|0:0,0:0:0:0:
124,236,71184,1,2,0:0:0:0:
224,72,71554,1,2,0:0:0:0:
304,124,71739,6,0,L|481:92,2,160,4|14|6,0:0|0:0|0:0,0:0:0:0:
136,32,72850,2,0,P|128:80|140:120,1,80,14|0,0:0|0:0,0:0:0:0:
44,140,73220,2,0,P|121:144|169:205,1,160,6|12,0:0|0:0,0:0:0:0:
168,304,73776,2,0,L|337:274,1,160,2|0,0:0|0:0,0:0:0:0:
393,344,74331,1,14,0:0:0:0:
508,192,74702,22,0,B|544:116|460:116|516:20,2,160,4|14|6,0:0|0:0|0:0,0:0:0:0:
336,108,75813,2,0,L|249:123,1,80,14|0,0:0|0:0,0:0:0:0:
236,28,76183,2,0,L|58:59,1,160,6|8,0:0|0:0,0:0:0:0:
78,152,76739,2,0,P|125:213|203:217,1,160,2|0,0:0|0:0,0:0:0:0:
300,216,77294,1,14,0:0:0:0:
168,356,77665,6,0,L|266:338,1,80,4|0,0:0|0:0,0:0:0:0:
336,380,78035,2,0,L|509:349,2,160,14|6|14,0:0|0:0|0:0,0:0:0:0:
396,196,79146,2,0,P|348:134|270:130,1,160,6|12,0:0|0:0,0:0:0:0:
204,60,79702,2,0,P|156:121|78:125,1,160,2|0,0:0|0:0,0:0:0:0:
4,64,80257,1,14,0:0:0:0:
4,204,80627,6,0,B|-32:280|52:280|-4:376,2,160,4|12|6,0:0|0:0|0:0,0:0:0:0:
124,356,81739,2,0,P|116:316|124:278,1,80,14|0,0:0|0:0,0:0:0:0:
256,192,82109,12,8,83220,0:0:0:0:
92,196,83590,5,4,0:2:0:0:
152,272,83775,1,4,0:0:0:0:
248,272,83960,1,0,0:0:0:0:
308,196,84146,1,4,0:0:0:0:
392,240,84331,2,0,B|408:196|408:196|384:128,1,95.9999970703126,10|0,0:0|0:0,0:0:0:0:
308,100,84701,1,2,0:0:0:0:
392,52,84886,38,0,L|192:88,1,191.999994140625,0|0,0:0|0:0,0:0:0:0:
132,20,85442,1,2,0:0:0:0:
60,84,85627,1,4,0:0:0:0:
132,148,85812,2,0,B|176:240|84:240|132:332,2,191.999994140625,10|2|0,0:0|0:0|0:0,0:0:0:0:
60,84,86738,21,4,0:0:0:0:
132,20,86923,1,2,0:0:0:0:
200,88,87109,1,4,0:0:0:0:
268,156,87294,2,0,P|336:192|444:152,1,191.999994140625,10|2,0:0|0:0,0:0:0:0:
508,90,87849,1,4,0:0:0:0:
432,28,88034,1,2,0:0:0:0:
432,28,88220,2,0,L|317:50,2,95.9999970703126,0|0|0,0:0|0:0|0:0,0:0:0:0:
508,228,88775,101,6,0:0:0:0:
508,228,89516,21,4,0:2:0:0:
424,184,89701,1,4,0:0:0:0:
340,232,89886,1,0,0:0:0:0:
340,328,90072,1,4,0:0:0:0:
256,280,90257,2,0,L|138:301,1,95.9999970703126,10|0,0:0|0:0,0:0:0:0:
94,229,90627,1,2,0:0:0:0:
148,148,90812,6,0,L|357:112,1,191.999994140625,4|0,0:0|0:0,0:0:0:0:
406,183,91368,1,2,0:0:0:0:
474,116,91553,1,4,0:0:0:0:
500,208,91738,2,0,P|536:280|468:392,2,191.999994140625,8|2|0,0:0|0:0|0:0,0:0:0:0:
408,184,92664,5,4,0:0:0:0:
328,236,92849,1,0,0:0:0:0:
328,332,93034,1,4,0:0:0:0:
244,284,93220,2,0,B|198:301|198:301|154:285,1,95.9999970703126,10|0,0:0|0:0,0:0:0:0:
192,204,93590,1,2,0:0:0:0:
96,192,93775,38,0,L|313:154,1,191.999994140625,0|0,0:0|0:0,0:0:0:0:
288,64,94331,1,2,0:0:0:0:
360,4,94516,1,4,0:0:0:0:
456,0,94701,1,10,0:0:0:0:
256,328,95442,21,4,0:2:0:0:
160,328,95627,1,4,0:0:0:0:
96,256,95812,1,0,0:0:0:0:
96,160,95997,1,4,0:0:0:0:
48,76,96183,2,0,B|95:60|95:60|139:76,1,95.9999970703126,10|0,0:0|0:0,0:0:0:0:
208,140,96553,1,2,0:0:0:0:
276,76,96738,6,0,L|241:277,1,191.999994140625,4|0,0:0|0:0,0:0:0:0:
280,352,97294,1,2,0:0:0:0:
376,368,97479,1,4,0:0:0:0:
444,300,97664,2,0,L|481:96,2,191.999994140625,10|2|0,0:0|0:0|0:0,0:0:0:0:
376,368,98590,5,4,0:0:0:0:
280,352,98775,1,2,0:0:0:0:
243,264,98960,1,4,0:0:0:0:
160,312,99146,2,0,B|144:266|144:266|160:222,1,95.9999970703126,10|0,0:1|0:2,0:0:0:0:
241,78,99516,2,0,B|257:122|257:122|240:168,1,95.9999970703126,2|0,0:0|0:0,0:0:0:0:
160,116,99886,1,2,0:0:0:0:
160,116,100072,2,0,L|58:98,2,95.9999970703126,0|0|0,0:0|0:0|0:0,0:0:0:0:
376,156,100627,69,6,0:0:0:0:
376,156,101368,53,4,0:2:0:0:
470,136,101553,1,4,0:0:0:0:
487,230,101738,1,0,0:0:0:0:
392,247,101923,1,4,0:0:0:0:
436,332,102109,2,0,B|390:348|390:348|346:332,1,95.9999970703126,10|0,0:0|0:0,0:0:0:0:
256,292,102479,1,2,0:0:0:0:
204,372,102664,38,0,P|172:333|214:204,1,191.999994140625,4|0,0:0|0:0,0:0:0:0:
288,160,103220,1,2,0:0:0:0:
288,64,103405,1,4,0:0:0:0:
204,20,103590,2,0,L|8:55,2,191.999994140625,8|2|0,0:0|0:0|0:0,0:0:0:0:
288,64,104516,5,4,0:0:0:0:
288,160,104701,1,0,0:0:0:0:
208,216,104886,1,4,0:0:0:0:
128,160,105072,2,0,B|84:144|84:144|38:160,1,95.9999970703126,10|0,0:0|0:0,0:0:0:0:
84,244,105442,1,2,0:0:0:0:
36,328,105627,6,0,B|128:372|128:280|220:328,1,191.999994140625,0|0,0:0|0:0,0:0:0:0:
308,364,106183,1,2,0:0:0:0:
400,336,106368,1,4,0:0:0:0:
424,244,106553,2,0,L|390:51,1,191.999994140625,8|0,0:0|0:0,0:0:0:0:
316,0,107109,1,0,0:0:0:0:
236,52,107294,53,0,0:0:0:0:
72,156,107665,1,8,0:0:0:0:
240,248,108035,1,8,0:0:0:0:
76,352,108405,1,8,0:0:0:0:
76,352,108590,1,8,0:0:0:0:
240,116,109146,5,0,0:0:0:0:
375,251,109516,2,0,P|416:268|496:240,1,120.000004577637,8|8,0:0|0:0,0:0:0:0:
428,172,110072,1,8,0:0:0:0:
204,352,110627,101,8,0:0:0:0:
68,216,110998,1,8,0:0:0:0:
203,80,111368,1,8,0:0:0:0:
203,80,111553,1,8,0:0:0:0:
406,283,112109,5,0,0:0:0:0:
452,96,112479,2,0,L|511:85,2,60.0000022888184,10|2|8,0:0|0:0|0:0,0:0:0:0:
408,180,113035,1,4,0:2:0:0:
204,24,113405,6,0,P|142:71|137:149,1,160,2|4,0:0|0:0,0:0:0:0:
64,212,113961,2,0,P|140:244|208:212,1,160,2|8,0:0|0:0,0:0:0:0:
280,152,114516,1,2,0:0:0:0:
204,328,114887,2,0,L|373:298,1,160,2|4,0:0|0:0,0:0:0:0:
424,372,115442,2,0,P|456:296|424:228,1,160,2|12,0:0|0:0,0:0:0:0:
360,160,115998,1,2,0:0:0:0:
508,40,116368,22,0,B|432:72|432:0|348:32,1,160,2|4,0:0|0:0,0:0:0:0:
288,100,116924,2,0,L|122:70,1,160,2|0,0:0|0:0,0:0:0:0:
36,52,117479,1,2,0:0:0:0:
36,244,117850,2,0,L|193:216,1,160,2|4,0:0|0:0,0:0:0:0:
256,288,118405,2,0,B|333:317|333:245|409:277,1,160,2|6,0:0|0:0,0:0:0:0:
477,345,118961,1,0,0:0:0:0:
476,152,119331,6,0,P|428:90|350:85,1,160,2|4,0:0|0:0,0:0:0:0:
282,153,119887,1,2,0:0:0:0:
214,85,120072,1,4,0:0:0:0:
144,152,120257,2,0,L|53:136,2,80,8|2|0,0:0|0:0|0:0,0:0:0:0:
144,248,120813,2,0,L|305:276,1,160,2|4,0:0|0:0,0:0:0:0:
356,196,121368,1,2,0:0:0:0:
408,276,121553,1,4,0:0:0:0:
500,240,121739,2,0,P|507:278|499:317,2,80,12|0|8,0:0|0:0|0:0,0:0:0:0:
512,144,122294,6,0,L|354:171,1,160,6|6,0:0|0:0,0:0:0:0:
240,108,122850,69,10,0:0:0:0:
145,91,123035,1,6,0:0:0:0:
128,185,123220,1,10,0:0:0:0:
223,202,123405,1,6,0:0:0:0:
240,108,123590,1,8,0:0:0:0:
145,91,123776,54,0,P|69:108|31:176,1,160,6|6,0:0|0:0,0:0:0:0:
68,288,124331,53,10,0:0:0:0:
163,271,124516,1,6,0:0:0:0:
180,365,124701,1,2,0:0:0:0:
85,382,124886,1,6,0:0:0:0:
68,288,125071,69,0,0:0:0:0:
128,192,130442,6,0,L|212:192,1,80,4|0,0:0|0:0,0:0:0:0:
304,192,130813,2,0,L|388:192,1,80,4|0,0:0|0:0,0:0:0:0:
256,192,136183,12,4,136924,0:0:0:0:
256,136,137294,101,6,0:0:0:0:
440,196,137665,2,0,B|463:142|463:142|436:80,1,120.000004577637,14|4,0:0|0:0,0:0:0:0:
352,228,138405,2,0,P|368:260|504:264,2,180.000006866455,6|0|6,0:0|0:0|0:0,0:0:0:0:
252,64,139887,6,0,L|125:86,1,120.000004577637,4|6,0:0|0:0,0:0:0:0:
16,236,140627,2,0,L|142:213,1,120.000004577637,12|4,0:0|0:0,0:0:0:0:
270,351,141368,1,6,0:0:0:0:
405,215,141739,1,4,0:0:0:0:
240,116,142109,2,0,L|251:179,2,60.0000022888184,14|0|4,0:0|0:0|0:0,0:0:0:0:
412,32,142850,101,4,0:0:0:0:
472,212,143220,2,0,B|415:236|415:236|361:213,2,120.000004577637,6|12|6,0:0|0:0|0:0,0:0:0:0:
308,316,144331,2,0,B|254:293|254:293|197:317,1,120.000004577637,6|4,0:0|0:0,0:0:0:0:
108,352,144887,2,0,L|86:229,1,120.000004577637,2|0,0:0|0:0,0:0:0:0:
156,164,145442,1,6,0:0:0:0:
24,24,145813,6,0,P|48:56|132:64,2,120.000004577637,4|4|14,0:0|0:0|0:0,0:0:0:0:
212,68,146924,1,4,0:0:0:0:
44,164,147294,1,6,0:0:0:0:
256,192,147479,12,0,148776,0:0:0:0:
256,192,151739,6,0,B|352:228|348:144|440:192,2,191.999994140625,6|8|2,0:2|0:0|0:0,0:0:0:0:
184,128,152665,1,0,0:0:0:0:
112,192,152850,1,10,0:0:0:0:
44,124,153035,22,0,L|76:333,1,191.999994140625,4|0,0:0|0:0,0:0:0:0:
156,360,153590,2,0,P|208:360|256:304,1,95.9999970703126,10|4,0:0|0:0,0:0:0:0:
304,260,153961,1,2,0:0:0:0:
388,212,154146,1,0,0:0:0:0:
472,260,154331,1,10,0:0:0:0:
472,356,154516,1,4,0:0:0:0:
388,312,154702,6,0,L|423:111,2,191.999994140625,0|10|0,0:0|0:0|0:0,0:0:0:0:
320,379,155627,1,0,0:0:0:0:
251,310,155813,1,10,0:0:0:0:
184,380,155998,2,0,P|112:372|72:252,1,191.999994140625,4|0,0:0|0:0,0:0:0:0:
120,192,156553,1,8,0:0:0:0:
76,108,156739,6,0,B|172:72|168:156|260:108,1,191.999994140625,6|0,0:0|0:0,0:0:0:0:
320,36,157294,1,10,0:0:0:0:
416,36,157479,1,4,0:0:0:0:
472,116,157665,6,0,P|500:160|444:304,1,191.999994140625,0|8,0:0|0:0,0:0:0:0:
399,355,158220,1,4,0:0:0:0:
332,288,158405,1,2,0:0:0:0:
236,288,158590,1,0,0:0:0:0:
168,356,158776,1,10,0:0:0:0:
140,264,158961,38,0,L|176:59,1,191.999994140625,0|0,0:0|0:0,0:0:0:0:
256,124,159516,2,0,B|348:172|344:88|440:124,1,191.999994140625,10|0,0:0|0:0,0:0:0:0:
496,200,160072,1,0,0:0:0:0:
464,292,160257,1,14,0:0:0:0:
372,316,160442,1,0,0:0:0:0:
300,252,160627,2,0,P|215:212|128:247,2,191.999994140625,0|8|2,0:0|0:0|0:0,0:0:0:0:
372,316,161553,1,0,0:0:0:0:
464,292,161739,1,8,0:0:0:0:
496,200,161924,22,0,L|460:0,1,191.999994140625,4|0,0:0|0:0,0:0:0:0:
376,48,162479,2,0,L|400:168,1,95.9999970703126,8|4,0:0|0:0,0:0:0:0:
324,204,162850,101,10,0:0:0:0:
312,201,162942,1,8,0:0:0:0:
300,199,163035,1,8,0:0:0:0:
232,266,163220,1,8,0:0:0:0:
220,263,163312,1,8,0:0:0:0:
208,261,163405,1,8,0:0:0:0:
112,244,163590,22,0,P|72:159|114:75,2,191.999994140625,6|8|2,0:2|0:0|0:0,0:0:0:0:
208,261,164516,1,0,0:0:0:0:
276,196,164702,1,10,0:0:0:0:
224,116,164887,6,0,B|316:68|312:152|408:116,1,191.999994140625,0|0,0:0|0:0,0:0:0:0:
456,32,165442,2,0,L|417:252,1,191.999994140625,10|2,0:0|0:0,0:0:0:0:
408,316,165998,1,4,0:0:0:0:
328,364,166183,1,10,0:0:0:0:
236,336,166368,1,0,0:0:0:0:
212,244,166553,6,0,L|105:262,1,95.9999970703126,0|0,0:0|0:0,0:0:0:0:
32,308,166924,2,0,B|16:261|16:261|32:217,1,95.9999970703126,10|4,0:0|0:0,0:0:0:0:
112,73,167294,2,0,B|128:117|128:117|112:164,1,95.9999970703126,2|0,0:0|0:0,0:0:0:0:
28,120,167665,1,10,0:0:0:0:
112,73,167850,2,0,L|310:108,1,191.999994140625,0|0,0:0|0:0,0:0:0:0:
462,21,168405,2,0,L|368:38,1,95.9999970703126,0|0,0:0|0:0,0:0:0:0:
216,196,168776,53,6,0:0:0:0:
216,196,169516,101,0,0:0:0:0:
268,276,169702,1,0,0:0:0:0:
364,280,169887,1,0,0:0:0:0:
416,200,170072,1,4,0:0:0:0:
320,196,170257,21,0,0:0:0:0:
364,112,170442,1,8,0:0:0:0:
304,36,170627,1,2,0:0:0:0:
208,36,170813,1,0,0:0:0:0:
148,112,170998,6,0,L|190:327,1,191.999994140625,8|2,0:0|0:0,0:0:0:0:
104,352,171553,2,0,B|196:304|192:388|288:352,1,191.999994140625,4|0,0:0|0:0,0:0:0:0:
372,304,172109,2,0,B|388:260|388:260|372:213,1,95.9999970703126,10|0,0:0|0:0,0:0:0:0:
312,140,172479,5,0,0:0:0:0:
332,48,172665,1,0,0:0:0:0:
424,20,172850,1,0,0:0:0:0:
404,112,173035,1,4,0:0:0:0:
312,140,173220,5,0,0:0:0:0:
236,80,173405,1,0,0:0:0:0:
156,28,173590,1,2,0:0:0:0:
60,40,173776,1,0,0:0:0:0:
20,128,173961,2,0,L|55:328,1,191.999994140625,8|0,0:0|0:0,0:0:0:0:
412,64,174702,53,6,0:0:0:0:
372,212,174887,1,0,0:0:0:0:
264,96,175072,1,8,0:0:0:0:
348,128,175442,5,4,0:2:0:0:
