osu file format v14

[General]
AudioFilename: audio.mp3
AudioLeadIn: 0
PreviewTime: 59511
Countdown: 0
SampleSet: None
StackLeniency: 0.7
Mode: 0
LetterboxInBreaks: 0
WidescreenStoryboard: 0

[Editor]
Bookmarks: 11026,32845,49814,81329,98299,124966,141936,157693
DistanceSpacing: 0.9
BeatDivisor: 8
GridSize: 8
TimelineZoom: 2

[Metadata]
Title:Monster (Speed Up Ver.)
TitleUnicode:Monster (Speed Up Ver.)
Artist:Paramore
ArtistUnicode:Paramore
Creator:Drummer
Version:Tragedy
Source:
Tags:alternative rock metal post grunge nightcore singles club ep transformers: dark of the moon - the album
BeatmapID:2054768
BeatmapSetID:981756

[Difficulty]
HPDrainRate:5.5
CircleSize:4
OverallDifficulty:8.8
ApproachRate:9.7
SliderMultiplier:1.6
SliderTickRate:1

[Events]
//Background and Video events
0,0,"bg.jpg",0,0
//Break Periods
//Storyboard Layer 0 (Background)
//Storyboard Layer 1 (Fail)
//Storyboard Layer 2 (Pass)
//Storyboard Layer 3 (Foreground)
//Storyboard Sound Samples

[TimingPoints]
1330,303.030303030303,4,2,1,50,1,0
1330,-166.666666666667,4,2,1,50,0,0
9814,-200,4,2,1,50,0,0
10117,-200,4,2,1,65,0,0
10420,-200,4,2,1,80,0,0
10723,-200,4,2,1,95,0,0
10951,-200,4,2,1,5,0,0
11026,-90.9090909090909,4,2,1,75,0,0
30420,-76.9230769230769,4,2,1,80,0,1
30723,-83.3333333333333,4,2,1,80,0,0
31633,-76.9230769230769,4,2,1,80,0,1
31936,-83.3333333333333,4,2,1,80,0,0
32239,-166.666666666667,4,2,1,80,0,0
32769,-166.666666666667,4,2,1,5,0,0
32845,-100,4,2,1,80,0,1
42087,-100,4,2,2,80,0,0
42542,-100,4,2,1,80,0,1
48602,-333.333333333333,4,2,1,80,0,0
48678,-333.333333333333,4,2,1,60,0,0
49663,-333.333333333333,4,2,1,80,0,0
49814,-83.3333333333333,4,2,1,80,0,0
69814,-83.3333333333333,4,2,2,80,0,0
69890,-83.3333333333333,4,2,1,80,0,0
69966,-83.3333333333333,4,2,2,80,0,0
70117,-83.3333333333333,4,2,1,80,0,0
78905,-76.9230769230769,4,2,1,80,0,1
79208,-83.3333333333333,4,2,1,80,0,0
80117,-76.9230769230769,4,2,1,80,0,1
80420,-83.3333333333333,4,2,1,80,0,0
80723,-250,4,2,1,80,0,0
81254,-250,4,2,1,5,0,0
81329,-100,4,2,1,80,0,1
90572,-100,4,2,2,80,0,0
91026,-100,4,2,1,80,0,1
97239,-100,4,2,1,80,0,0
97239,-83.3333333333333,4,2,1,80,0,0
97996,-100,4,2,2,80,0,0
97996,-100,4,2,2,80,0,0
98299,-76.9230769230769,4,2,1,80,0,0
100723,-83.3333333333333,4,2,1,80,0,0
103148,-76.9230769230769,4,2,1,80,0,0
105572,-83.3333333333333,4,2,1,80,0,0
107239,-83.3333333333333,4,2,2,80,0,0
107390,-83.3333333333333,4,2,1,80,0,0
107542,-83.3333333333333,4,2,2,80,0,0
107693,-83.3333333333333,4,2,1,80,0,0
107996,-76.9230769230769,4,2,1,80,0,0
111633,-100,4,2,1,80,0,0
112845,-76.9230769230769,4,2,1,80,0,0
115269,-100,4,2,1,80,0,0
117693,-83.3333333333333,4,2,1,80,0,0
120117,-76.9230769230769,4,2,1,80,0,1
120420,-83.3333333333333,4,2,1,80,0,0
121329,-76.9230769230769,4,2,1,80,0,1
121633,-83.3333333333333,4,2,1,80,0,0
121936,-166.666666666667,4,2,1,80,0,0
122466,-166.666666666667,4,2,1,5,0,0
122542,-76.9230769230769,4,2,1,80,0,1
122845,-83.3333333333333,4,2,1,80,0,0
123754,-76.9230769230769,4,2,1,80,0,1
124057,-83.3333333333333,4,2,1,80,0,0
124133,-83.3333333333333,4,2,2,80,0,0
124360,-250,4,2,2,80,0,0
124890,-250,4,2,2,5,0,0
124966,-100,4,2,1,80,0,1
134208,-100,4,2,2,80,0,0
134663,-100,4,2,1,80,0,1
140875,-100,4,2,1,80,0,0
141329,-100,4,2,2,80,0,0
141936,-83.3333333333333,4,2,1,80,0,1
157390,-83.3333333333333,4,2,2,80,0,1
157693,314.13612565445,4,2,1,80,1,0
157693,-250,4,2,1,80,0,0
158635,352.941176470588,4,2,1,30,1,0
158635,-166.666666666667,4,2,1,30,0,0
159076,-166.666666666667,4,2,1,10,0,0
165340,-166.666666666667,4,2,1,5,0,0

[Colours]
Combo1 : 191,128,255
Combo2 : 192,192,192
Combo3 : 128,0,255
Combo4 : 128,128,128

[HitObjects]
146,113,1330,6,0,P|170:113|202:119,2,47.9999985351563,2|0|0,0:0|0:0|0:0,0:0:0:0:
75,177,1784,2,0,P|51:180|27:180,2,47.9999985351563,2|0|0,0:0|0:0|0:0,0:0:0:0:
200,69,2239,2,0,L|193:116,1,47.9999985351563,2|0,0:0|0:0,0:0:0:0:
287,52,2542,6,0,L|280:99,1,47.9999985351563,2|0,0:0|0:0,0:0:0:0:
253,192,2845,1,0,0:0:0:0:
340,155,2996,2,0,P|363:154|387:158,2,47.9999985351563,2|0|0,0:0|0:0|0:0,0:0:0:0:
246,239,3451,2,0,L|252:191,1,47.9999985351563,2|0,0:0|0:0,0:0:0:0:
330,299,3754,6,0,L|336:251,1,47.9999985351563,2|0,0:0|0:0,0:0:0:0:
340,155,4057,1,0,0:0:0:0:
253,192,4208,2,0,P|229:192|205:188,2,47.9999985351563,2|0|0,0:0|0:0|0:0,0:0:0:0:
363,81,4663,2,0,L|356:128,1,47.9999985351563,2|0,0:0|0:0,0:0:0:0:
329,298,4966,6,0,L|377:292,1,47.9999985351563,2|0,0:0|0:0,0:0:0:0:
454,229,5269,1,0,0:0:0:0:
340,155,5420,2,0,P|339:178|343:202,2,47.9999985351563,2|0|0,0:0|0:0|0:0,0:0:0:0:
454,229,5875,2,0,P|457:205|457:181,1,47.9999985351563,2|0,0:0|0:0,0:0:0:0:
374,70,6178,6,0,P|374:45|380:14,2,47.9999985351563,2|0|0,0:0|0:0|0:0,0:0:0:0:
470,39,6632,2,0,P|473:62|473:86,2,47.9999985351563,2|0|0,0:0|0:0|0:0,0:0:0:0:
340,155,7087,2,0,L|387:148,1,47.9999985351563,2|0,0:0|0:0,0:0:0:0:
239,58,7390,6,0,L|286:51,1,47.9999985351563,2|0,0:0|0:0,0:0:0:0:
374,70,7693,1,0,0:0:0:0:
340,155,7845,2,0,P|336:178|336:202,2,47.9999985351563,2|0|0,0:0|0:0|0:0,0:0:0:0:
473,248,8299,2,0,L|425:254,1,47.9999985351563,2|0,0:0|0:0,0:0:0:0:
482,160,8602,6,0,L|434:166,1,47.9999985351563,2|0,0:0|0:0,0:0:0:0:
340,155,8905,1,0,0:0:0:0:
374,70,9057,2,0,P|374:46|370:22,2,47.9999985351563,2|0|0,0:0|0:0|0:0,0:0:0:0:
213,24,9511,2,0,L|260:17,1,47.9999985351563,2|0,0:0|0:0,0:0:0:0:
153,160,9814,6,0,B|169:187|169:187|160:137|184:107|184:107|145:89|126:57|127:21|127:21|126:61|107:93,1,300,2|0,0:0|0:0,0:0:0:0:
93,113,11026,5,4,3:2:0:0:
314,177,11178,2,0,L|309:264,1,88.000002685547,0|2,3:0|0:3,0:0:0:0:
231,328,11481,1,0,3:0:0:0:
335,89,11633,1,10,0:3:0:0:
429,260,11784,1,0,3:0:0:0:
169,187,11936,6,0,B|223:147|216:68|216:68|236:108,1,176.000005371094,4|2,3:1|0:3,0:0:0:0:
5,120,12542,2,0,P|48:114|110:114,1,88.000002685547,2|0,0:3|0:0,0:0:0:0:
256,194,12845,2,0,P|213:188|151:188,1,88.000002685547,10|0,0:3|0:0,0:0:0:0:
75,223,13148,1,2,0:3:0:0:
231,328,13299,1,0,3:0:0:0:
234,105,13451,5,2,3:3:0:0:
80,310,13602,2,0,L|75:223,1,88.000002685547,0|2,3:0|0:3,0:0:0:0:
87,25,13905,2,0,L|92:112,1,88.000002685547,0|10,0:0|0:3,0:0:0:0:
173,274,14208,2,0,L|168:187,1,88.000002685547,0|2,0:0|0:3,0:0:0:0:
234,105,14511,1,0,3:0:0:0:
152,358,14663,5,2,3:3:0:0:
92,112,14814,1,0,3:0:0:0:
343,199,14966,2,0,L|256:194,1,88.000002685547,10|0,0:3|0:0,0:0:0:0:
503,150,15269,6,0,L|416:145,1,88.000002685547,10|0,0:3|0:0,0:0:0:0:
255,193,15572,1,2,0:1:0:0:
434,272,15723,1,8,0:0:0:0:
433,250,15798,1,8,0:0:0:0:
432,228,15875,5,2,3:3:0:0:
173,274,16026,2,0,P|167:231|167:169,1,88.000002685547,0|2,3:0|0:3,0:0:0:0:
234,105,16329,1,0,3:0:0:0:
234,356,16481,1,10,0:3:0:0:
74,222,16633,1,0,3:0:0:0:
303,131,16784,6,0,B|247:38|247:38|232:112,1,176.000005371094,4|2,3:1|0:3,0:0:0:0:
428,359,17390,2,0,L|433:272,1,88.000002685547,2|0,0:3|0:0,0:0:0:0:
420,57,17693,2,0,L|415:144,1,88.000002685547,10|0,0:3|0:0,0:0:0:0:
354,221,17996,1,2,0:3:0:0:
290,39,18148,1,0,3:0:0:0:
497,136,18299,5,2,3:3:0:0:
255,193,18451,2,0,P|255:236|262:280,1,88.000002685547,0|2,3:0|0:3,0:0:0:0:
428,359,18754,2,0,P|434:315|435:271,1,88.000002685547,0|10,0:0|0:3,0:0:0:0:
339,103,19057,2,0,P|339:146|346:190,1,88.000002685547,0|2,0:0|0:3,0:0:0:0:
432,256,19360,1,0,3:0:0:0:
378,28,19511,5,2,3:3:0:0:
296,273,19663,1,0,3:0:0:0:
426,110,19814,2,0,P|382:103|338:102,1,88.000002685547,2|0,0:3|0:0,0:0:0:0:
149,132,20117,2,0,B|200:111|251:137|251:137|236:99|256:61,1,176.000005371094,10|2,0:3|0:3,0:0:0:0:
327,189,20572,1,10,0:1:0:0:
162,39,20723,5,2,3:3:0:0:
85,281,20875,2,0,L|172:273,1,88.000002685547,0|2,3:0|0:3,0:0:0:0:
245,210,21178,1,0,3:0:0:0:
14,231,21329,1,10,0:3:0:0:
160,366,21481,1,0,3:0:0:0:
149,132,21633,6,0,B|94:118|19:140|19:140|57:118,1,176.000005371094,4|2,3:1|0:3,0:0:0:0:
345,15,22239,2,0,P|338:58|337:102,1,88.000002685547,2|0,0:3|0:0,0:0:0:0:
334,276,22542,2,0,P|333:232|326:188,1,88.000002685547,10|0,0:3|0:0,0:0:0:0:
255,121,22845,1,2,0:3:0:0:
424,219,22996,1,0,3:0:0:0:
235,342,23148,5,2,3:3:0:0:
337,102,23299,2,0,L|424:94,1,88.000002685547,0|2,3:0|0:3,0:0:0:0:
311,254,23602,2,0,L|223:261,1,88.000002685547,0|10,0:0|0:3,0:0:0:0:
71,156,23905,2,0,L|158:148,1,88.000002685547,0|2,0:0|0:3,0:0:0:0:
263,143,24208,1,0,3:0:0:0:
85,281,24360,5,2,3:3:0:0:
190,46,24511,1,0,3:0:0:0:
311,254,24663,2,0,L|223:261,1,88.000002685547,10|0,0:3|0:0,0:0:0:0:
440,169,24966,6,0,L|352:176,1,88.000002685547,10|0,0:3|0:0,0:0:0:0:
223,261,25269,1,2,0:3:0:0:
427,269,25420,1,0,3:0:0:0:
315,74,25572,5,2,3:3:0:0:
277,336,25723,2,0,P|233:342|189:343,1,88.000002685547,0|2,3:0|0:3,0:0:0:0:
109,289,26026,1,0,3:0:0:0:
278,146,26178,1,10,0:3:0:0:
99,68,26329,1,0,3:0:0:0:
223,260,26481,6,0,P|251:180|210:105,1,176.000005371094,4|2,3:1|0:3,0:0:0:0:
427,269,27087,2,0,L|339:261,1,88.000002685547,2|0,0:3|0:0,0:0:0:0:
189,343,27390,2,0,L|276:350,1,88.000002685547,10|0,0:3|0:0,0:0:0:0:
371,376,27693,1,2,0:3:0:0:
223,260,27845,1,0,3:0:0:0:
417,141,27996,5,2,3:3:0:0:
276,350,28148,1,0,3:0:0:0:
278,146,28299,1,2,0:3:0:0:
445,290,28451,2,0,L|357:282,1,88.000002685547,0|10,0:0|0:3,0:0:0:0:
501,210,28754,1,0,0:0:0:0:
379,362,28905,1,2,0:3:0:0:
278,146,29057,1,0,3:0:0:0:
445,290,29208,5,2,3:3:0:0:
189,343,29360,1,0,3:0:0:0:
278,146,29511,2,0,L|270:234,1,88.000002685547,2|0,0:3|0:0,0:0:0:0:
73,348,29814,2,0,L|81:260,1,88.000002685547,10|0,0:3|0:0,0:0:0:0:
123,173,30117,1,2,0:3:0:0:
199,359,30269,1,0,3:0:0:0:
7,222,30420,5,2,3:1:0:0:
278,146,30572,1,0,3:0:0:0:
76,0,30723,2,0,L|67:95,1,95.9999970703126,12|0,0:1|0:0,0:0:0:0:
94,351,31026,2,0,L|102:255,1,95.9999970703126,12|0,0:1|3:0,0:0:0:0:
184,72,31329,1,2,3:1:0:0:
277,318,31481,1,8,0:0:0:0:
277,318,31557,1,8,0:0:0:0:
277,318,31633,5,2,3:1:0:0:
7,222,31784,1,0,3:0:0:0:
256,150,31936,2,0,L|264:54,1,95.9999970703126,12|0,0:1|0:0,0:0:0:0:
197,244,32239,6,0,B|259:217|326:243|326:243|300:216,1,167.999994873047,12|0,0:1|0:0,0:0:0:0:
256,150,32845,6,0,B|266:31|266:31|280:72,1,160,4|0,3:0|0:0,0:0:0:0:
301,217,33299,1,0,3:0:0:0:
162,82,33451,2,0,L|169:2,1,80,12|0,0:3|0:0,0:0:0:0:
362,70,33754,2,0,L|354:149,1,80,0|0,3:0|0:0,0:0:0:0:
243,282,34057,6,0,P|308:243|388:263,1,160,4|0,3:0|0:0,0:0:0:0:
325,346,34511,1,0,0:0:0:0:
143,256,34663,2,0,P|141:284|150:335,1,80,12|0,0:3|0:0,0:0:0:0:
263,167,34966,2,0,P|271:127|269:88,1,80
169,2,35269,5,4,3:0:0:0:
232,254,35420,2,0,L|311:261,1,80,0|0,3:0|0:0,0:0:0:0:
138,166,35723,1,0,3:0:0:0:
262,8,35875,2,0,L|269:87,1,80,12|0,0:3|0:0,0:0:0:0:
239,333,36178,2,0,L|231:253,1,80,0|0,3:0|0:0,0:0:0:0:
419,68,36481,6,0,B|377:66|346:42|346:42|370:78|351:130,1,160,4|0,3:3|0:0,0:0:0:0:
267,171,36936,1,0,0:0:0:0:
471,209,37087,2,0,P|431:217|392:215,1,80,12|0,0:3|0:0,0:0:0:0:
268,50,37390,2,0,P|307:41|346:43,1,80
226,250,37693,6,0,B|107:260|107:260|145:239,1,160,4|0,3:3|0:0,0:0:0:0:
267,171,38148,1,0,3:0:0:0:
157,340,38299,1,12,0:3:0:0:
163,116,38451,1,0,0:0:0:0:
305,242,38602,2,0,L|225:249,1,80,0|0,3:0|0:0,0:0:0:0:
41,203,38905,6,0,B|64:149|50:86|50:86|76:125,1,160,4|0,3:3|0:0,0:0:0:0:
136,197,39360,1,0,0:0:0:0:
268,50,39511,2,0,P|276:89|274:128,1,80,12|0,0:3|0:0,0:0:0:0:
129,275,39814,2,0,P|127:235|135:196,1,80
239,364,40117,5,4,3:3:0:0:
163,116,40269,2,0,L|242:123,1,80,0|0,3:0|0:0,0:0:0:0:
41,203,40572,1,0,3:0:0:0:
246,284,40723,2,0,L|238:363,1,80,12|0,0:3|0:0,0:0:0:0:
33,282,41026,2,0,L|40:202,1,80,0|0,3:0|0:0,0:0:0:0:
117,43,41330,5,4,3:3:0:0:
150,299,41481,1,8,0:0:0:0:
241,109,41633,2,0,P|201:107|162:115,1,80,0|0,0:0|3:0,0:0:0:0:
131,206,41936,5,12,0:3:0:0:
359,198,42087,1,8,0:0:0:0:
387,154,42163,1,8,0:0:0:0:
382,106,42239,1,8,0:3:0:0:
349,71,42314,1,8,0:3:0:0:
305,62,42390,1,2,0:3:0:0:
264,78,42466,1,2,0:3:0:0:
241,109,42542,6,0,B|256:153|230:181|230:181|238:188|238:188|217:224|239:271,1,160,4|0,3:1|0:0,0:0:0:0:
290,339,42996,1,0,3:0:0:0:
437,204,43148,2,0,P|397:195|358:197,1,80,12|0,0:3|0:0,0:0:0:0:
154,250,43451,2,0,P|193:258|232:256,1,80,0|0,3:0|0:0,0:0:0:0:
47,122,43754,6,0,L|32:283,1,160,4|0,3:3|0:0,0:0:0:0:
112,346,44208,1,0,0:0:0:0:
167,159,44360,2,0,L|159:238,1,80,12|0,0:3|0:0,0:0:0:0:
10,380,44663,2,0,L|17:300,1,80
81,111,44966,5,4,3:3:0:0:
190,339,45117,2,0,P|150:347|111:345,1,80,0|0,3:0|0:0,0:0:0:0:
310,258,45420,1,0,3:0:0:0:
173,80,45572,2,0,P|164:119|166:158,1,80,12|0,0:3|0:0,0:0:0:0:
303,336,45875,2,0,P|311:296|309:257,1,80,0|0,3:0|0:0,0:0:0:0:
264,78,46178,6,0,B|313:97|381:77|381:77|341:104,1,160,4|0,3:3|0:0,0:0:0:0:
252,161,46633,1,0,0:0:0:0:
425,248,46784,2,0,L|345:240,1,80,12|0,0:3|0:0,0:0:0:0:
154,250,47087,2,0,L|233:257,1,80
75,126,47390,6,0,B|81:149|70:170|70:170|76:181|76:181|39:218|54:282,1,160,4|0,3:3|0:0,0:0:0:0:
125,346,47845,1,0,3:0:0:0:
252,161,47996,2,0,P|212:152|173:154,1,80,12|0,0:3|0:0,0:0:0:0:
279,327,48299,2,0,P|318:328|357:320,1,80,0|0,3:0|0:0,0:0:0:0:
492,193,48602,6,0,B|413:169|428:216|350:193,1,143.999995605469,4|0,3:1|0:0,0:0:0:0:
268,135,49663,1,10,0:1:0:0:
125,346,49814,5,2,3:1:0:0:
370,297,49966,1,0,3:0:0:0:
173,154,50117,1,10,0:1:0:0:
279,327,50269,2,0,L|288:231,1,95.9999970703126,0|2,3:0|0:1,0:0:0:0:
206,384,50572,1,0,3:0:0:0:
268,135,50723,6,0,B|325:112|392:129|392:129|357:120|326:95,1,191.999994140625,12|2,0:2|0:1,0:0:0:0:
57,279,51330,2,0,P|48:231|48:183,1,95.9999970703126,10|0,0:1|0:0,0:0:0:0:
95,94,51633,1,2,0:1:0:0:
233,225,51784,1,0,3:0:0:0:
207,48,51936,1,10,0:1:0:0:
137,266,52087,1,0,3:0:0:0:
351,153,52239,5,2,3:1:0:0:
126,13,52390,1,0,3:0:0:0:
233,225,52542,1,10,0:1:0:0:
302,41,52693,2,0,L|199:48,1,95.9999970703126,0|2,0:0|0:1,0:0:0:0:
358,129,52996,2,0,L|255:136,1,95.9999970703126,0|10,0:0|0:1,0:0:0:0:
401,42,53299,1,0,3:0:0:0:
171,148,53451,5,2,3:1:0:0:
400,279,53602,1,0,3:0:0:0:
195,369,53754,1,10,0:1:0:0:
319,230,53905,2,0,P|318:277|310:325,1,95.9999970703126,0|2,0:0|0:1,0:0:0:0:
262,135,54208,2,0,P|243:179|232:226,1,95.9999970703126,0|10,0:0|0:1,0:0:0:0:
383,142,54511,1,0,3:0:0:0:
206,47,54663,5,2,3:1:0:0:
270,303,54814,1,0,3:0:0:0:
326,82,54966,1,10,0:1:0:0:
148,234,55117,1,0,3:0:0:0:
311,33,55270,1,8,0:0:0:0:
318,58,55345,1,8,0:0:0:0:
326,82,55421,1,0,3:0:0:0:
90,6,55572,6,0,B|122:63|91:140|91:140|122:95,1,191.999994140625,12|2,0:1|0:1,0:0:0:0:
400,279,56178,2,0,L|393:183,1,95.9999970703126,10|0,0:1|0:0,0:0:0:0:
334,103,56481,1,2,0:1:0:0:
275,286,56633,1,0,3:0:0:0:
199,132,56784,1,10,0:1:0:0:
234,358,56936,1,0,3:0:0:0:
393,183,57087,5,2,3:1:0:0:
148,234,57239,1,0,3:0:0:0:
352,355,57390,2,0,P|360:307|360:259,1,95.9999970703126,10|0,0:1|0:0,0:0:0:0:
221,114,57693,2,0,P|221:161|229:209,1,95.9999970703126,2|0,0:1|0:0,0:0:0:0:
393,183,57996,1,10,0:1:0:0:
230,27,58148,1,0,3:0:0:0:
148,234,58299,5,2,3:1:0:0:
349,74,58451,1,0,3:0:0:0:
131,0,58602,2,0,P|122:47|122:95,1,95.9999970703126,10|0,0:1|0:0,0:0:0:0:
229,209,58905,1,2,0:1:0:0:
19,126,59057,1,0,3:0:0:0:
230,27,59208,2,0,P|238:74|238:122,1,95.9999970703126,10|0,0:1|0:0,0:0:0:0:
148,234,59511,5,2,3:3:0:0:
349,74,59663,1,0,3:0:0:0:
275,286,59814,1,10,0:3:0:0:
142,129,59966,2,0,L|238:122,1,95.9999970703126,0|2,3:0|0:3,0:0:0:0:
61,205,60269,1,0,3:0:0:0:
259,32,60420,6,0,B|237:92|272:136|272:136|267:143|267:143|284:171|272:217,1,191.999994140625,12|2,0:1|0:3,0:0:0:0:
35,8,61026,2,0,P|83:0|131:0,1,95.9999970703126,10|0,0:3|0:3,0:0:0:0:
354,23,61330,2,0,P|306:31|258:31,1,95.9999970703126,2|0,0:3|0:0,0:0:0:0:
119,111,61633,1,10,0:3:0:0:
249,298,61784,1,0,3:0:0:0:
351,106,61936,5,2,3:3:0:0:
140,267,62087,1,0,3:0:0:0:
352,355,62239,1,10,0:3:0:0:
250,178,62390,2,0,L|243:274,1,95.9999970703126,0|2,0:0|0:3,0:0:0:0:
351,106,62693,2,0,L|344:202,1,95.9999970703126,0|10,0:0|0:3,0:0:0:0:
258,31,62996,1,0,3:0:0:0:
461,129,63148,5,2,3:3:0:0:
243,273,63299,1,0,3:0:0:0:
449,374,63451,2,0,P|448:326|440:278,1,95.9999970703126,10|0,0:3|0:0,0:0:0:0:
351,106,63754,2,0,P|343:153|342:201,1,95.9999970703126,2|0,0:3|0:0,0:0:0:0:
452,41,64057,1,10,0:3:0:0:
234,8,64208,1,0,3:0:0:0:
342,201,64360,5,2,3:3:0:0:
149,23,64511,1,0,3:0:0:0:
375,2,64663,1,10,0:3:0:0:
208,100,64814,2,0,L|215:196,1,95.9999970703126,0|2,3:0|0:3,0:0:0:0:
341,299,65117,1,0,3:0:0:0:
81,273,65269,6,0,B|120:211|194:214|194:214|163:212|135:198,1,191.999994140625,12|2,0:1|0:3,0:0:0:0:
437,209,65875,2,0,P|389:201|341:200,1,95.9999970703126,10|0,0:3|0:0,0:0:0:0:
160,325,66178,2,0,P|207:332|255:333,1,95.9999970703126,2|0,0:3|0:0,0:0:0:0:
341,200,66481,1,10,0:3:0:0:
126,116,66633,1,0,3:0:0:0:
329,12,66784,5,2,3:3:0:0:
208,243,66936,1,0,3:0:0:0:
149,23,67087,1,10,0:3:0:0:
324,118,67239,2,0,L|228:125,1,95.9999970703126,0|2,0:0|0:3,0:0:0:0:
424,5,67542,2,0,L|328:12,1,95.9999970703126,0|10,0:0|0:3,0:0:0:0:
465,101,67845,1,0,3:0:0:0:
241,38,67996,5,2,3:3:0:0:
437,209,68148,1,0,3:0:0:0:
255,333,68299,2,0,P|247:285|246:237,1,95.9999970703126,10|0,0:3|0:0,0:0:0:0:
349,104,68602,2,0,P|348:151|340:199,1,95.9999970703126,2|0,0:3|0:0,0:0:0:0:
241,38,68905,1,10,0:1:0:0:
465,101,69057,1,0,3:0:0:0:
246,237,69208,5,2,3:3:0:0:
424,5,69360,1,10,0:1:0:0:
126,116,69511,1,10,0:1:0:0:
333,284,69663,1,0,3:0:0:0:
222,50,69814,5,8,0:3:0:0:
238,91,69890,1,8,0:0:0:0:
239,135,69966,1,2,0:3:0:0:
227,177,70042,1,0,3:3:0:0:
206,214,70117,6,0,B|143:246|71:223|71:223|125:254,1,191.999994140625,12|2,0:1|0:3,0:0:0:0:
465,101,70723,2,0,P|464:148|456:196,1,95.9999970703126,10|0,0:3|0:0,0:0:0:0:
342,379,71026,2,0,P|334:331|332:283,1,95.9999970703126,2|0,0:3|0:0,0:0:0:0:
383,124,71329,1,10,0:3:0:0:
467,338,71481,1,0,3:0:0:0:
235,329,71633,5,2,3:3:0:0:
455,196,71784,1,0,3:0:0:0:
268,51,71936,1,10,0:3:0:0:
376,219,72087,2,0,L|383:123,1,95.9999970703126,0|2,0:0|0:3,0:0:0:0:
251,253,72390,2,0,L|258:157,1,95.9999970703126,0|10,0:0|0:3,0:0:0:0:
322,356,72693,1,0,3:0:0:0:
468,174,72845,5,2,3:3:0:0:
234,64,72996,1,0,3:0:0:0:
415,0,73148,1,10,0:3:0:0:
376,219,73299,1,0,0:0:0:0:
234,64,73451,2,0,P|281:56|329:54,1,95.9999970703126,2|0,0:3|0:0,0:0:0:0:
463,147,73754,1,10,0:3:0:0:
274,274,73905,1,0,3:0:0:0:
329,54,74057,5,2,3:3:0:0:
455,277,74208,1,0,3:0:0:0:
257,157,74360,1,12,0:3:0:0:
369,314,74511,2,0,L|376:218,1,95.9999970703126,0|2,3:0|0:3,0:0:0:0:
228,353,74814,1,0,3:0:0:0:
156,109,74966,6,0,B|146:241|146:241|131:180,1,191.999994140625,12|2,0:1|0:3,0:0:0:0:
424,47,75572,2,0,P|376:54|328:56,1,95.9999970703126,10|0,0:3|0:0,0:0:0:0:
131,29,75875,2,0,P|178:21|226:19,1,95.9999970703126,2|0,0:3|0:0,0:0:0:0:
53,105,76178,1,10,0:3:0:0:
282,181,76329,1,0,3:0:0:0:
54,220,76481,5,2,3:3:0:0:
226,22,76633,1,0,3:0:0:0:
363,206,76784,2,0,L|356:302,1,95.9999970703126,10|0,0:3|0:3,0:3:0:0:
289,86,77087,2,0,L|282:182,1,95.9999970703126,2|0,0:3|0:0,0:0:0:0:
424,47,77390,1,10,0:3:0:0:
200,124,77542,1,0,3:0:0:0:
356,301,77693,5,2,3:3:0:0:
346,29,77845,1,0,3:0:0:0:
177,202,77996,2,0,P|224:209|272:211,1,95.9999970703126,10|0,0:3|0:0,0:0:0:0:
459,143,78299,1,2,0:3:0:0:
272,290,78451,1,0,3:0:0:0:
226,22,78602,1,10,0:3:0:0:
363,206,78754,1,0,3:0:0:0:
73,235,78905,5,4,3:2:0:0:
368,114,79057,1,0,3:0:0:0:
177,331,79208,2,0,L|186:236,1,95.9999970703126,12|0,0:1|0:0,0:0:0:0:
226,22,79511,2,0,L|217:117,1,95.9999970703126,12|0,0:1|3:0,0:0:0:0:
90,322,79814,1,2,3:1:0:0:
363,206,79966,1,8,0:0:0:0:
363,206,80042,1,8,0:0:0:0:
363,206,80117,5,2,3:1:0:0:
68,85,80269,1,0,3:0:0:0:
310,0,80420,1,12,0:1:0:0:
316,14,80723,6,0,B|297:75|333:63|316:124,1,112,12|0,0:1|0:0,0:0:0:0:
274,193,81329,6,0,B|284:312|284:312|298:271,1,160,4|0,3:0|0:0,0:0:0:0:
363,206,81784,1,0,3:0:0:0:
179,155,81936,2,0,B|185:234,1,80,12|0,0:3|0:0,0:0:0:0:
380,309,82239,2,0,B|373:229,1,80,0|0,3:0|0:0,0:0:0:0:
316,14,82542,6,0,P|343:86|302:152,1,160,4|0,3:3|0:0,0:0:0:0:
254,78,82996,1,0,0:0:0:0:
448,57,83148,2,0,P|450:85|441:136,1,80,12|0,0:3|0:0,0:0:0:0:
286,254,83451,2,0,P|277:214|279:175,1,80
380,309,83754,5,4,3:3:0:0:
179,155,83905,2,0,B|185:234,1,80,0|0,3:0|0:0,0:0:0:0:
254,78,84208,1,0,3:0:0:0:
64,21,84360,2,0,B|143:27,1,80,12|0,0:3|0:0,0:0:0:0:
265,241,84663,2,0,B|185:234,1,80,0|0,3:0|0:0,0:0:0:0:
348,30,84966,6,0,B|338:79|362:145|362:145|328:105,1,160,4|0,3:3|0:0,0:0:0:0:
263,57,85420,1,0,0:0:0:0:
386,230,85572,2,0,P|388:258|379:309,1,80,12|0,0:3|0:0,0:0:0:0:
185,234,85875,2,0,P|176:194|178:155,1,80
281,343,86178,6,0,B|121:356,1,160,4|0,3:0|0:0,0:0:0:0:
266,261,86633,1,0,3:0:0:0:
57,167,86784,1,12,0:3:0:0:
121,356,86936,1,0,0:0:0:0:
191,154,87087,2,0,B|184:233,1,80,0|0,3:0|0:0,0:0:0:0:
135,72,87390,6,0,P|213:57|276:103,1,160,4|0,3:0|0:0,0:0:0:0:
191,154,87845,1,0,0:0:0:0:
386,230,87996,2,0,P|394:190|392:151,1,80,12|0,0:3|0:0,0:0:0:0:
266,261,88299,2,0,P|264:300|272:339,1,80
392,151,88602,5,4,3:3:0:0:
163,268,88754,2,0,B|83:261,1,80,0|0,3:0|0:0,0:0:0:0:
272,339,89057,1,0,3:0:0:0:
274,101,89208,2,0,B|280:180,1,80,12|0,0:3|0:0,0:0:0:0:
402,344,89511,2,0,B|395:264,1,80,0|0,3:0|0:0,0:0:0:0:
348,24,89814,5,4,3:3:0:0:
266,261,89966,1,8,0:0:0:0:
195,94,90117,2,0,P|234:92|273:100,1,80,0|0,0:0|3:0,0:0:0:0:
366,190,90420,5,12,0:3:0:0:
105,211,90572,1,8,0:0:0:0:
66,175,90648,1,8,0:0:0:0:
58,128,90724,1,8,0:3:0:0:
81,85,90799,1,8,0:3:0:0:
121,65,90875,1,2,0:3:0:0:
165,70,90951,1,2,0:3:0:0:
195,94,91026,6,0,B|177:137|202:166|202:166|193:173|193:173|212:210|188:255,1,160,4|0,3:1|0:0,0:0:0:0:
122,310,91481,1,0,3:0:0:0:
315,361,91633,2,0,P|275:369|236:367,1,80,12|0,0:3|0:0,0:0:0:0:
287,183,91936,2,0,P|326:181|365:189,1,80,0|0,3:0|0:0,0:0:0:0:
194,243,92239,6,0,B|138:204|83:226|83:226|118:201,1,160,4|0,3:0|0:0,0:0:0:0:
205,152,92693,1,0,0:0:0:0:
372,269,92845,2,0,B|365:189,1,80,12|0,0:3|0:0,0:0:0:0:
276,14,93148,2,0,B|282:93,1,80
268,287,93451,5,4,3:3:0:0:
456,105,93602,2,0,P|416:96|377:98,1,80,0|0,3:0|0:0,0:0:0:0:
188,131,93905,1,0,3:0:0:0:
372,269,94057,2,0,P|373:229|365:190,1,80,12|0,0:3|0:0,0:0:0:0:
181,52,94360,2,0,P|179:91|187:130,1,80,0|0,3:0|0:0,0:0:0:0:
268,287,94663,6,0,B|276:168|276:168|254:204,1,160,4|0,3:0|0:0,0:0:0:0:
182,272,95117,1,0,0:0:0:0:
372,269,95269,2,0,B|377:189,1,80,12|0,0:3|0:0,0:0:0:0:
276,14,95572,2,0,B|270:93,1,80
250,333,95875,6,0,B|273:327|294:338|294:338|305:332|305:332|342:369|406:354,1,160,4|0,3:0|0:0,0:0:0:0:
472,287,96329,1,0,3:0:0:0:
344,107,96481,2,0,P|383:105|422:113,1,80,12|0,0:3|0:0,0:0:0:0:
254,202,96784,2,0,P|214:203|175:195,1,80,0|0,3:0|0:0,0:0:0:0:
55,34,97087,5,2,3:1:0:0:
84,291,97239,1,8,0:0:0:0:
89,251,97314,1,8,0:0:0:0:
94,211,97390,1,8,0:0:0:0:
99,172,97466,1,8,0:0:0:0:
104,132,97542,1,2,3:1:0:0:
263,298,97693,5,8,0:0:0:0:
221,324,97768,1,8,0:0:0:0:
172,333,97844,1,8,0:0:0:0:
123,321,97920,1,8,0:0:0:0:
84,291,97996,2,8,L|29:301,1,40,8|8,0:3|0:3,0:3:0:0:
275,193,98148,2,2,L|330:203,1,40,2|2,0:3|0:3,0:3:0:0:
141,55,98299,5,4,3:1:0:0:
263,298,98451,1,0,3:0:0:0:
364,83,98602,1,4,3:3:0:0:
104,132,98754,2,0,P|200:118|216:14,1,207.999990478516,8|0,0:0|3:0,0:0:0:0:
56,55,99208,1,12,0:3:0:0:
188,230,99360,1,0,3:0:0:0:
219,21,99511,5,4,3:3:0:0:
94,211,99663,1,0,3:0:0:0:
322,201,99814,1,4,3:3:0:0:
136,22,99966,2,0,B|132:69|169:95|169:95|156:108|156:108|194:148|140:154|184:219,1,207.999990478516,8|0,0:0|3:0,0:0:0:0:
364,83,100420,1,12,0:3:0:0:
263,298,100572,1,0,3:0:0:0:
219,21,100723,5,4,3:1:0:0:
405,159,100875,2,0,B|399:254,1,95.9999970703126,0|4,3:0|0:3,0:0:0:0:
263,298,101178,1,0,3:0:0:0:
364,83,101329,5,12,3:3:0:0:
176,206,101481,1,0,3:0:0:0:
399,254,101633,1,4,3:3:0:0:
245,96,101784,1,0,3:0:0:0:
239,325,101936,5,4,3:3:0:0:
405,159,102087,2,0,P|365:157|309:163,1,95.9999970703126,0|4,3:0|0:3,0:0:0:0:
176,206,102390,1,0,3:0:0:0:
399,254,102542,5,12,0:3:0:0:
166,120,102693,1,0,3:0:0:0:
239,325,102845,1,4,3:3:0:0:
364,83,102996,1,8,0:0:0:0:
340,76,103071,1,8,0:0:0:0:
317,70,103147,5,4,3:1:0:0:
347,327,103299,1,0,3:0:0:0:
495,154,103451,1,4,3:0:0:0:
245,99,103602,2,0,B|269:156|239:245|239:245|250:220|271:196,1,207.999990478516,8|0,0:0|3:0,0:0:0:0:
405,159,104057,1,12,0:3:0:0:
239,325,104208,1,0,3:0:0:0:
317,70,104360,5,4,3:0:0:0:
484,270,104511,1,0,3:0:0:0:
239,245,104663,1,4,3:0:0:0:
412,58,104814,2,0,B|389:98|417:141|417:141|404:157|404:157|429:201|400:255,1,207.999990478516,8|0,0:0|3:0,0:0:0:0:
245,99,105269,1,12,0:3:0:0:
479,4,105420,1,0,3:0:0:0:
401,251,105572,5,4,3:0:0:0:
306,44,105723,1,0,3:0:0:0:
239,245,105875,1,4,0:3:0:0:
412,58,106026,1,0,3:0:0:0:
469,299,106178,5,12,3:3:0:0:
255,127,106329,1,0,3:0:0:0:
507,97,106481,1,4,3:3:0:0:
395,336,106633,1,0,3:0:0:0:
324,71,106784,5,4,3:3:0:0:
143,250,106936,2,0,B|238:244,1,95.9999970703126,8|4,0:0|0:3,0:0:0:0:
78,84,107239,2,8,B|75:131,1,47.9999985351563,8|8,0:2|0:2,0:2:0:0:
87,328,107390,5,8,0:0:0:0:
117,342,107465,1,8,0:0:0:0:
150,344,107542,2,8,P|173:342|195:331,1,47.9999985351563,8|8,0:2|0:2,0:2:0:0:
336,153,107693,1,8,0:0:0:0:
381,137,107768,1,8,0:0:0:0:
428,143,107844,1,8,0:0:0:0:
468,169,107920,1,8,0:0:0:0:
494,209,107996,5,4,3:1:0:0:
329,49,108148,2,0,B|335:152,1,103.999995239258,0|4,0:0|3:1,0:0:0:0:
392,243,108451,1,8,0:0:0:0:
177,163,108602,5,4,3:1:0:0:
298,334,108754,1,0,0:0:0:0:
335,152,108905,1,12,3:1:0:0:
195,330,109057,1,0,0:0:0:0:
251,92,109208,5,12,3:1:0:0:
298,334,109360,2,0,P|246:335|194:329,1,103.999995239258,0|4,0:0|3:1,0:0:0:0:
143,250,109663,1,8,0:2:0:0:
335,152,109814,6,0,P|336:100|330:48,1,103.999995239258,4|0,3:1|0:0,0:0:0:0:
260,230,110117,1,4,3:1:0:0:
442,327,110269,1,8,0:0:0:0:
419,333,110345,1,8,0:0:0:0:
395,340,110420,5,4,3:1:0:0:
427,149,110572,1,0,0:0:0:0:
260,230,110723,2,0,B|363:236,1,103.999995239258,4|8,3:1|0:2,0:0:0:0:
147,85,111026,2,0,B|250:91,1,103.999995239258,4|0,3:1|0:0,0:0:0:0:
335,152,111329,1,4,3:1:0:0:
143,250,111481,1,0,3:0:0:0:
228,8,111633,5,10,0:1:0:0:
282,321,111784,2,0,B|235:304|197:321|197:321|228:299|232:258,1,160,4|0,3:0|3:0,3:0:0:0:
123,253,112239,6,8,L|152:248,1,20,10|10,0:1|0:1,0:0:0:0:
427,149,112390,2,0,B|406:193|426:267|426:267|414:243|395:229,1,160,4|0,3:0|3:0,3:0:0:0:
335,152,112845,5,4,3:1:0:0:
477,76,112996,1,0,0:0:0:0:
267,0,113148,2,0,B|261:103,1,103.999995239258,4|8,3:1|0:0,0:0:0:0:
371,240,113451,5,4,3:1:0:0:
177,134,113602,2,0,B|183:31,1,103.999995239258,0|12,0:0|3:1,0:0:0:0:
335,152,113905,1,0,0:0:0:0:
197,321,114057,5,12,3:1:0:0:
73,129,114208,2,0,P|124:127|176:133,1,103.999995239258,0|4,0:0|3:1,0:0:0:0:
252,200,114511,1,8,0:0:0:0:
93,325,114663,2,0,P|144:326|196:320,1,103.999995239258,4|0,3:1|0:0,0:0:0:0:
286,281,114966,1,4,3:1:0:0:
41,210,115117,1,8,0:0:0:0:
35,233,115193,1,8,0:0:0:0:
29,256,115268,5,4,3:0:0:0:
176,133,115420,1,0,3:0:0:0:
45,36,115572,2,0,B|124:40,1,80,4|0,0:1|3:0,0:0:0:0:
259,98,115875,1,12,3:1:0:0:
73,129,116026,1,0,3:0:0:0:
242,213,116178,2,0,B|162:217,1,80,4|0,0:1|3:0,0:0:0:0:
259,98,116481,5,4,3:1:0:0:
311,262,116633,1,0,3:0:0:0:
427,149,116784,2,0,P|431:188|427:228,1,80,4|0,0:1|3:0,0:0:0:0:
360,58,117087,1,12,3:1:0:0:
242,213,117239,1,0,3:0:0:0:
176,53,117390,2,0,P|171:92|175:132,1,80,4|0,0:1|3:0,0:0:0:0:
256,327,117693,5,4,3:3:0:0:
389,139,117845,1,0,3:0:0:0:
162,217,117996,1,4,3:1:0:0:
345,348,118148,1,0,3:0:0:0:
259,98,118299,5,12,3:1:0:0:
162,310,118451,1,0,3:0:0:0:
410,248,118602,1,4,3:1:0:0:
175,132,118754,1,0,3:0:0:0:
444,63,118905,5,4,3:1:0:0:
270,299,119057,1,8,3:0:0:0:
185,45,119208,1,4,3:1:0:0:
416,162,119360,1,0,3:0:0:0:
162,217,119511,5,12,3:1:0:0:
444,63,119663,1,0,3:0:0:0:
107,75,119814,5,4,3:1:0:0:
416,162,119966,1,0,3:0:0:0:
162,310,120117,5,4,3:3:0:0:
292,13,120269,1,0,3:0:0:0:
410,248,120420,2,0,L|314:240,1,95.9999970703126,12|0,0:1|0:0,0:0:0:0:
92,117,120723,2,0,L|188:125,1,95.9999970703126,12|0,0:1|3:0,0:0:0:0:
365,48,121026,1,2,3:1:0:0:
246,280,121178,1,8,0:0:0:0:
246,280,121254,1,8,0:0:0:0:
246,280,121330,5,4,3:0:0:0:
187,0,121481,1,0,3:0:0:0:
66,209,121633,2,0,L|162:217,1,95.9999970703126,12|0,0:1|0:0,0:0:0:0:
353,278,121936,6,0,B|370:246|370:246|312:289|245:279,1,167.999994873047,12|0,0:1|0:0,0:0:0:0:
161,216,122542,5,4,3:0:0:0:
471,145,122693,1,0,3:0:0:0:
210,25,122845,2,0,L|202:121,1,95.9999970703126,12|0,0:1|0:0,0:0:0:0:
237,375,123148,2,0,L|245:279,1,95.9999970703126,12|0,0:1|3:0,0:0:0:0:
343,72,123451,1,2,3:1:0:0:
100,157,123603,1,8,0:0:0:0:
100,157,123679,1,8,0:0:0:0:
100,157,123754,5,2,3:1:0:0:
374,298,123905,1,8,0:0:0:0:
402,248,123981,1,8,0:0:0:0:
398,195,124057,1,8,0:0:0:0:
361,157,124132,1,8,0:3:0:0:
313,147,124208,1,2,0:3:0:0:
268,166,124284,1,0,3:0:0:0:
243,199,124360,6,0,B|224:260|260:248|243:309,1,112,10|0,0:1|0:0,0:0:0:0:
173,281,124966,6,0,B|186:319|186:319|196:200,1,160,4|0,3:0|0:0,0:0:0:0:
94,334,125420,1,0,3:0:0:0:
48,139,125572,2,0,L|41:219,1,80,12|0,0:3|0:0,0:0:0:0:
206,111,125875,2,0,L|213:31,1,80,0|0,3:0|0:0,0:0:0:0:
128,167,126178,6,0,P|196:204|271:184,1,160,4|0,3:3|0:0,0:0:0:0:
206,111,126633,1,0,0:0:0:0:
378,16,126784,2,0,P|380:44|371:95,1,80,12|0,0:3|0:0,0:0:0:0:
278,263,127087,2,0,P|269:223|271:184,1,80
360,323,127390,5,4,3:3:0:0:
206,111,127542,2,0,L|286:104,1,80,0|0,3:0|0:0,0:0:0:0:
128,167,127845,1,0,3:0:0:0:
271,342,127996,2,0,L|278:262,1,80,12|0,0:3|0:0,0:0:0:0:
212,31,128299,2,0,L|205:111,1,80,0|0,3:0|0:0,0:0:0:0:
105,356,128602,6,0,B|103:314|79:283|79:283|115:307|167:288,1,160,4|0,3:3|0:0,0:0:0:0:
209,205,129057,1,0,0:0:0:0:
30,125,129208,2,0,P|28:164|36:203,1,80,12|0,0:3|0:0,0:0:0:0:
218,109,129511,2,0,P|219:69|211:30,1,80
209,205,129814,6,0,B|328:215|328:215|290:194,1,160,4|0,3:3|0:0,0:0:0:0:
218,109,130269,1,0,3:0:0:0:
414,44,130420,1,12,0:3:0:0:
400,279,130572,1,0,0:0:0:0:
299,115,130723,2,0,L|292:195,1,80,0|0,3:0|0:0,0:0:0:0:
338,6,131026,6,0,B|284:29|221:15|221:15|260:41,1,160,4|0,3:3|0:0,0:0:0:0:
299,115,131481,1,0,0:0:0:0:
106,86,131633,2,0,P|97:46|99:7,1,80,12|0,0:3|0:0,0:0:0:0:
209,205,131936,2,0,P|210:244|202:283,1,80
130,351,132239,5,4,3:3:0:0:
313,197,132390,2,0,L|233:190,1,80,0|0,3:0|0:0,0:0:0:0:
374,292,132693,1,0,3:0:0:0:
436,71,132845,2,0,L|443:151,1,80,12|0,0:3|0:0,0:0:0:0:
298,361,133148,2,0,L|291:281,1,80,0|0,3:0|0:0,0:0:0:0:
334,35,133451,5,4,3:3:0:0:
374,292,133602,1,8,0:0:0:0:
220,120,133754,2,0,P|259:112|298:114,1,80,0|0,0:0|3:0,0:0:0:0:
374,179,134057,5,12,0:3:0:0:
102,209,134208,1,8,0:0:0:0:
74,165,134284,1,8,0:0:0:0:
79,117,134360,1,8,0:3:0:0:
112,82,134435,1,8,0:3:0:0:
156,73,134511,1,2,0:3:0:0:
197,89,134587,1,2,0:3:0:0:
220,120,134663,6,0,B|205:164|231:192|231:192|223:199|223:199|244:235|222:282,1,160,4|0,3:1|0:0,0:0:0:0:
168,347,135117,1,0,3:0:0:0:
23,215,135269,2,0,P|62:206|101:208,1,80,12|0,0:3|0:0,0:0:0:0:
306,261,135572,2,0,P|266:269|227:267,1,80,0|0,3:0|0:0,0:0:0:0:
404,155,135875,6,0,L|389:316,1,160,4|0,3:3|0:0,0:0:0:0:
316,169,136329,1,0,0:0:0:0:
478,277,136481,2,0,L|485:197,1,80,12|0,0:3|0:0,0:0:0:0:
354,11,136784,2,0,L|347:91,1,80
389,314,137087,5,4,3:3:0:0:
504,116,137239,2,0,P|464:114|425:122,1,80,0|0,3:0|0:0,0:0:0:0:
306,261,137542,1,0,3:0:0:0:
226,41,137693,2,0,P|227:80|219:119,1,80,12|0,0:3|0:0,0:0:0:0:
129,329,137996,2,0,P|120:289|122:250,1,80,0|0,3:0|0:0,0:0:0:0:
302,141,138299,6,0,B|253:122|185:142|185:142|225:115,1,160,4|0,3:3|0:0,0:0:0:0:
313,58,138754,1,0,0:0:0:0:
122,4,138905,2,0,L|115:84,1,80,12|0,0:3|0:0,0:0:0:0:
211,297,139208,2,0,L|218:217,1,80
368,57,139511,6,0,B|345:63|324:52|324:52|313:58|313:58|276:21|212:36,1,160,4|0,3:3|0:0,0:0:0:0:
246,130,139966,1,0,3:0:0:0:
438,12,140117,2,0,P|446:51|444:90,1,80,12|0,0:3|0:0,0:0:0:0:
319,252,140420,2,0,P|317:212|325:173,1,80,0|0,3:0|0:0,0:0:0:0:
400,357,140723,5,2,3:1:0:0:
217,217,140875,5,8,0:0:0:0:
178,207,140950,1,8,0:0:0:0:
139,204,141026,1,8,0:0:0:0:
100,209,141102,1,8,0:0:0:0:
62,222,141178,1,2,3:1:0:0:
319,252,141329,5,8,0:1:0:0:
341,217,141405,2,0,L|344:177,1,40,8|2,0:3|0:3,0:3:0:0:
314,51,141557,1,8,0:1:0:0:
283,78,141633,5,8,0:1:0:0:
250,90,141708,1,8,0:3:0:0:
220,93,141784,1,2,0:3:0:0:
198,91,141860,1,2,0:3:0:0:
177,86,141936,5,4,3:0:0:0:
425,178,142087,1,0,3:0:0:0:
208,312,142239,2,0,L|216:216,1,95.9999970703126,12|0,0:1|3:0,0:0:0:0:
314,51,142542,1,4,3:1:0:0:
100,209,142693,1,0,3:0:0:0:
311,347,142845,2,0,L|319:251,1,95.9999970703126,12|0,0:1|3:0,0:0:0:0:
177,86,143148,6,0,P|129:83|83:93,1,95.9999970703126,4|0,3:1|3:0,3:0:0:0:
330,170,143451,2,0,P|376:179|424:177,1,95.9999970703126,12|0,0:1|3:0,0:0:0:0:
227,0,143754,1,4,3:1:0:0:
318,251,143905,1,0,3:0:0:0:
79,183,144057,1,12,0:1:0:0:
314,51,144208,1,0,3:0:0:0:
208,312,144360,5,4,3:1:0:0:
82,93,144511,1,0,3:0:0:0:
330,170,144663,2,0,L|234:178,1,95.9999970703126,12|0,0:1|3:0,0:0:0:0:
89,306,144966,1,4,3:1:0:0:
252,97,145117,1,0,3:0:0:0:
0,192,145269,2,0,L|96:200,1,95.9999970703126,12|0,0:1|3:0,0:0:0:0:
347,270,145572,5,4,3:1:0:0:
227,0,145723,1,0,3:0:0:0:
152,253,145875,1,12,0:1:0:0:
382,103,146026,1,0,3:0:0:0:
136,14,146178,2,0,P|133:61|143:107,1,95.9999970703126,4|0,3:1|3:0,3:0:0:0:
229,289,146481,1,12,0:1:0:0:
317,41,146633,1,0,3:0:0:0:
95,199,146784,5,4,3:3:0:0:
347,270,146936,1,0,3:0:0:0:
113,384,147087,1,12,0:1:0:0:
234,178,147239,2,0,L|330:170,1,95.9999970703126,0|4,3:0|3:1,3:0:0:0:
142,108,147542,1,0,3:0:0:0:
347,270,147693,2,0,L|251:278,1,95.9999970703126,12|0,0:1|3:0,0:0:0:0:
16,163,147996,6,0,P|13:210|23:256,1,95.9999970703126,4|0,3:1|3:0,3:0:0:0:
233,88,148299,1,12,0:1:0:0:
22,13,148451,1,0,3:0:0:0:
138,280,148602,5,4,3:1:0:0:
313,97,148754,1,0,3:0:0:0:
16,163,148905,1,12,0:1:0:0:
270,362,149057,1,0,3:0:0:0:
119,84,149208,5,4,3:1:0:0:
432,185,149360,1,0,3:0:0:0:
131,306,149511,1,12,0:1:0:0:
251,21,149663,1,0,3:0:0:0:
447,279,149814,5,4,3:1:0:0:
155,157,149966,1,0,3:0:0:0:
395,384,150117,1,12,0:1:0:0:
433,72,150269,1,0,3:0:0:0:
270,362,150420,6,0,P|259:315|262:267,1,95.9999970703126,4|0,3:1|3:0,3:0:0:0:
339,52,150723,1,12,0:1:0:0:
447,279,150875,1,0,3:0:0:0:
155,157,151026,5,4,3:1:0:0:
465,80,151178,1,10,0:1:0:0:
143,172,151329,5,4,3:1:0:0:
447,279,151481,1,12,0:2:0:0:
251,21,151633,5,4,3:0:0:0:
84,231,151784,1,0,3:0:0:0:
347,276,151936,2,0,L|339:180,1,95.9999970703126,12|0,0:1|3:0,0:0:0:0:
173,66,152239,1,4,3:1:0:0:
260,313,152390,1,0,3:0:0:0:
430,108,152542,2,0,L|438:204,1,95.9999970703126,12|0,0:1|3:0,0:0:0:0:
251,21,152845,6,0,P|297:10|345:13,1,95.9999970703126,4|0,3:1|3:0,3:0:0:0:
178,223,153148,2,0,P|131:233|83:230,1,95.9999970703126,12|0,0:1|3:0,0:0:0:0:
300,106,153451,1,4,3:1:0:0:
161,324,153602,1,0,3:0:0:0:
54,96,153754,1,12,0:1:0:0:
289,208,153905,1,0,3:0:0:0:
53,329,154057,5,4,3:1:0:0:
333,100,154208,1,0,3:0:0:0:
15,22,154360,1,12,0:1:0:0:
161,324,154511,1,0,3:0:0:0:
345,13,154663,5,4,3:1:0:0:
278,333,154814,1,0,3:0:0:0:
54,96,154966,1,12,0:1:0:0:
379,179,155117,1,0,3:0:0:0:
161,324,155269,6,0,P|150:277|153:229,1,95.9999970703126,4|0,3:1|3:0,3:0:0:0:
263,46,155572,1,12,0:1:0:0:
370,287,155723,1,0,3:0:0:0:
153,94,155875,1,4,3:1:0:0:
406,29,156026,1,0,3:0:0:0:
270,238,156178,2,0,P|267:285|277:332,1,95.9999970703126,12|0,0:1|3:0,0:0:0:0:
465,113,156481,5,4,3:3:0:0:
202,164,156633,1,0,3:0:0:0:
414,302,156784,2,0,L|406:206,1,95.9999970703126,12|0,0:1|3:0,0:0:0:0:
224,79,157087,1,4,3:1:0:0:
161,324,157239,1,0,3:0:0:0:
406,206,157390,5,10,0:1:0:0:
137,26,157542,1,0,3:0:0:0:
256,360,157693,5,4,3:0:0:0:
256,345,158635,6,0,B|269:294|238:306|255:250,1,95.9999970703126,2|2,0:0|0:0,0:0:0:0:
256,192,159076,12,0,165340,0:0:0:0:
