osu file format v14

[General]
AudioFilename: Monster.mp3
AudioLeadIn: 0
PreviewTime: 38062
Countdown: 1
SampleSet: Soft
StackLeniency: 0.2
Mode: 0
LetterboxInBreaks: 0
WidescreenStoryboard: 0

[Editor]
Bookmarks: 11981,35254,38163,57072,58526,70163,93435,96345,115254,116708,128345,142890,148708,169072,189435
DistanceSpacing: 0.8
BeatDivisor: 4
GridSize: 16
TimelineZoom: 2.899999

[Metadata]
Title:Monster
TitleUnicode:Monster
Artist:Paramore
ArtistUnicode:Paramore
Creator:Net0
Version:Insane
Source:Transformers: Dark of the Moon
Tags:Roberto kagiura Outright rock punk emo alternative english single Hayley Williams Taylor York Jeremy Davis 2011 2010s Fueled by Ramen Doremi action adventure
BeatmapID:3038371
BeatmapSetID:1481197

[Difficulty]
HPDrainRate:6
CircleSize:4
OverallDifficulty:8
ApproachRate:9
SliderMultiplier:1.92
SliderTickRate:1

[Events]
//Background and Video events
0,0,"monsterbg.jpg",0,0
//Break Periods
//Storyboard Layer 0 (Background)
//Storyboard Layer 1 (Fail)
//Storyboard Layer 2 (Pass)
//Storyboard Layer 3 (Foreground)
//Storyboard Layer 4 (Overlay)
//Storyboard Sound Samples

[TimingPoints]
335,363.636363636364,4,2,1,70,1,0
880,-200,4,2,1,60,0,0
11971,-111.111111111111,4,2,1,60,0,0
13062,-200,4,2,1,60,0,0
14698,-111.111111111111,4,2,1,60,0,0
16698,-200,4,2,1,60,0,0
17789,-74.0740740740741,4,2,1,60,0,0
18516,-111.111111111111,4,2,1,60,0,0
18880,-200,4,2,1,60,0,0
20516,-111.111111111111,4,2,1,60,0,0
22880,-166.666666666666,4,2,1,60,0,0
23425,-111.111111111111,4,2,1,60,0,0
24698,-200,4,2,1,60,0,0
26335,-111.111111111111,4,2,1,60,0,0
28335,-200,4,2,1,60,0,0
29425,-111.111111111111,4,2,1,60,0,0
30880,-200,4,2,1,60,0,0
32153,-111.111111111111,4,2,1,60,0,0
34153,-166.666666666666,4,2,1,60,0,0
37425,-370.37037037037,4,2,1,60,0,0
38153,-55.5555555555556,4,2,1,80,0,0
38516,-83.3333333333333,4,2,1,80,0,0
41062,-55.5555555555556,4,2,1,80,0,0
41244,-83.3333333333333,4,2,1,80,0,0
41425,-250.000000000001,4,2,1,80,0,0
41789,-55.5555555555555,4,2,1,80,0,0
42516,-166.666666666667,4,2,1,80,0,0
43062,-83.3333333333333,4,2,1,80,0,0
43244,-50,4,2,1,80,0,0
43607,-333.333333333333,4,2,1,80,0,0
43971,-50,4,2,1,80,0,0
45425,-200,4,2,1,80,0,0
45971,-66.6666666666667,4,2,1,80,0,0
47062,-200,4,2,1,80,0,0
47425,-66.6666666666667,4,2,1,80,0,0
49789,-55.5555555555556,4,2,1,80,0,0
50516,-83.3333333333333,4,2,1,80,0,0
50880,-166.666666666667,4,2,1,80,0,0
51244,-83.3333333333334,4,2,1,80,0,0
52335,-250,4,2,1,80,0,0
53607,-60.6060606060606,4,2,1,80,0,0
54153,-250,4,2,1,80,0,0
54516,-83.3333333333333,4,2,1,80,0,0
56698,-250,4,2,1,60,0,0
58516,-125,4,2,1,60,0,0
59607,-370.37037037037,4,2,1,60,0,0
60335,-166.666666666667,4,2,1,60,0,0
61789,-125,4,2,1,60,0,0
62880,-166.666666666667,4,2,1,60,0,0
63244,-125,4,2,1,60,0,0
64335,-125,4,2,1,60,0,0
65425,-370.37037037037,4,2,1,60,0,0
66153,-166.666666666667,4,2,1,60,0,0
70153,-111.111111111111,4,2,1,60,0,0
71244,-200,4,2,1,60,0,0
71971,-111.111111111111,4,2,1,60,0,0
77062,-200,4,2,1,60,0,0
77789,-111.111111111111,4,2,1,60,0,0
83244,-200,4,2,1,60,0,0
83971,-111.111111111111,4,2,1,60,0,0
88698,-200,4,2,1,60,0,0
89062,-100,4,2,1,60,0,0
91971,-200,4,2,1,60,0,0
93425,-100,4,2,1,60,0,0
95607,-370.37037037037,4,2,1,60,0,0
96335,-55.5555555555556,4,2,1,80,0,0
96698,-83.3333333333333,4,2,1,80,0,0
97789,-55.5555555555556,4,2,1,80,0,0
99244,-55.5555555555556,4,2,1,80,0,0
99425,-83.3333333333333,4,2,1,80,0,0
99607,-250.000000000001,4,2,1,80,0,0
99971,-55.5555555555555,4,2,1,80,0,0
100698,-166.666666666667,4,2,1,80,0,0
101244,-83.3333333333333,4,2,1,80,0,0
101425,-50,4,2,1,80,0,0
101789,-200,4,2,1,80,0,0
102153,-50,4,2,1,80,0,0
103607,-200,4,2,1,80,0,0
104153,-66.6666666666667,4,2,1,80,0,0
105244,-200,4,2,1,80,0,0
105607,-66.6666666666667,4,2,1,80,0,0
107971,-55.5555555555556,4,2,1,80,0,0
108698,-83.3333333333333,4,2,1,80,0,0
109062,-166.666666666667,4,2,1,80,0,0
109425,-83.3333333333334,4,2,1,80,0,0
110516,-250,4,2,1,80,0,0
111789,-60.6060606060606,4,2,1,80,0,0
112335,-250,4,2,1,80,0,0
112698,-83.3333333333333,4,2,1,80,0,0
114880,-250,4,2,1,80,0,0
115244,-83.3333333333333,4,2,1,80,0,0
128335,-62.5,4,2,1,80,0,0
147971,-434.782608695652,4,2,1,80,0,0
148698,-55.5555555555556,4,2,1,80,0,0
149062,-83.3333333333333,4,2,1,80,0,0
150153,-55.5555555555556,4,2,1,80,0,0
151608,-55.5555555555556,4,2,1,80,0,0
151789,-83.3333333333333,4,2,1,80,0,0
151971,-250.000000000001,4,2,1,80,0,0
152335,-55.5555555555555,4,2,1,80,0,0
153062,-166.666666666667,4,2,1,80,0,0
153608,-83.3333333333333,4,2,1,80,0,0
153789,-37.3134328358209,4,2,1,80,0,0
154153,-200,4,2,1,80,0,0
154516,-50,4,2,1,80,0,0
155971,-200,4,2,1,80,0,0
156517,-66.6666666666667,4,2,1,80,0,0
157607,-200,4,2,1,80,0,0
157971,-66.6666666666667,4,2,1,80,0,0
160335,-55.5555555555556,4,2,1,80,0,0
161062,-83.3333333333333,4,2,1,80,0,0
161426,-166.666666666667,4,2,1,80,0,0
161789,-83.3333333333334,4,2,1,80,0,0
162880,-250,4,2,1,80,0,0
163244,-55.5555555555556,4,2,1,80,0,0
164153,-60.6060606060606,4,2,1,80,0,0
164698,-250,4,2,1,80,0,0
165062,-83.3333333333333,4,2,1,80,0,0
167244,-250,4,2,1,80,0,0
167608,-83.3333333333333,4,2,1,80,0,0
183607,-125,4,2,1,80,0,0
184153,-83.3333333333333,4,2,1,80,0,0
184698,-55.5555555555556,4,2,1,80,0,0
185062,-45.4545454545455,4,2,1,80,0,0
186516,-83.3333333333333,4,2,1,80,0,0
189062,-83.3333333333333,4,2,1,60,0,0

[Colours]
Combo1 : 185,134,180
Combo2 : 249,202,115

[HitObjects]
116,70,335,5,2,0:0:0:0:
36,68,516,1,0,0:0:0:0:
155,0,698,1,0,0:0:0:0:
124,87,880,2,0,P|130:109|133:133,2,48,2|0|0,0:0|0:0|0:0,0:0:0:0:
59,247,1425,5,2,0:0:0:0:
137,277,1607,1,0,0:0:0:0:
56,257,1789,1,0,0:0:0:0:
139,266,1971,1,2,0:0:0:0:
0,318,2153,1,0,0:0:0:0:
62,232,2335,2,0,P|68:209|71:185,2,48,0|2|0,0:0|0:0|0:0,0:0:0:0:
197,179,2880,5,2,0:0:0:0:
211,254,3062,1,0,0:0:0:0:
206,178,3244,1,2,0:0:0:0:
201,254,3426,1,0,0:0:0:0:
149,126,3607,1,0,0:0:0:0:
223,176,3789,2,0,P|246:182|270:185,2,48,2|0|0,0:0|0:0|0:0,0:0:0:0:
344,235,4335,2,0,P|367:232|391:225,1,48,2|0,0:0|0:0,0:0:0:0:
454,184,4698,5,0,0:0:0:0:
464,180,4880,1,2,0:0:0:0:
475,176,5062,1,0,0:0:0:0:
338,156,5244,2,0,P|340:179|347:203,1,48,0|2,0:0|0:0,0:0:0:0:
382,319,5607,1,0,0:0:0:0:
372,315,5789,1,2,0:0:0:0:
361,311,5971,1,0,0:0:0:0:
454,242,6153,5,2,0:0:0:0:
495,174,6334,1,0,0:0:0:0:
495,310,6516,1,0,0:0:0:0:
435,240,6698,2,0,P|412:234|390:224,2,48,2|0|0,0:0|0:0|0:0,0:0:0:0:
291,166,7244,5,2,0:0:0:0:
370,136,7426,1,0,0:0:0:0:
289,155,7608,1,0,0:0:0:0:
372,147,7790,1,2,0:0:0:0:
234,95,7972,1,0,0:0:0:0:
296,180,8154,2,0,P|302:202|305:227,2,48,0|2|0,0:0|0:0|0:0,0:0:0:0:
174,283,8698,5,2,0:0:0:0:
222,225,8880,1,0,0:0:0:0:
181,289,9062,1,2,0:0:0:0:
214,220,9244,1,0,0:0:0:0:
105,305,9425,1,0,0:0:0:0:
195,299,9607,2,0,P|217:305|240:314,2,48,2|0|0,0:0|0:0|0:0,0:0:0:0:
127,220,10153,1,2,0:0:0:0:
127,220,10516,5,2,0:0:0:0:
127,220,10607,2,0,B|88:214|63:247|81:286|234:312|187:153|352:185,1,336
439,261,11971,6,0,P|379:241|352:184,1,129.599996044922,0|0,3:0|0:0,0:0:0:0:
435,177,12335,1,2,0:0:0:0:
363,322,12516,1,0,3:0:0:0:
346,226,12698,2,0,L|352:184,1,43.1999986816407,2|0,1:2|0:0,0:0:0:0:
274,101,12880,2,0,L|281:144,1,43.1999986816407,0|0,3:0|0:0,0:0:0:0:
331,41,13062,6,0,P|379:45|418:71,2,96,2|2|2,3:2|0:0|0:3,0:0:0:0:
331,41,14153,6,0,P|370:67|417:70,1,96,2|2,1:2|3:0,0:0:0:0:
509,115,14698,2,0,P|503:132|479:151,1,43.1999986816407,0|0,3:0|0:0,0:0:0:0:
383,168,14880,2,0,P|365:171|336:160,1,43.1999986816407,0|0,3:2|0:0,0:0:0:0:
450,246,15062,6,0,P|476:285|481:324,1,86.3999973632813,2|0,0:0|0:0,0:0:0:0:
301,305,15425,2,0,P|344:301|384:317,1,86.3999973632813,2|0,0:0|1:0,0:0:0:0:
236,377,15789,2,0,P|209:337|205:299,1,86.3999973632813,2|0,0:0|0:0,0:0:0:0:
261,229,16153,1,2,3:2:0:0:
122,336,16335,1,0,3:0:0:0:
280,267,16516,1,0,3:0:0:0:
171,150,16698,2,0,B|149:181|149:181|131:229,1,72,2|0,1:2|0:0,0:0:0:0:
117,203,17062,2,0,B|128:171|128:171|150:140,1,72,2|0,1:2|0:0,0:0:0:0:
216,218,17425,1,2,0:2:0:0:
85,76,17607,1,0,1:0:0:0:
85,76,17698,1,0,1:0:0:0:
85,76,17789,6,0,P|123:96|195:38,1,129.599996044922,0|0,3:0|3:0,0:0:0:0:
278,31,18153,1,2,0:0:0:0:
314,124,18335,1,0,3:0:0:0:
300,3,18516,2,0,P|316:16|329:34,1,43.1999986816407,2|0,1:2|0:0,0:0:0:0:
346,137,18698,2,0,P|342:158|333:177,1,43.1999986816407,0|0,3:0|0:0,0:0:0:0:
315,269,18880,6,0,P|363:265|402:239,2,96,2|2|2,3:2|0:0|0:3,0:0:0:0:
315,269,19971,6,0,P|354:242|401:239,1,96,2|2,1:2|0:3,0:0:0:0:
446,148,20516,2,0,P|463:154|482:178,1,43.1999986816407,0|0,3:0|0:0,0:0:0:0:
499,274,20698,2,0,P|502:292|491:321,1,43.1999986816407,0|0,3:0|0:0,0:0:0:0:
401,239,20880,6,0,P|353:236|316:210,1,86.3999973632813,2|0,0:0|0:0,0:0:0:0:
232,254,21244,2,0,P|210:211|214:165,1,86.3999973632813,2|0,0:0|1:0,0:0:0:0:
193,57,21607,2,0,P|156:78|134:115,1,86.3999973632813,2|0,0:0|0:0,0:0:0:0:
123,213,21971,1,2,3:2:0:0:
280,103,22153,1,0,3:0:0:0:
97,230,22335,2,0,P|59:208|37:172,1,86.3999973632813,0|2,3:0|0:0,0:0:0:0:
37,173,22880,6,0,B|19:217|19:217|20:261,1,86.3999973632813,0|0,1:0|0:0,0:0:0:0:
97,230,23244,1,2,0:0:0:0:
75,307,23425,2,0,L|57:347,1,43.1999986816407,0|0,1:0|0:0,0:0:0:0:
158,381,23607,2,0,L|141:342,1,43.1999986816407,0|0,3:0|0:0,0:0:0:0:
42,374,23789,1,2,3:2:0:0:
115,203,23971,2,0,P|165:218|213:266,1,86.3999973632813,2|0,0:0|3:0,0:0:0:0:
255,317,24335,2,0,L|212:314,1,43.1999986816407,2|0,1:2|0:0,0:0:0:0:
43,233,24516,2,0,L|9:198,1,43.1999986816407,0|0,3:0|0:0,0:0:0:0:
203,114,24698,6,0,B|171:154|200:167|161:198,2,96,2|2|2,3:2|0:0|0:3,0:0:0:0:
161,198,25789,6,0,B|200:167|171:154|203:114,1,96,2|2,1:2|0:3,0:0:0:0:
307,160,26335,2,0,P|286:166|264:166,1,43.1999986816407,0|0,3:0|0:0,0:0:0:0:
106,142,26516,2,0,P|90:127|79:108,1,43.1999986816407,0|0,3:0|0:0,0:0:0:0:
236,238,26698,2,0,P|261:262|277:318,1,86.3999973632813,2|0,3:2|0:0,0:0:0:0:
393,164,27062,2,0,P|384:197|344:239,1,86.3999973632813,2|0,0:0|1:0,0:0:0:0:
507,161,27425,2,0,P|482:137|466:81,1,86.3999973632813,2|0,0:0|0:0,0:0:0:0:
458,234,27789,1,2,3:2:0:0:
371,67,27971,1,0,3:0:0:0:
299,133,28153,1,2,3:2:0:0:
458,234,28335,2,0,P|445:284|421:314,1,72,0|0,1:0|0:0,0:0:0:0:
364,312,28698,2,0,P|413:298|451:304,1,72,2|0,1:2|0:0,0:0:0:0:
479,353,29062,1,2,0:0:0:0:
364,213,29244,5,0,3:0:0:0:
224,328,29425,1,0,3:0:0:0:
307,321,29607,2,0,P|325:308|339:292,1,43.1999986816407,2|0,3:2|0:0,0:0:0:0:
260,236,29789,1,2,0:0:0:0:
433,299,29971,1,0,3:0:0:0:
232,221,30153,2,0,P|211:226|189:226,1,43.1999986816407,2|0,1:2|0:0,0:0:0:0:
116,185,30335,2,0,P|105:164|96:133,1,43.1999986816407,0|0,3:0|0:0,0:0:0:0:
216,89,30516,1,2,3:2:0:0:
216,89,30880,6,0,B|252:57|252:57|298:71,1,96,2|2,0:0|0:3,0:0:0:0:
298,71,31607,2,0,B|262:103|262:103|215:88,1,96,2|2,1:2|0:3,0:0:0:0:
174,156,32153,6,0,L|227:175,1,43.1999986816407,0|0,3:0|0:0,0:0:0:0:
331,143,32335,2,0,L|363:114,1,43.1999986816407,0|0,3:0|0:0,0:0:0:0:
284,210,32516,1,2,3:2:0:0:
242,9,32698,1,2,0:2:0:0:
292,242,32880,2,0,L|309:326,1,86.3999973632813,2|0,0:0|1:0,0:0:0:0:
190,273,33244,1,2,0:0:0:0:
284,210,33425,1,2,0:0:0:0:
397,226,33607,2,0,P|376:208|347:192,1,43.1999986816407,0|0,3:0|0:0,0:0:0:0:
284,210,33789,2,0,P|257:205|224:206,1,43.1999986816407,0|0,3:0|0:0,0:0:0:0:
190,273,33971,2,0,P|164:282|136:299,1,43.1999986816407,2|0,3:2|0:0,0:0:0:0:
309,326,34153,6,0,B|367:326|367:361|416:361,2,115.199996484375,2|2|2,0:2|1:2|0:0,0:0:0:0:
222,355,35062,1,0,3:0:0:0:
329,204,35244,5,2,3:2:0:0:
74,213,35425,1,2,3:2:0:0:
325,182,35607,5,0,1:0:0:0:
70,191,35971,5,0,1:0:0:0:
74,213,36153,1,0,3:0:0:0:
78,235,36335,1,0,3:0:0:0:
70,191,36516,5,2,1:2:0:0:
321,160,36698,1,2,3:2:0:0:
66,169,36880,1,2,3:2:0:0:
317,138,37062,5,0,1:0:0:0:
62,147,37425,6,0,L|79:239,1,90.7200022148438,0|0,1:0|0:0,0:0:0:0:
78,236,38153,6,0,P|176:190|166:36,1,259.199992089844,6|0,3:2|0:0,0:0:0:0:
287,232,38516,6,0,B|240:189|220:139|220:139|217:170|195:190,1,172.799994726563,2|0,0:0|0:0,0:0:0:0:
179,52,38880,6,0,B|165:113|131:156|131:156|161:143|188:151,1,172.799994726563,2|0,1:2|0:0,0:0:0:0:
77,235,39244,6,0,B|136:216|190:223|190:223|164:204|158:176,1,172.799994726563,2|0,3:2|0:0,0:0:0:0:
287,232,39607,5,2,3:2:0:0:
264,316,39789,1,0,0:0:0:0:
348,338,39971,1,0,0:0:0:0:
370,255,40153,1,2,0:0:0:0:
225,152,40335,5,0,1:0:0:0:
142,129,40517,1,0,0:0:0:0:
164,46,40699,1,2,3:0:0:0:
248,68,40881,1,0,0:0:0:0:
154,198,41062,6,0,P|184:167|224:151,1,86.3999973632813,0|0,3:0|0:0,0:0:0:0:
305,129,41244,6,0,P|333:127|361:133,1,57.5999982421876,0|0,3:0|0:0,0:0:0:0:
448,160,41425,6,0,P|474:173|495:193,1,57.5999982421876,2|0,0:0|0:0,0:0:0:0:
495,193,41789,6,0,P|478:138|305:129,1,259.199992089844,2|0,1:2|0:0,0:0:0:0:
257,240,42153,6,0,P|295:198|216:44,1,259.199992089844,2|0,0:0|0:0,0:0:0:0:
182,126,42516,6,0,P|208:121|171:150,1,144.000005493164,2|0,3:2|0:0,0:0:0:0:
129,159,43062,6,0,P|131:130|142:103,1,57.5999982421876,2|0,0:0|0:0,0:0:0:0:
156,89,43244,6,0,P|227:76|127:154,1,384,0|2,1:0|0:0,0:0:0:0:
132,177,43971,6,0,P|233:177|371:309,1,288,2|0,3:2|0:0,0:0:0:0:
270,301,44335,1,2,0:0:0:0:
182,259,44516,1,2,3:2:0:0:
132,177,44698,5,0,1:1:0:0:
366,296,45062,5,2,3:2:0:0:
132,177,45425,2,0,P|151:222|187:262,1,96,2|2,0:0|3:0,0:0:0:0:
446,240,45971,1,2,0:0:0:0:
366,296,46153,6,0,B|354:298|354:298|343:294|343:294|332:295|332:295|323:289|323:289|314:289|314:289|305:282|305:282|295:278|295:278|289:268|289:268|279:263|279:263|276:253|276:253|267:244|267:244|266:237|266:237|259:227|259:227|258:215,1,144.000005493164,0|0,1:0|0:0,0:0:0:0:
195,342,46516,1,0,0:0:0:0:
195,342,46880,2,0,P|159:337|128:320,1,72.0000027465821,2|0,3:2|0:0,0:0:0:0:
0,380,47062,6,0,P|31:362|66:358,1,72.0000027465821,0|0,3:0|0:0,0:0:0:0:
195,342,47425,2,0,P|159:337|128:320,1,72.0000027465821,2|0,0:0|0:0,0:0:0:0:
63,284,47607,1,0,1:0:0:0:
355,197,47971,1,2,3:2:0:0:
355,197,48335,1,0,3:0:0:0:
63,284,48516,2,0,P|143:263|204:270,1,144.000005493164,0|2,1:0|3:0,0:0:0:0:
267,348,48880,1,2,0:0:0:0:
487,295,49062,2,0,P|407:274|379:274,1,72.0000027465821,0|0,1:0|0:0,0:0:0:0:
355,197,49244,1,10,3:0:0:0:
366,200,49335,1,8,3:0:0:0:
376,194,49425,1,10,3:0:0:0:
371,183,49516,1,8,3:0:0:0:
356,172,49607,1,10,3:0:0:0:
331,165,49698,1,8,3:0:0:0:
300,177,49789,6,0,P|452:180|494:16,1,345.599989453125,6|2,1:2|3:0,0:0:0:0:
380,72,50335,1,2,3:2:0:0:
448,308,50516,2,0,P|472:256|480:199,1,115.199996484375,0|0,1:0|0:0,0:0:0:0:
319,271,50880,2,0,P|346:262|372:249,1,57.5999982421876,0|0,3:0|0:0,0:0:0:0:
242,211,51244,6,0,P|234:268|210:320,2,115.199996484375,2|0|2,3:2|0:0|3:0,0:0:0:0:
293,361,51789,1,2,0:0:0:0:
159,170,51971,1,0,1:0:0:0:
159,170,52335,2,0,L|140:232,1,57.6,2|0,0:0|0:0,0:0:0:0:
116,296,52698,5,2,3:2:0:0:
185,99,52880,1,0,3:0:0:0:
185,99,53244,1,0,3:0:0:0:
116,296,53425,1,2,1:2:0:0:
226,224,53607,2,0,L|77:171,2,158.40000151062,0|2|0,0:0|3:2|0:0,0:0:0:0:
211,27,54153,6,0,P|188:21|148:27,1,57.6,2|0,3:2|0:0,0:0:0:0:
185,99,54516,1,2,0:0:0:0:
75,32,54698,1,2,0:0:0:0:
214,112,54880,2,0,P|275:134|328:137,1,115.199996484375,0|2,1:0|0:0,0:0:0:0:
22,169,55244,1,2,0:0:0:0:
22,169,55607,6,0,P|120:173|189:279,1,230.39999296875,2|2,3:2|3:0,0:0:0:0:
54,335,56153,2,0,P|78:319|106:313,1,57.5999982421876,0|0,3:0|0:0,0:0:0:0:
0,260,56335,1,0,1:0:0:0:
325,273,56698,6,0,P|301:256|273:250,1,57.5999982421876,2|0,3:2|0:0,0:0:0:0:
379,197,57062,1,6,3:2:0:0:
256,192,57085,12,0,58244,0:0:0:0:
209,60,58335,5,0,1:0:0:0:
122,55,58516,2,0,L|39:49,2,76.8,2|2|0,3:2|3:2|1:0,0:0:0:0:
286,66,59062,2,0,L|209:60,1,76.8,2|2,3:2|3:0,0:0:0:0:
122,55,59425,1,0,3:0:0:0:
373,71,59607,6,0,L|450:77,1,77.7600018984375,2|0,1:2|0:0,0:0:0:0:
459,158,60335,6,0,L|467:272,1,115.199996484375,0|2,1:0|3:0,0:0:0:0:
424,341,60880,1,0,3:0:0:0:
387,269,61062,1,0,1:0:0:0:
344,337,61244,1,2,3:2:0:0:
260,257,61425,6,0,L|290:289,1,28.7999991210938,2|0,3:2|0:0,0:0:0:0:
233,370,61607,2,0,L|245:327,1,28.7999991210938,2|0,3:2|0:0,0:0:0:0:
344,337,61789,5,2,1:2:0:0:
191,213,61971,1,2,0:0:0:0:
191,213,62335,2,0,P|178:249|185:287,1,76.8,2|0,0:0|1:0,0:0:0:0:
260,257,62698,1,2,3:2:0:0:
13,243,62880,6,0,L|62:218,1,28.7999991210938,2|0,3:2|0:0,0:0:0:0:
85,135,63062,2,0,L|82:189,1,28.7999991210938,2|0,3:2|0:0,0:0:0:0:
63,308,63243,5,2,1:2:0:0:
240,144,63425,1,2,0:0:0:0:
240,144,63789,2,0,P|204:130|166:137,1,76.8,0|0,0:0|1:0,0:0:0:0:
151,222,64153,1,2,3:2:0:0:
140,314,64335,6,0,L|57:308,2,76.8,0|0|0,3:2|3:2|1:0,0:0:0:0:
284,323,64880,2,0,L|223:318,1,38.4,2|0,3:2|0:0,0:0:0:0:
160,316,65062,1,0,1:0:0:0:
150,315,65153,1,0,1:0:0:0:
140,314,65243,1,0,1:0:0:0:
391,330,65426,6,0,L|467:335,1,77.7600018984375,2|0,1:2|0:0,0:0:0:0:
512,260,66153,6,0,L|504:145,1,115.199996484375,0|2,1:0|3:0,0:0:0:0:
481,67,66698,1,0,3:0:0:0:
400,62,66880,1,0,1:0:0:0:
425,138,67062,1,2,3:2:0:0:
331,184,67244,6,0,L|353:165,1,28.7999991210938,2|0,3:2|0:0,0:0:0:0:
417,242,67425,2,0,L|389:232,1,28.7999991210938,2|0,3:2|0:0,0:0:0:0:
315,259,67607,1,0,1:0:0:0:
251,309,67789,2,0,L|366:321,1,115.199996484375,2|0,0:2|0:0,0:0:0:0:
240,228,68335,1,0,1:0:0:0:
160,241,68516,1,2,3:2:0:0:
166,321,68698,6,0,L|164:349,1,28.7999991210938,2|0,3:2|0:0,0:0:0:0:
58,336,68880,2,0,L|84:324,1,28.7999991210938,2|0,3:2|0:0,0:0:0:0:
79,241,69062,1,0,1:0:0:0:
1,214,69244,2,0,P|-1:242|3:270,2,57.5999982421876,2|2|0,0:0|3:0|3:0,0:0:0:0:
61,160,69789,1,0,1:0:0:0:
79,241,69971,1,2,0:0:0:0:
142,142,70153,5,2,3:2:0:0:
160,61,70335,1,2,3:2:0:0:
170,308,70516,2,0,L|157:199,1,86.3999973632813,2|2,1:2|0:0,0:0:0:0:
250,284,70880,1,2,0:0:0:0:
232,365,71062,1,2,3:2:0:0:
223,160,71244,6,0,P|268:173|321:179,1,96,2|2,1:2|0:0,0:0:0:0:
317,179,71971,6,0,L|330:70,2,86.3999973632813,2|0|2,1:2|0:0|3:3,0:0:0:0:
244,80,72516,1,0,0:0:0:0:
400,192,72698,1,0,1:0:0:0:
312,264,72880,2,0,P|291:261|271:249,1,43.1999986816407,2|0,3:2|0:0,0:0:0:0:
217,194,73062,6,0,P|209:174|209:152,1,43.1999986816407,2|0,3:2|0:0,0:0:0:0:
230,76,73244,2,0,P|243:59|261:48,1,43.1999986816407,2|0,3:2|0:0,0:0:0:0:
394,49,73425,1,0,1:0:0:0:
400,192,73607,2,0,P|357:177|321:143,1,86.3999973632813,2|0,0:0|0:0,0:0:0:0:
273,334,73971,2,0,P|264:289|275:241,1,86.3999973632813,2|0,0:0|1:0,0:0:0:0:
369,291,74335,1,2,3:2:0:0:
230,161,74516,5,2,3:2:0:0:
390,305,74698,1,2,3:2:0:0:
175,242,74880,2,0,B|132:261|108:295|108:295|54:302|25:271,1,172.799994726563,0|2,1:0|0:0,0:0:0:0:
27,275,75607,2,0,P|41:257|71:236,1,43.1999986816407,2|0,1:2|0:0,0:0:0:0:
174,227,75789,2,0,P|196:230|229:245,1,43.1999986816407,2|0,3:2|0:0,0:0:0:0:
295,259,75971,5,2,3:2:0:0:
277,340,76153,1,2,3:2:0:0:
267,93,76334,2,0,L|280:202,1,86.3999973632813,2|0,1:2|3:0,0:0:0:0:
366,168,76698,1,2,2:0:0:0:
384,87,76880,1,0,3:0:0:0:
395,343,77062,6,0,L|383:248,1,96,2|2,1:2|0:0,0:0:0:0:
384,248,77789,6,0,P|431:242|477:229,2,86.3999973632813,2|0|2,1:2|0:0|3:3,0:0:0:0:
409,154,78335,1,0,0:0:0:0:
305,308,78516,1,0,1:0:0:0:
199,361,78698,2,0,P|215:347|227:327,1,43.1999986816407,2|0,3:2|0:0,0:0:0:0:
246,252,78880,6,0,P|242:230|232:212,1,43.1999986816407,2|0,3:2|0:0,0:0:0:0:
176,157,79062,2,0,P|156:149|134:149,1,43.1999986816407,2|0,3:2|0:0,0:0:0:0:
30,201,79244,1,0,1:0:0:0:
59,305,79425,2,0,P|97:284|124:251,1,86.3999973632813,2|0,0:0|0:0,0:0:0:0:
240,373,79789,2,0,P|241:330|226:289,1,86.3999973632813,2|0,0:0|1:0,0:0:0:0:
147,345,80153,1,2,3:2:0:0:
310,221,80335,5,2,3:2:0:0:
126,366,80516,1,2,3:2:0:0:
73,179,80698,2,0,B|90:157|100:134|100:134|104:190|132:273,1,172.799994726563,2|2,1:2|2:0,0:0:0:0:
124,252,81425,2,0,P|132:227|157:196,1,43.1999986816407,0|0,1:2|0:0,0:0:0:0:
214,155,81607,2,0,P|239:149|278:155,1,43.1999986816407,2|0,3:2|0:0,0:0:0:0:
248,280,81789,5,2,3:2:0:0:
132,126,81971,1,2,1:2:0:0:
280,0,82153,1,2,1:2:0:0:
132,126,82335,1,0,1:0:0:0:
248,280,82516,1,2,1:2:0:0:
258,269,82607,1,0,1:0:0:0:
262,255,82698,1,0,1:0:0:0:
259,241,82789,1,0,1:0:0:0:
250,231,82880,1,2,1:2:0:0:
176,255,83062,1,0,0:0:0:0:
328,313,83244,6,0,P|344:263|333:205,2,96,2|2|2,0:0|1:2|0:0,0:0:0:0:
328,313,84335,1,0,1:0:0:0:
339,220,84516,2,0,P|359:226|382:227,1,43.1999986816407,2|0,3:2|0:0,0:0:0:0:
457,207,84698,6,0,P|474:192|484:174,1,43.1999986816407,2|0,3:2|0:0,0:0:0:0:
505,99,84880,2,0,P|501:77|490:58,1,43.1999986816407,2|0,3:2|0:0,0:0:0:0:
369,96,85061,1,0,1:0:0:0:
230,82,85244,2,0,P|256:116|293:140,1,86.3999973632813,2|0,0:0|0:0,0:0:0:0:
151,18,85607,2,0,P|134:57|132:100,1,86.3999973632813,2|0,2:0|1:0,0:0:0:0:
150,198,85971,1,0,3:2:0:0:
39,43,86153,5,0,3:2:0:0:
310,56,86335,2,0,P|272:76|230:82,1,86.3999973632813,0|0,3:2|1:0,0:0:0:0:
139,208,86698,1,2,0:0:0:0:
212,313,86880,2,0,P|234:252|239:187,1,129.599996044922,2|0,0:0|0:0,0:0:0:0:
218,169,87244,1,2,1:2:0:0:
142,219,87425,2,0,P|146:239|157:260,1,43.1999986816407,2|0,3:2|0:0,0:0:0:0:
212,313,87607,6,0,P|233:320|253:320,1,43.1999986816407,2|0,3:2|0:0,0:0:0:0:
330,300,87789,2,0,P|346:286|357:267,1,43.1999986816407,2|0,3:2|0:0,0:0:0:0:
363,151,87971,1,2,1:2:0:0:
179,10,88335,5,2,0:0:0:0:
50,143,88516,1,2,3:2:0:0:
86,56,88698,6,0,P|111:71|138:110,1,72,6|0,1:2|0:0,0:0:0:0:
50,143,89062,6,0,B|137:105|137:105|185:95|239:122,1,192,2|0,0:0|1:0,0:0:0:0:
231,118,89789,6,0,B|216:167|176:196|176:196|89:233,1,192,2|0,0:0|1:0,0:0:0:0:
0,218,90335,1,2,3:2:0:0:
92,324,90516,1,2,3:2:0:0:
50,143,90698,1,2,3:2:0:0:
12,364,90880,6,0,L|4:268,1,96,2|0,1:2|0:0,0:0:0:0:
185,343,91244,2,0,L|177:247,1,96,2|0,0:0|0:0,0:0:0:0:
350,226,91607,2,0,L|358:322,1,96,2|2,1:2|3:2,0:0:0:0:
338,126,91971,5,2,3:2:0:0:
165,146,92153,1,2,3:2:0:0:
269,286,92335,2,0,L|272:333,1,48,2|0,1:2|0:0,0:0:0:0:
165,147,92698,1,2,0:0:0:0:
0,167,92880,1,0,3:0:0:0:
96,307,93062,2,0,L|99:354,1,48,0|0,1:0|3:0,0:0:0:0:
203,298,93425,5,6,3:2:0:0:
194,43,93606,1,2,3:2:0:0:
225,294,93788,5,0,1:0:0:0:
216,39,94152,5,0,1:0:0:0:
194,43,94334,1,0,3:0:0:0:
172,47,94516,1,2,3:2:0:0:
216,39,94697,5,0,1:0:0:0:
247,290,94879,1,2,3:2:0:0:
253,160,95061,1,2,3:2:0:0:
260,31,95243,5,0,1:0:0:0:
260,31,95607,6,0,L|168:48,1,90.7200022148438,0|0,1:0|0:0,0:0:0:0:
171,48,96335,6,0,P|279:108|273:231,1,259.199992089844,6|0,3:2|0:0,0:0:0:0:
191,278,96698,6,0,B|213:258|216:227|216:227|236:277|283:320,1,172.799994726563,2|0,0:0|0:0,0:0:0:0:
106,182,97062,6,0,B|134:191|162:178|162:178|129:220|115:282,1,172.799994726563,2|0,1:2|0:0,0:0:0:0:
146,60,97425,6,0,B|152:89|177:107|177:107|124:99|63:118,1,172.799994726563,2|0,3:2|0:0,0:0:0:0:
163,49,97789,5,2,3:2:0:0:
291,26,97971,1,0,0:0:0:0:
398,99,98153,1,0,0:0:0:0:
421,227,98335,1,2,0:0:0:0:
473,175,98516,5,0,1:0:0:0:
346,152,98698,1,0,0:0:0:0:
239,225,98880,1,2,3:0:0:0:
216,352,99062,1,0,0:0:0:0:
163,299,99244,6,0,P|189:264|206:224,1,86.3999973632813,0|0,3:0|0:0,0:0:0:0:
205,139,99425,6,0,P|196:113|180:89,1,57.5999982421876,0|0,3:0|0:0,0:0:0:0:
118,36,99607,6,0,P|90:27|62:21,1,57.6,2|0,0:0|0:0,0:0:0:0:
62,21,99971,6,0,P|107:101|87:263,1,259.199992089844,2|0,1:2|0:0,0:0:0:0:
12,366,100335,2,0,P|58:287|208:224,1,259.199992089844,2|0,0:0|0:0,0:0:0:0:
277,260,100698,6,0,P|268:234|261:281,1,144.000005493164,2|0,3:2|0:0,0:0:0:0:
275,322,101244,6,0,P|299:305|316:282,1,57.5999982421876,2|0,0:0|0:0,0:0:0:0:
322,264,101425,6,0,P|297:196|280:321,1,384,0|2,1:0|0:0,0:0:0:0:
264,327,102153,6,0,B|268:294|255:255|255:255|333:249|389:298|389:298|425:282|452:235,1,288,2|0,3:2|0:0,0:0:0:0:
377,181,102516,1,2,0:0:0:0:
284,163,102698,1,2,3:2:0:0:
199,206,102880,1,0,1:1:0:0:
441,251,103244,5,2,3:2:0:0:
160,291,103607,6,0,B|162:272|162:272|168:256|168:256|174:240|174:240|182:227|182:227|194:209|194:209|205:200,1,96,2|2,0:0|3:0,0:0:0:0:
453,360,104153,1,2,0:0:0:0:
441,251,104335,6,0,B|428:250|428:250|418:255|418:255|407:256|407:256|399:263|399:263|390:264|390:264|382:272|382:272|372:277|372:277|367:288|367:288|358:294|358:294|356:304|356:304|349:314|349:314|348:321|348:321|343:332|343:332|343:334,1,144.000005493164,0|0,1:0|0:0,0:0:0:0:
237,367,104698,1,0,0:0:0:0:
237,367,105062,2,0,P|241:324|264:287,1,72.0000027465821,2|0,3:2|0:0,0:0:0:0:
290,134,105244,6,0,P|305:166|306:202,1,72.0000027465821,0|0,3:0|0:0,0:0:0:0:
253,298,105607,6,0,P|268:330|269:366,1,72.0000027465821,2|0,0:0|0:0,0:0:0:0:
197,204,105789,1,0,1:0:0:0:
466,60,106153,1,2,3:2:0:0:
466,60,106517,1,0,3:0:0:0:
197,204,106698,2,0,P|240:133|251:73,1,144.000005493164,0|2,1:0|3:0,0:0:0:0:
356,32,107062,1,2,0:0:0:0:
76,88,107244,2,0,P|111:90|144:106,1,72.0000027465821,0|0,1:0|0:0,0:0:0:0:
54,210,107425,1,10,3:0:0:0:
61,207,107516,1,8,3:0:0:0:
72,212,107606,1,10,3:0:0:0:
67,223,107697,1,8,3:0:0:0:
54,236,107788,1,10,3:0:0:0:
30,245,107879,1,8,3:0:0:0:
0,237,107971,6,0,P|151:220|207:380,1,345.599989453125,6|2,1:2|3:0,0:0:0:0:
87,333,108516,1,2,3:2:0:0:
143,105,108698,2,0,P|180:149|197:204,1,115.199996484375,0|0,1:0|0:0,0:0:0:0:
294,66,109062,2,0,P|276:89|255:108,1,57.5999982421876,0|0,3:0|0:0,0:0:0:0:
352,161,109425,2,0,P|369:106|406:63,2,115.199996484375,2|0|2,3:2|0:0|3:0,0:0:0:0:
348,0,109971,1,2,0:0:0:0:
410,223,110153,1,0,1:0:0:0:
410,223,110516,6,0,L|450:273,1,57.6,2|0,0:0|0:0,0:0:0:0:
498,326,110879,5,2,3:2:0:0:
353,160,111061,1,0,3:0:0:0:
353,160,111425,1,0,3:0:0:0:
498,326,111606,1,2,1:2:0:0:
366,294,111789,2,0,L|484:189,2,158.40000151062,2|2|0,0:0|3:2|0:0,0:0:0:0:
487,79,112335,6,0,P|465:96|444:117,1,57.6,2|0,3:2|0:0,0:0:0:0:
484,188,112698,1,2,0:0:0:0:
447,8,112880,1,2,0:0:0:0:
506,213,113062,2,0,P|514:276|502:349,1,115.199996484375,0|2,1:0|0:0,0:0:0:0:
343,76,113425,1,2,0:0:0:0:
343,76,113789,6,0,P|245:82|147:1,1,230.39999296875,2|2,3:2|3:0,0:0:0:0:
343,76,114335,2,0,P|377:78|432:103,1,57.5999982421876,0|0,3:0|0:0,0:0:0:0:
468,137,114516,1,0,1:0:0:0:
258,84,114880,6,0,P|225:75|175:40,1,57.5999982421876,2|0,3:2|0:0,0:0:0:0:
147,1,115244,1,6,3:2:0:0:
77,117,115425,5,0,1:0:0:0:
86,106,115515,1,0,1:0:0:0:
97,96,115606,1,0,1:0:0:0:
108,87,115697,1,0,1:0:0:0:
120,80,115788,1,0,1:0:0:0:
42,195,115971,5,0,1:0:0:0:
34,207,116061,1,0,1:0:0:0:
26,219,116152,1,0,1:0:0:0:
17,230,116243,1,0,1:0:0:0:
6,240,116335,2,0,L|11:300,1,57.5999982421876,0|0,1:0|0:0,0:0:0:0:
127,186,116516,2,0,L|132:244,1,57.5999982421876,8|8,3:3|3:3,0:0:0:0:
112,361,116698,5,2,3:2:0:0:
233,307,116880,1,2,3:2:0:0:
112,361,117062,1,2,3:2:0:0:
131,243,117244,1,2,1:2:0:0:
131,243,117607,5,0,3:0:0:0:
133,163,117789,1,0,1:0:0:0:
65,122,117971,1,0,3:0:0:0:
202,125,118153,5,2,3:2:0:0:
323,71,118335,1,2,3:2:0:0:
202,125,118517,1,2,3:2:0:0:
221,7,118699,1,2,1:2:0:0:
221,7,119062,5,0,3:0:0:0:
141,5,119244,1,0,1:0:0:0:
100,73,119426,1,2,3:2:0:0:
284,140,119607,5,2,3:2:0:0:
325,208,119789,1,2,3:2:0:0:
393,276,120153,5,2,3:2:0:0:
352,208,120335,1,2,1:2:0:0:
461,235,120698,5,2,3:2:0:0:
325,208,120880,1,2,3:2:0:0:
119,276,121062,5,2,3:2:0:0:
160,208,121244,1,2,3:2:0:0:
228,140,121607,5,2,3:2:0:0:
187,208,121789,1,2,1:2:0:0:
51,235,122153,5,2,3:2:0:0:
187,208,122335,1,0,1:0:0:0:
173,208,122425,1,0,1:0:0:0:
160,208,122516,5,2,3:2:0:0:
39,154,122698,1,2,3:2:0:0:
160,208,122880,1,2,3:2:0:0:
141,90,123062,1,2,1:2:0:0:
141,90,123425,5,0,3:0:0:0:
61,76,123607,1,0,1:0:0:0:
39,154,123789,1,0,3:0:0:0:
259,340,123971,5,2,3:2:0:0:
380,286,124153,1,2,3:2:0:0:
259,340,124335,1,2,3:2:0:0:
278,222,124517,1,0,1:2:0:0:
278,222,124880,5,0,3:0:0:0:
358,208,125062,1,0,1:0:0:0:
343,128,125244,1,2,3:2:0:0:
196,0,125425,5,2,3:2:0:0:
116,14,125607,1,2,3:2:0:0:
326,47,125789,5,2,2:0:0:0:
406,61,125971,1,2,3:2:0:0:
196,94,126153,5,2,1:2:0:0:
116,108,126335,1,2,3:2:0:0:
326,141,126516,5,2,3:2:0:0:
406,155,126698,1,2,3:2:0:0:
196,282,126880,5,2,3:2:0:0:
196,188,127062,1,0,1:0:0:0:
196,188,127425,5,8,3:3:0:0:
227,199,127516,1,8,3:3:0:0:
256,218,127607,1,2,1:2:0:0:
278,243,127698,1,0,0:0:0:0:
295,273,127789,1,8,3:3:0:0:
310,302,127880,1,8,3:3:0:0:
329,330,127971,1,2,1:2:0:0:
354,352,128062,1,0,1:0:0:0:
385,362,128153,1,2,1:2:0:0:
406,342,128244,1,0,1:0:0:0:
380,320,128335,6,0,B|326:331|326:331|290:360|290:360|234:375,2,153.6,6|2|0,3:2|0:0|3:0,0:0:0:0:
404,226,128880,1,0,1:0:0:0:
125,183,129062,2,0,B|179:194|179:194|215:223|215:223|271:238,2,153.6,2|2|0,3:2|0:0|1:0,0:0:0:0:
145,269,129607,2,0,L|69:253,1,76.8,2|0,0:0|0:0,0:0:0:0:
150,98,129789,1,0,1:0:0:0:
239,99,129971,6,0,B|290:86|290:86|326:57|326:57|380:46,1,153.6,2|0,0:0|3:0,0:0:0:0:
15,318,130335,1,2,1:2:0:0:
69,253,130516,2,0,B|123:264|123:264|159:293|159:293|209:306,1,153.6,2|0,3:2|0:0,0:0:0:0:
380,320,130880,2,0,B|326:331|326:331|290:360|290:360,1,76.8,2|0,3:2|0:0,0:0:0:0:
264,214,131062,5,0,1:0:0:0:
264,211,131153,1,0,1:0:0:0:
264,208,131244,1,2,3:2:0:0:
335,184,131425,1,2,0:0:0:0:
309,344,131607,5,2,3:2:0:0:
256,192,131789,1,0,1:0:0:0:
203,40,131971,1,2,2:2:0:0:
104,245,132335,5,2,3:2:0:0:
256,192,132516,1,0,3:0:0:0:
408,139,132699,1,2,1:2:0:0:
104,245,132880,1,2,3:2:0:0:
104,245,133244,5,0,3:0:0:0:
408,345,133425,1,2,1:2:0:0:
408,342,133516,1,0,1:0:0:0:
408,339,133607,1,2,3:2:0:0:
408,345,133971,1,0,3:0:0:0:
132,320,134153,6,0,B|186:331|186:331|222:360|222:360|278:375,2,153.6,2|2|0,3:2|0:0|3:0,0:0:0:0:
108,226,134698,1,0,1:0:0:0:
387,183,134880,2,0,B|333:194|333:194|297:223|297:223|241:238,2,153.6,2|2|0,3:2|0:0|1:0,0:0:0:0:
367,269,135425,2,0,L|442:253,1,76.8,2|0,0:0|0:0,0:0:0:0:
362,98,135607,1,0,1:0:0:0:
272,99,135789,6,0,B|222:86|222:86|186:57|186:57|132:46,1,153.6,2|0,0:0|3:0,0:0:0:0:
497,318,136153,1,2,1:2:0:0:
443,253,136334,2,0,B|389:264|389:264|353:293|353:293|302:306,1,153.6,2|0,3:2|0:0,0:0:0:0:
131,46,136698,2,0,B|185:57|185:57|221:86|221:86|271:99,1,153.6,2|0,3:2|1:0,0:0:0:0:
271,99,136971,5,0,1:0:0:0:
271,99,137062,1,0,3:2:0:0:
135,161,137244,5,2,3:2:0:0:
103,232,137425,1,2,3:2:0:0:
149,296,137607,1,0,3:0:0:0:
181,225,137789,5,2,1:2:0:0:
135,161,137971,1,0,3:0:0:0:
56,168,138153,1,2,0:0:0:0:
103,232,138335,5,0,3:0:0:0:
181,225,138516,1,2,3:2:0:0:
214,154,138698,1,0,3:0:0:0:
149,296,138880,5,2,0:0:0:0:
260,218,139062,1,0,3:0:0:0:
227,290,139244,5,0,1:0:0:0:
214,154,139426,1,0,3:0:0:0:
260,218,139607,5,0,0:0:0:0:
135,161,139789,1,0,3:0:0:0:
260,218,139971,5,2,3:2:0:0:
385,161,140153,5,0,3:0:0:0:
417,232,140334,1,2,3:2:0:0:
371,296,140516,1,0,3:0:0:0:
339,225,140698,5,2,1:2:0:0:
385,161,140880,1,0,3:0:0:0:
464,168,141062,1,2,3:2:0:0:
417,232,141244,5,0,3:0:0:0:
339,225,141425,1,2,3:2:0:0:
306,154,141607,1,0,1:0:0:0:
371,296,141789,5,2,3:2:0:0:
260,218,141971,1,0,3:0:0:0:
293,290,142153,5,0,1:0:0:0:
306,154,142335,1,0,3:0:0:0:
260,218,142516,5,0,3:0:0:0:
385,161,142698,1,0,3:0:0:0:
135,161,142880,5,2,3:2:0:0:
261,378,143062,1,2,3:2:0:0:
165,161,143244,1,0,1:0:0:0:
291,378,143607,5,0,1:0:0:0:
276,378,143789,1,0,3:0:0:0:
261,378,143971,1,0,3:0:0:0:
195,161,144153,5,2,1:2:0:0:
321,378,144335,1,2,3:2:0:0:
225,161,144516,1,2,3:2:0:0:
351,378,144698,1,0,1:0:0:0:
255,161,145062,5,0,1:0:0:0:
255,161,145789,5,2,3:2:0:0:
129,378,145971,1,2,3:2:0:0:
225,161,146153,1,0,1:0:0:0:
99,378,146516,5,0,1:0:0:0:
114,378,146698,1,0,3:0:0:0:
129,378,146880,1,0,3:0:0:0:
195,161,147062,5,2,1:2:0:0:
69,378,147244,2,0,L|116:270,1,76.8,2|0,3:2|0:0,0:0:0:0:
133,231,147425,2,0,L|165:161,1,76.8,0|0,1:0|1:0,0:0:0:0:
135,161,147607,2,0,L|103:231,1,76.8,8|8,3:3|3:3,0:0:0:0:
70,307,147789,2,0,L|39:378,1,76.8,8|8,3:3|3:3,0:0:0:0:
197,359,147971,6,0,P|231:353|274:351,1,77.2799974057618,14|0,3:3|0:0,0:0:0:0:
274,351,148698,6,0,P|169:287|166:162,1,259.199992089844,6|0,3:2|0:0,0:0:0:0:
405,261,149062,6,0,P|355:329|273:351,1,172.799994726563,2|0,0:0|0:0,0:0:0:0:
353,109,149425,6,0,P|405:176|405:261,1,172.799994726563,2|0,1:2|0:0,0:0:0:0:
193,122,149789,6,0,P|270:87|353:109,1,172.799994726563,2|0,3:2|0:0,0:0:0:0:
283,220,150153,1,2,3:2:0:0:
352,108,150335,1,0,0:0:0:0:
464,177,150516,1,0,0:0:0:0:
395,289,150698,1,2,0:0:0:0:
189,309,150880,5,0,1:0:0:0:
98,213,151061,1,0,0:0:0:0:
193,122,151243,1,2,3:0:0:0:
283,218,151425,1,0,0:0:0:0:
262,12,151607,6,0,P|216:16|164:38,1,86.3999973632813,0|0,3:0|0:0,0:0:0:0:
124,88,151789,6,0,P|114:109|109:148,1,57.5999982421876,0|0,3:0|0:0,0:0:0:0:
127,220,151971,6,0,P|140:239|171:263,1,57.5999982421876,2|0,0:0|0:0,0:0:0:0:
166,260,152335,6,0,P|169:188|23:62,1,259.199992089844,2|0,1:2|0:0,0:0:0:0:
166,260,152698,2,0,P|227:298|410:235,1,259.199992089844,2|0,0:0|0:0,0:0:0:0:
467,232,153062,6,0,P|452:253|457:207,1,144.000005493164,2|0,3:2|0:0,0:0:0:0:
482,172,153608,6,0,P|501:193|512:220,1,57.5999982421876,2|0,0:0|0:0,0:0:0:0:
512,240,153789,6,0,P|470:299|486:173,1,385.919981745118,0|0,1:0|0:0,0:0:0:0:
483,91,154153,6,0,L|472:163,1,72,2|0,0:0|0:0,0:0:0:0:
400,54,154516,5,2,3:2:0:0:
307,4,154698,1,0,0:0:0:0:
230,74,154880,1,2,0:0:0:0:
274,171,155062,1,2,3:2:0:0:
381,159,155244,5,0,1:1:0:0:
400,54,155607,5,2,3:2:0:0:
337,257,155971,6,0,B|337:262|337:262|333:284|333:284|329:298|329:298|322:314|322:314|315:329|315:329|303:344,1,96,2|2,0:0|3:0,0:0:0:0:
46,185,156517,1,2,0:0:0:0:
142,244,156699,6,0,B|143:242|143:242|147:231|147:231|151:225|151:225|154:213|154:213|159:205|159:205|157:194|157:194|161:183|161:183|158:172|158:172|158:161|158:161|152:154|152:154|151:143|151:143|144:135|144:135|141:124|141:124|131:116,1,144.000005493164,0|0,1:0|0:0,0:0:0:0:
274,171,157062,1,0,0:0:0:0:
274,171,157425,2,0,P|256:203|252:238,1,72.0000027465821,2|0,3:2|0:0,0:0:0:0:
144,332,157607,6,0,P|176:317|200:291,1,72.0000027465821,0|0,3:0|0:0,0:0:0:0:
274,171,157971,2,0,P|256:203|252:238,1,72.0000027465821,2|0,0:0|0:0,0:0:0:0:
273,310,158152,1,0,1:0:0:0:
29,358,158516,1,2,3:2:0:0:
29,358,158880,5,0,3:0:0:0:
273,310,159062,2,0,P|341:330|398:373,1,144.000005493164,0|0,1:0|0:0,0:0:0:0:
130,246,159425,1,2,0:0:0:0:
159,80,159607,2,0,P|208:131|224:160,1,72.0000027465821,0|0,1:0|0:0,0:0:0:0:
205,335,159789,1,10,3:0:0:0:
191,339,159880,1,8,3:0:0:0:
179,331,159970,1,10,3:0:0:0:
185,318,160061,1,8,3:0:0:0:
204,304,160152,1,10,3:0:0:0:
234,295,160243,1,8,3:0:0:0:
273,310,160335,6,0,P|121:313|79:149,1,345.599989453125,6|2,1:2|3:0,0:0:0:0:
300,201,160880,1,2,3:2:0:0:
383,381,161062,6,0,P|359:329|351:272,1,115.199996484375,0|0,1:0|0:0,0:0:0:0:
490,294,161426,2,0,P|463:285|437:272,1,57.5999982421876,0|0,3:0|0:0,0:0:0:0:
162,336,161789,6,0,P|219:330|272:309,2,115.199996484375,2|0|2,3:2|0:0|3:0,0:0:0:0:
351,272,162335,1,2,0:0:0:0:
74,341,162516,1,0,1:0:0:0:
74,341,162880,2,0,P|67:311|36:289,1,57.6,2|0,0:0|0:0,0:0:0:0:
47,294,163244,6,0,B|6:309|0:357|39:386|208:326|72:192|256:134|439:192|303:326|472:386|512:357|506:309|463:293,1,604.799981542969,2|0,3:2|0:0,0:0:0:0:
461,260,163971,1,2,1:2:0:0:
256,340,164153,1,0,0:0:0:0:
51,260,164335,1,2,3:2:0:0:
256,144,164516,1,0,0:0:0:0:
256,340,164698,6,0,P|272:323|287:285,1,57.6,2|0,3:2|0:0,0:0:0:0:
206,281,165061,1,2,0:0:0:0:
319,219,165243,1,2,0:0:0:0:
180,300,165425,2,0,P|130:341|101:386,1,115.199996484375,0|2,1:0|0:0,0:0:0:0:
409,383,165789,1,2,0:0:0:0:
409,383,166153,6,0,P|326:330|319:204,1,230.39999296875,2|2,3:2|3:0,0:0:0:0:
464,223,166699,2,0,P|435:224|407:216,1,57.5999982421876,0|0,3:0|0:0,0:0:0:0:
473,315,166881,1,0,1:0:0:0:
326,115,167244,2,0,P|354:116|382:108,1,57.5999982421876,2|0,3:2|0:0,0:0:0:0:
317,207,167607,1,6,3:2:0:0:
248,153,167789,5,0,1:0:0:0:
239,142,167879,1,0,1:0:0:0:
228,132,167970,1,0,1:0:0:0:
217,123,168061,1,0,1:0:0:0:
205,116,168152,1,0,1:0:0:0:
128,154,168335,5,0,1:0:0:0:
152,168,168426,1,0,1:0:0:0:
174,187,168517,1,0,1:0:0:0:
196,207,168608,1,0,1:0:0:0:
213,230,168698,2,0,L|222:293,1,57.5999982421876,8|8,3:3|3:3,0:0:0:0:
135,382,168880,2,0,L|143:324,1,57.5999982421876,8|8,3:3|3:3,0:0:0:0:
82,251,169062,5,2,3:2:0:0:
39,172,169244,1,0,3:2:0:0:
128,154,169425,5,2,1:2:0:0:
171,75,169607,1,0,3:2:0:0:
260,251,169789,5,2,3:2:0:0:
217,172,169971,1,0,3:2:0:0:
306,154,170152,5,2,1:2:0:0:
349,75,170334,5,2,3:2:0:0:
428,118,170516,1,0,3:2:0:0:
385,197,170698,1,0,3:2:0:0:
464,240,170880,1,0,1:0:0:0:
358,88,171062,5,2,3:2:0:0:
437,131,171244,1,2,3:2:0:0:
394,210,171426,1,0,3:2:0:0:
473,253,171608,1,0,1:0:0:0:
340,62,171789,5,0,3:2:0:0:
296,303,171971,5,0,3:2:0:0:
217,346,172153,1,0,3:2:0:0:
120,214,172334,5,2,1:2:0:0:
199,257,172516,1,0,3:2:0:0:
296,125,172698,5,2,3:2:0:0:
217,168,172880,1,0,3:2:0:0:
120,36,173061,5,2,1:2:0:0:
199,79,173243,1,0,3:2:0:0:
120,214,173425,5,2,3:2:0:0:
120,36,173607,1,0,3:2:0:0:
296,125,173789,1,0,1:0:0:0:
145,226,173971,1,2,3:2:0:0:
98,54,174153,1,0,3:2:0:0:
292,94,174335,1,0,3:2:0:0:
83,77,174516,5,2,1:2:0:0:
172,231,174698,1,0,3:2:0:0:
280,65,174880,6,0,P|320:77|391:118,1,115.199996484375,2|0,3:2|3:2,0:0:0:0:
187,119,175244,1,2,1:2:0:0:
291,179,175425,6,0,P|280:138|280:56,1,115.199996484375,2|0,3:2|3:2,0:0:0:0:
383,233,175789,1,2,3:2:0:0:
383,112,175971,6,0,P|352:141|282:181,1,115.199996484375,2|0,1:2|3:2,0:0:0:0:
382,4,176335,6,0,P|478:69|462:180,1,230.39999296875,2|0,3:2|1:0,0:0:0:0:
129,379,176880,2,0,P|34:315|50:204,1,230.39999296875,2|0,3:2|3:2,0:0:0:0:
129,272,177425,1,0,1:0:0:0:
129,272,177607,1,0,3:2:0:0:
44,210,177789,5,2,3:2:0:0:
140,167,177971,1,2,3:2:0:0:
129,272,178153,1,0,1:0:0:0:
140,167,178335,5,2,3:2:0:0:
236,124,178517,1,0,3:2:0:0:
225,229,178699,1,0,3:2:0:0:
236,124,178880,5,2,1:2:0:0:
332,81,179062,1,2,3:2:0:0:
321,186,179244,1,0,3:2:0:0:
417,143,179425,1,0,3:2:0:0:
321,186,179607,1,0,1:0:0:0:
311,291,179789,6,0,P|363:345|406:355,1,115.199996484375,2|0,3:2|3:2,0:0:0:0:
407,248,180153,1,2,1:2:0:0:
321,186,180335,1,2,3:2:0:0:
225,229,180516,1,2,1:2:0:0:
196,384,180698,5,2,3:2:0:0:
116,370,180880,1,0,3:2:0:0:
326,337,181062,5,0,1:0:0:0:
406,323,181244,1,2,3:2:0:0:
196,290,181426,5,0,3:2:0:0:
116,276,181608,1,0,3:2:0:0:
326,243,181789,5,0,1:2:0:0:
406,229,181971,1,0,3:2:0:0:
406,41,182153,5,2,3:2:0:0:
326,55,182335,1,0,3:2:0:0:
116,88,182516,5,0,1:2:0:0:
196,102,182698,1,2,3:2:0:0:
406,135,182880,5,0,3:2:0:0:
326,149,183062,1,0,3:2:0:0:
116,182,183244,5,2,1:2:0:0:
196,196,183426,1,0,3:2:0:0:
192,223,183607,6,0,B|216:172|254:191|292:210|317:158,1,153.6,2|0,3:2|1:2,0:0:0:0:
263,85,184153,6,0,B|207:149|256:191|304:232|247:297,1,230.39999296875,2|0,3:2|3:2,0:0:0:0:
138,216,184698,6,0,B|201:144|255:191|310:238|373:165,1,259.199992089844,2|0,1:2|0:0,0:0:0:0:
411,75,185062,6,0,B|256:75|256:192|256:308|100:308,1,422.400012890625,2|0,3:2|1:2,0:0:0:0:
128,191,185607,1,2,3:2:0:0:
217,69,185789,1,0,3:2:0:0:
360,117,185971,1,2,3:2:0:0:
358,268,186153,1,2,1:2:0:0:
215,313,186335,1,0,3:2:0:0:
256,192,186516,6,0,L|299:58,1,115.199996484375,2|0,3:2|3:2,0:0:0:0:
217,69,186880,1,0,1:2:0:0:
360,117,187062,1,0,3:2:0:0:
255,191,187244,2,0,L|213:326,1,115.199996484375,0|0,3:2|3:2,0:0:0:0:
286,95,187607,1,2,1:2:0:0:
288,88,187697,1,0,1:0:0:0:
291,81,187788,1,0,3:2:0:0:
256,192,187971,5,6,3:2:0:0:
256,192,188062,12,2,189062,0:0:0:0:
