osu file format v14

[General]
AudioFilename: audio.mp3
AudioLeadIn: 0
PreviewTime: 42857
Countdown: 1
SampleSet: None
StackLeniency: 0.7
Mode: 0
LetterboxInBreaks: 0
WidescreenStoryboard: 0

[Editor]
Bookmarks: 17918,19575,41660,42949,60618,62274,84360,87121,104789,107918,113624,116753,122458,125587,131292,134421,140311,157795,160740,178593,202151
DistanceSpacing: 0.8
BeatDivisor: 1
GridSize: 32
TimelineZoom: 2

[Metadata]
Title:Miracle
TitleUnicode:Miracle
Artist:Paramore
ArtistUnicode:Paramore
Creator:Veridian
Version:Insane
Source:
Tags:
BeatmapID:1803429
BeatmapSetID:862136

[Difficulty]
HPDrainRate:6
CircleSize:4
OverallDifficulty:7
ApproachRate:8.6
SliderMultiplier:1.85
SliderTickRate:1

[Events]
//Background and Video events
0,0,"maxresdefault.jpg",0,0
//Break Periods
2,62274,71738
2,134621,139284
2,157995,159084
//Storyboard Layer 0 (Background)
//Storyboard Layer 1 (Fail)
//Storyboard Layer 2 (Pass)
//Storyboard Layer 3 (Foreground)
//Storyboard Sound Samples

[TimingPoints]
434,368.098159509202,4,3,0,50,1,0
20311,-133.333333333333,4,3,0,50,0,0
42949,-100,4,3,0,50,0,1
60618,-100,4,3,0,50,0,0
60802,-100,4,3,0,5,0,0
72397,-133.333333333333,4,3,0,50,0,0
87121,-100,4,3,0,50,0,0
87673,-100,4,3,0,50,0,1
104789,-100,4,3,0,50,0,0
113624,-100,4,3,0,50,0,1
116753,-100,4,3,0,50,0,0
122458,-100,4,3,0,50,0,1
125587,-100,4,3,0,50,0,0
131292,-100,4,3,0,50,0,1
134421,-100,4,3,0,50,0,0
141047,-133.333333333333,4,3,0,50,0,0
160740,-100,4,3,0,50,0,1
177121,-100,4,3,0,50,0,0
178593,-90.9090909090909,4,3,0,50,0,1
202151,-100,4,3,0,50,0,0

[Colours]
Combo1 : 137,211,142
Combo2 : 232,210,87
Combo3 : 225,120,102
SliderTrackOverride : 193,204,195
SliderBorder : 83,86,83

[HitObjects]
252,332,249,6,0,P|204:368|84:316,1,185
190,188,802,2,0,L|172:286,1,92.5
256,100,1170,1,0,0:0:0:0:
96,188,1354,1,0,0:0:0:0:
340,188,1538,1,0,0:0:0:0:
216,24,1722,6,0,B|304:-8|304:76|405:19,1,185
512,128,2274,2,0,P|472:116|407:141,1,92.5
395,304,2642,1,0,0:0:0:0:
467,204,2826,1,0,0:0:0:0:
260,288,3010,1,0,0:0:0:0:
380,384,3194,2,0,L|341:167,1,185
152,132,3746,2,0,L|171:242,1,92.5
258,162,4114,5,0,0:0:0:0:
138,30,4299,1,0,0:0:0:0:
62,194,4483,1,0,0:0:0:0:
242,154,4667,5,0,0:0:0:0:
141,45,4852,1,0,0:0:0:0:
76,181,5036,1,0,0:0:0:0:
152,132,5219,5,0,0:0:0:0:
167,223,5403,2,0,L|186:333,2,92.5
152,132,5955,1,0,0:0:0:0:
360,272,6139,6,0,L|257:253,1,92.5
420,196,6507,2,0,L|522:214,1,92.5
416,80,6875,2,0,P|424:144|308:144,1,185
256,88,7427,1,0,0:0:0:0:
180,168,7611,6,0,P|212:120|151:-14,1,185
28,68,8164,2,0,L|142:88,1,92.5
172,260,8532,1,0,0:0:0:0:
180,168,8716,1,0,0:0:0:0:
256,224,8900,1,0,0:0:0:0:
36,348,9084,6,0,B|124:300|124:384|216:348,1,185
432,256,9636,2,0,P|386:244|318:279,1,92.5
476,176,10004,1,0,0:0:0:0:
388,339,10188,1,0,0:0:0:0:
300,176,10372,1,0,0:0:0:0:
464,68,10556,6,0,P|408:100|276:36,1,185
196,208,11108,2,0,L|217:85,1,92.5
108,144,11476,1,0,0:0:0:0:
300,176,11660,1,0,0:0:0:0:
92,252,11845,1,0,0:0:0:0:
340,88,12029,6,0,L|301:304,1,185
164,384,12581,2,0,L|185:261,1,92.5
200,176,12949,5,0,0:0:0:0:
80,44,13134,1,0,0:0:0:0:
4,208,13318,1,0,0:0:0:0:
184,168,13502,5,0,0:0:0:0:
83,59,13687,1,0,0:0:0:0:
18,195,13871,1,0,0:0:0:0:
94,146,14054,5,0,0:0:0:0:
109,237,14238,2,0,P|118:282|91:343,2,92.5
94,146,14790,1,0,0:0:0:0:
208,248,14973,2,0,L|330:226,1,92.5
376,112,15341,2,0,L|253:133,1,92.5
408,200,15710,2,0,P|396:144|500:148,1,185
504,232,16262,1,0,0:0:0:0:
432,344,16446,2,0,L|418:269,1,46.25
240,292,16630,6,0,L|260:410,1,92.5
324,212,16998,2,0,L|303:93,1,92.5
208,48,17366,1,0,0:0:0:0:
420,120,17550,1,0,0:0:0:0:
112,316,17918,5,0,0:0:0:0:
256,192,18102,12,0,19575,0:0:0:0:
296,64,20311,6,0,P|288:104|300:140,1,69.3750026464463
380,200,20679,2,0,P|337:165|188:224,1,208.125007939339
92,80,21415,2,0,L|166:93,1,69.3750026464463
201,200,21783,2,0,L|126:186,1,69.3750026464463
40,0,22151,2,0,P|56:144|28:292,1,277.500010585785
148,348,23256,5,0,0:0:0:0:
224,300,23440,2,0,L|302:313,1,69.3750026464463
304,164,23808,2,0,P|270:171|236:163,1,69.3750026464463
348,244,24176,2,0,P|371:269|380:302,1,69.3750026464463
396,172,24544,2,0,P|406:139|430:114,1,69.3750026464463
480,188,24912,1,0,0:0:0:0:
348,244,25096,2,0,B|224:300|224:156|68:248,1,277.500010585785
196,16,26200,5,0,0:0:0:0:
196,96,26384,1,0,0:0:0:0:
120,136,26568,1,0,0:0:0:0:
48,100,26753,1,0,0:0:0:0:
124,56,26937,2,0,L|218:72,1,69.3750026464463
304,168,27305,2,0,L|209:151,1,69.3750026464463
284,0,27673,2,0,P|280:48|372:72,1,138.750005292893
392,4,28225,2,0,P|382:85|396:227,1,208.125007939339
392,212,29697,5,0,0:0:0:0:
472,160,29881,1,0,0:0:0:0:
340,132,30065,1,0,0:0:0:0:
374,302,30249,2,0,L|468:285,1,69.3750026464463
300,244,30618,1,0,0:0:0:0:
228,304,30802,2,0,P|180:328|97:301,2,138.750005292893
164,172,31722,6,0,P|156:205|164:239,1,69.3750026464463
228,96,32090,2,0,P|235:62|227:28,1,69.3750026464463
96,120,32458,2,0,L|304:156,1,208.125007939339
372,88,33194,2,0,L|358:9,1,69.3750026464463
300,156,33562,2,0,L|312:224,1,69.3750026464463
440,264,33930,2,0,P|303:241|166:258,1,277.500010585785
74,194,35219,5,0,0:0:0:0:
166,258,35403,1,0,0:0:0:0:
174,150,35587,1,0,0:0:0:0:
74,194,35771,2,0,P|40:186|6:194,1,69.3750026464463
166,258,36139,2,0,P|176:290|200:315,1,69.3750026464463
174,150,36507,2,0,P|197:124|206:91,1,69.3750026464463
112,76,36875,1,0,0:0:0:0:
276,168,37059,2,0,B|376:124|376:216|480:164,1,208.125007939339
304,344,38716,5,0,0:0:0:0:
464,232,38992,1,0,0:0:0:0:
312,120,39268,2,0,L|327:210,1,69.3750026464463
400,84,39636,2,0,L|384:-6,1,69.3750026464463
232,32,40004,2,0,P|265:39|299:31,1,69.3750026464463
144,76,40372,2,0,P|110:68|76:76,1,69.3750026464463
228,124,40740,2,0,P|260:172|213:321,1,208.125007939339
172,220,41476,1,0,0:0:0:0:
288,384,41660,5,0,0:0:0:0:
372,332,41845,2,0,L|355:237,1,69.3750026464463
480,52,42213,1,0,0:0:0:0:
420,124,42397,2,0,L|436:218,1,69.3750026464463
98,176,42949,6,0,P|157:211|268:168,1,185
180,20,43501,2,0,P|168:68|194:126,1,92.5
412,4,43869,1,0,0:0:0:0:
264,64,44053,1,0,0:0:0:0:
400,164,44237,1,0,0:0:0:0:
360,84,44421,6,0,L|397:296,1,185
484,308,44973,2,0,P|496:260|470:202,1,92.5
280,268,45341,1,0,0:0:0:0:
392,360,45526,1,0,0:0:0:0:
276,168,45710,1,0,0:0:0:0:
196,324,45894,6,0,B|108:368|108:276|4:336,1,185
156,240,46446,1,0,0:0:0:0:
72,80,46630,1,0,0:0:0:0:
8,192,46814,1,0,0:0:0:0:
160,40,46998,2,0,B|172:84|172:84|155:149,1,92.5
288,20,47366,6,0,B|268:84|268:84|296:188,1,138.75
292,176,47734,2,0,L|390:157,1,92.5
492,248,48102,2,0,L|334:275,1,138.75
332,276,48470,1,0,0:0:0:0:
256,376,48654,1,0,0:0:0:0:
92,304,48838,6,0,P|132:292|200:320,1,92.5
276,184,49207,2,0,P|236:196|168:168,1,92.5
32,380,49575,2,0,P|70:319|21:211,1,185
80,40,50127,2,0,L|99:150,1,92.5
352,28,50495,6,0,L|249:9,1,92.5
292,128,50863,2,0,L|184:128,1,92.5
348,236,51231,2,0,L|245:254,2,92.5
188,368,51783,6,0,P|220:324|172:196,1,185
368,48,52335,2,0,P|357:96|383:153,1,92.5
460,88,52703,1,0,0:0:0:0:
280,168,52887,1,0,0:0:0:0:
460,248,53072,1,0,0:0:0:0:
384,160,53256,6,0,L|183:199,1,185
24,349,53808,2,0,P|72:360|129:334,1,92.5
0,100,54176,1,0,0:0:0:0:
66,272,54360,1,0,0:0:0:0:
156,116,54544,1,0,0:0:0:0:
24,197,54728,6,0,B|116:157|116:245|212:189,1,185
344,88,55280,2,0,L|225:108,1,92.5
352,192,55648,1,0,0:0:0:0:
440,132,55832,2,0,P|453:90|436:39,1,92.5
292,244,56200,6,0,P|336:220|428:260,1,138.75
424,260,56568,2,0,L|405:366,1,92.5
220,352,56937,2,0,L|188:174,1,138.75
204,200,57305,1,0,0:0:0:0:
96,336,57489,1,0,0:0:0:0:
12,228,57673,6,0,B|55:240|55:240|101:228,1,92.5
248,120,58041,2,0,B|205:108|205:108|159:120,1,92.5
320,208,58409,2,0,P|288:148|346:21,1,185
472,84,58961,2,0,P|484:116|463:182,1,92.5
388,124,59329,5,0,0:0:0:0:
256,288,59513,1,0,0:0:0:0:
124,124,59697,1,0,0:0:0:0:
256,376,59881,1,0,0:0:0:0:
324,212,60065,5,0,0:0:0:0:
168,336,60249,2,0,L|73:319,1,92.5
344,336,60618,2,0,L|439:319,1,92.5
256,268,72397,5,0,0:0:0:0:
320,324,72581,1,0,0:0:0:0:
256,192,72765,1,0,0:0:0:0:
192,324,72949,1,0,0:0:0:0:
256,172,73133,1,0,0:0:0:0:
172,224,73317,2,0,L|30:198,1,138.750005292893
176,124,73869,2,0,L|317:149,1,138.750005292893
396,184,74421,6,0,P|403:150|395:116,1,69.3750026464463
324,240,74789,2,0,P|317:274|325:308,1,69.3750026464463
384,372,75157,2,0,P|332:348|246:385,1,138.750005292893
160,268,75894,2,0,L|242:282,1,69.3750026464463
200,180,76262,2,0,L|117:165,1,69.3750026464463
64,364,76630,2,0,B|120:228|-4:228|64:96,1,277.500010585785
124,32,77550,5,0,0:0:0:0:
200,152,77734,1,0,0:0:0:0:
364,16,78010,1,0,0:0:0:0:
331,100,78286,2,0,P|365:108|399:100,1,69.3750026464463
512,0,78654,2,0,P|484:21|469:52,1,69.3750026464463
500,204,79022,2,0,P|495:169|475:140,1,69.3750026464463
405,204,79391,1,0,0:0:0:0:
388,300,79575,2,0,L|470:285,1,69.3750026464463
312,248,79943,5,0,0:0:0:0:
204,380,80219,1,0,0:0:0:0:
52,348,80495,2,0,L|134:333,1,69.3750026464463
200,288,80863,2,0,P|208:254|200:220,1,69.3750026464463
128,88,81231,2,0,P|120:122|128:156,1,69.3750026464463
212,124,81599,2,0,L|294:109,1,69.3750026464463
348,268,81967,2,0,B|292:165|404:161|352:69,1,208.125007939339
280,32,82703,1,0,0:0:0:0:
424,216,82887,5,0,0:0:0:0:
508,184,83072,2,0,P|515:217|507:251,1,69.3750026464463
492,340,83440,2,0,P|459:329|434:306,1,69.3750026464463
365,249,83808,2,0,P|390:225|423:215,1,69.3750026464463
344,340,84176,1,0,0:0:0:0:
327,337,84268,1,0,0:0:0:0:
311,335,84360,5,0,0:0:0:0:
56,288,84544,2,0,L|142:303,1,69.3750026464463
172,384,84912,1,0,0:0:0:0:
264,240,85096,2,0,L|195:227,1,69.3750026464463
124,300,85464,1,0,0:0:0:0:
80,124,85648,2,0,L|148:136,1,69.3750026464463
195,227,86016,1,0,0:0:0:0:
288,68,86200,2,0,L|219:55,1,69.3750026464463
368,220,86568,5,0,0:0:0:0:
372,247,86660,1,0,0:0:0:0:
316,152,86845,1,0,0:0:0:0:
348,132,86937,1,0,0:0:0:0:
384,132,87029,1,0,0:0:0:0:
420,152,87121,6,0,L|383:356,1,185
248,376,87673,2,0,L|265:277,1,92.5
300,68,88041,1,0,0:0:0:0:
168,164,88225,1,0,0:0:0:0:
316,224,88409,1,0,0:0:0:0:
256,148,88593,6,0,B|164:188|176:104|72:152,1,185
126,326,89145,2,0,P|138:282|117:227,1,92.5
204,376,89513,1,0,0:0:0:0:
40,282,89697,1,0,0:0:0:0:
208,200,89881,1,0,0:0:0:0:
312,368,90065,6,0,P|284:304|320:188,1,185
374,95,90618,1,0,0:0:0:0:
446,195,90802,1,0,0:0:0:0:
254,95,90986,1,0,0:0:0:0:
478,13,91170,2,0,L|462:103,1,92.5
477,278,91538,6,0,P|449:234|357:238,1,138.75
357,242,91906,2,0,L|246:222,1,92.5
133,306,92274,2,0,L|282:332,1,138.75
289,334,92642,1,0,0:0:0:0:
165,214,92826,1,0,0:0:0:0:
360,136,93010,6,0,P|308:149|259:124,1,92.5
104,68,93378,2,0,P|156:55|205:80,1,92.5
32,10,93746,2,0,P|65:58|8:186,1,185
144,264,94299,2,0,B|130:221|130:221|151:157,1,92.5
380,320,94667,6,0,L|277:339,1,92.5
320,220,95035,2,0,L|212:220,1,92.5
376,112,95403,2,0,L|273:94,2,92.5
272,8,95955,6,0,P|268:60|144:72,1,185
68,128,96507,2,0,P|55:76|80:27,1,92.5
148,176,96875,1,0,0:0:0:0:
4,244,97059,1,0,0:0:0:0:
132,336,97243,1,0,0:0:0:0:
100,248,97427,6,0,L|300:283,1,185
436,102,97980,2,0,P|447:150|421:207,1,92.5
187,78,98348,1,0,0:0:0:0:
359,144,98532,1,0,0:0:0:0:
203,234,98716,1,0,0:0:0:0:
284,102,98900,6,0,B|244:194|332:194|276:290,1,185
128,280,99452,2,0,P|115:236|126:191,1,92.5
203,234,99820,1,0,0:0:0:0:
156,368,100004,2,0,L|61:351,1,92.5
56,172,100372,6,0,L|221:142,1,138.75
212,140,100740,2,0,B|223:94|223:94|211:50,1,92.5
344,32,101108,2,0,B|324:96|324:96|342:165,1,138.75
352,184,101476,1,0,0:0:0:0:
432,96,101660,1,0,0:0:0:0:
464,296,101845,6,0,P|452:248|479:185,1,92.5
340,288,102213,2,0,P|352:336|325:399,1,92.5
80,332,102581,2,0,B|176:280|176:376|260:332,1,185
240,156,103133,2,0,L|219:270,1,92.5
328,112,103501,5,0,0:0:0:0:
144,192,103685,1,0,0:0:0:0:
328,272,103869,1,0,0:0:0:0:
56,192,104053,1,0,0:0:0:0:
180,112,104237,5,0,0:0:0:0:
100,268,104421,2,0,P|89:320|104:364,1,92.5
8,120,104789,2,0,P|19:68|4:24,1,92.5
380,200,106446,5,0,0:0:0:0:
300,248,106630,1,0,0:0:0:0:
300,164,106814,1,0,0:0:0:0:
376,284,106998,1,0,0:0:0:0:
228,208,107182,1,0,0:0:0:0:
372,120,107366,1,0,0:0:0:0:
256,316,107550,1,0,0:0:0:0:
140,120,107734,1,0,0:0:0:0:
224,48,107918,5,0,0:0:0:0:
140,208,108102,1,0,0:0:0:0:
48,160,108286,2,0,B|36:117|36:117|54:56,1,92.5
140,208,108654,1,0,0:0:0:0:
216,128,108838,2,0,B|259:139|259:139|303:185,1,92.5
140,208,109207,1,0,0:0:0:0:
156,300,109391,6,0,B|124:331|124:331|62:346,1,92.5
140,208,109759,1,0,0:0:0:0:
48,160,109943,2,0,B|36:117|36:117|54:56,2,92.5
140,208,110495,2,0,L|254:187,1,92.5
436,156,110863,5,0,0:0:0:0:
336,96,111047,1,0,0:0:0:0:
336,216,111231,2,0,P|327:261|346:326,1,92.5
416,44,111599,1,0,0:0:0:0:
252,160,111783,1,0,0:0:0:0:
420,260,111967,2,0,L|522:241,1,92.5
336,384,112335,5,0,0:0:0:0:
244,336,112519,2,0,P|193:324|136:352,1,92.5
40,204,112887,1,0,0:0:0:0:
132,160,113072,2,0,B|146:206|146:206|126:259,1,92.5
48,88,113440,2,0,B|43:62|43:62|53:26,1,46.25
316,100,113624,6,0,L|95:61,1,185
280,0,114176,2,0,L|394:20,1,92.5
408,196,114544,1,0,0:0:0:0:
464,76,114728,1,0,0:0:0:0:
296,176,114912,1,0,0:0:0:0:
495,272,115096,6,0,P|421:238|316:296,1,185
256,364,115648,1,0,0:0:0:0:
181,275,115832,2,0,P|100:237|17:272,1,185
97,343,116384,1,0,0:0:0:0:
256,52,116753,5,0,0:0:0:0:
256,184,116937,1,0,0:0:0:0:
168,112,117121,1,0,0:0:0:0:
360,188,117305,1,0,0:0:0:0:
256,280,117489,2,0,B|210:291|210:291|146:275,1,92.5
92,352,117857,1,0,0:0:0:0:
55,122,118041,1,0,0:0:0:0:
28,228,118225,6,0,L|126:210,1,92.5
236,92,118593,2,0,L|137:109,1,92.5
316,140,118961,5,0,0:0:0:0:
170,15,119329,1,0,0:0:0:0:
316,236,119697,5,0,0:0:0:0:
400,156,119881,1,0,0:0:0:0:
224,192,120065,2,0,P|216:244|235:302,1,92.5
404,284,120433,2,0,P|413:238|404:193,1,92.5
372,384,120802,2,0,L|486:363,1,92.5
316,236,121170,6,0,L|99:274,1,185
192,52,121722,1,0,0:0:0:0:
248,122,121906,1,0,0:0:0:0:
171,170,122090,1,0,0:0:0:0:
118,99,122274,1,0,0:0:0:0:
316,40,122458,6,0,P|284:96|324:212,1,185
472,124,123010,2,0,P|421:112|364:140,1,92.5
428,208,123378,1,0,0:0:0:0:
272,288,123562,2,0,P|323:300|380:272,1,92.5
240,376,123930,6,0,L|204:175,1,185
128,264,124483,2,0,L|151:397,1,92.5
36,320,124851,1,0,0:0:0:0:
112,168,125035,1,0,0:0:0:0:
4,128,125219,2,0,L|27:261,1,92.5
172,76,125587,5,0,0:0:0:0:
152,84,125679,1,0,0:0:0:0:
132,76,125771,1,0,0:0:0:0:
256,52,125955,1,0,0:0:0:0:
340,76,126139,1,0,0:0:0:0:
360,84,126231,1,0,0:0:0:0:
380,76,126323,1,0,0:0:0:0:
256,52,126507,1,0,0:0:0:0:
208,148,126691,5,0,0:0:0:0:
194,163,126783,1,0,0:0:0:0:
172,164,126875,1,0,0:0:0:0:
256,52,127059,1,0,0:0:0:0:
304,148,127243,1,0,0:0:0:0:
318,163,127335,1,0,0:0:0:0:
340,164,127427,1,0,0:0:0:0:
256,52,128532,5,0,0:0:0:0:
256,280,128716,1,0,0:0:0:0:
431,147,128900,2,0,L|320:166,1,92.5
196,344,129268,2,0,P|246:369|338:317,1,138.75
336,332,129636,1,0,0:0:0:0:
96,216,129820,1,0,0:0:0:0:
260,176,130004,2,0,P|271:223|252:272,1,92.5
156,80,130372,1,0,0:0:0:0:
416,0,130556,5,0,0:0:0:0:
292,76,130740,1,0,0:0:0:0:
384,196,130924,1,0,0:0:0:0:
508,120,131108,1,0,0:0:0:0:
252,280,131292,6,0,B|340:236|340:320|428:276,1,185
196,192,131845,2,0,L|228:377,1,185
296,176,132397,1,0,0:0:0:0:
120,112,132581,1,0,0:0:0:0:
388,88,132765,6,0,P|319:128|224:82,1,185
308,28,133317,1,0,0:0:0:0:
474,45,133501,2,0,B|487:89|487:89|466:157,1,92.5
396,184,133869,1,0,0:0:0:0:
512,360,134053,2,0,B|456:340|456:340|352:376,1,138.75
356,376,134421,5,0,0:0:0:0:
180,184,139943,5,0,0:0:0:0:
180,52,140311,1,0,0:0:0:0:
236,300,141047,5,0,0:0:0:0:
156,336,141231,1,0,0:0:0:0:
84,292,141415,1,0,0:0:0:0:
88,208,141599,1,0,0:0:0:0:
176,184,141783,2,0,L|161:266,1,69.3750026464463
112,124,142151,2,0,L|126:41,1,69.3750026464463
224,48,142519,2,0,P|212:88|296:104,1,138.750005292893
328,32,143072,2,0,P|316:100|328:240,1,208.125007939339
327,237,144544,5,0,0:0:0:0:
371,165,144728,1,0,0:0:0:0:
243,237,144912,1,0,0:0:0:0:
368,308,145096,2,0,P|412:288|510:319,2,138.750005292893
256,368,146200,5,0,0:0:0:0:
171,164,146568,2,0,L|157:243,1,69.3750026464463
120,84,146937,2,0,L|133:5,1,69.3750026464463
44,120,147305,2,0,L|272:160,1,208.125007939339
339,193,148041,6,0,P|348:157|333:111,1,69.3750026464463
244,272,148409,2,0,P|235:308|250:354,1,69.3750026464463
422,246,148777,2,0,P|286:237|125:247,1,277.500010585785
60,96,149881,5,0,0:0:0:0:
152,64,150065,2,0,B|160:96|160:96|148:156,1,69.3750026464463
92,8,150433,2,0,L|241:34,2,138.750005292893
256,148,151538,1,0,0:0:0:0:
316,84,151722,2,0,P|352:64|463:103,1,138.750005292893
392,220,152458,6,0,L|376:133,1,69.3750026464463
332,304,152826,2,0,L|347:390,1,69.3750026464463
460,284,153194,2,0,L|239:245,1,208.125007939339
200,368,153930,2,0,P|212:324|196:68,1,277.500010585785
52,228,155219,5,0,0:0:0:0:
140,260,155403,2,0,P|147:213|124:169,1,69.3750026464463
8,112,155771,2,0,P|45:141|94:143,1,69.3750026464463
204,72,156139,2,0,P|159:89|133:131,1,69.3750026464463
284,172,156507,2,0,L|205:158,1,69.3750026464463
344,248,156875,1,0,0:0:0:0:
400,172,157059,2,0,L|478:158,1,69.3750026464463
344,104,157427,5,0,0:0:0:0:
448,256,157611,1,0,0:0:0:0:
240,256,157795,1,0,0:0:0:0:
256,296,160740,6,0,L|55:331,1,185
96,216,161292,2,0,L|218:194,1,92.5
380,156,161660,1,0,0:0:0:0:
236,84,161845,1,0,0:0:0:0:
294,251,162029,1,0,0:0:0:0:
436,72,162213,6,0,P|408:120|460:260,1,185
279,343,162765,2,0,L|297:236,1,92.5
384,328,163133,1,0,0:0:0:0:
180,296,163317,1,0,0:0:0:0:
312,164,163501,1,0,0:0:0:0:
180,92,163685,6,0,B|272:120|272:44|364:88,1,185
220,12,164237,1,0,0:0:0:0:
132,172,164421,1,0,0:0:0:0:
52,12,164605,1,0,0:0:0:0:
44,216,164789,2,0,B|32:169|32:169|54:93,1,92.5
156,336,165157,6,0,L|33:314,1,92.5
320,232,165526,2,0,L|442:210,1,92.5
192,232,165894,2,0,L|69:210,1,92.5
356,336,166262,2,0,L|478:314,1,92.5
484,176,166630,6,0,P|436:196|380:132,1,138.75
392,120,166998,2,0,B|408:80|408:80|384:12,1,92.5
120,112,167366,2,0,L|316:77,1,185
192,8,167918,1,0,0:0:0:0:
228,184,168102,1,0,0:0:0:0:
476,68,168286,6,0,L|373:49,1,92.5
416,168,168654,2,0,L|308:168,1,92.5
472,276,169022,2,0,L|369:294,2,92.5
376,384,169575,6,0,P|372:328|260:336,1,185
88,276,170127,2,0,P|129:288|195:263,1,92.5
64,60,170495,1,0,0:0:0:0:
132,200,170679,1,0,0:0:0:0:
208,60,170863,1,0,0:0:0:0:
48,168,171047,6,0,L|264:206,1,185
376,224,171599,1,0,0:0:0:0:
312,140,171783,1,0,0:0:0:0:
376,316,171967,1,0,0:0:0:0:
456,268,172151,1,0,0:0:0:0:
296,272,172335,1,0,0:0:0:0:
508,348,172519,6,0,P|480:300|520:172,1,185
420,44,173072,2,0,P|432:96|404:148,1,92.5
328,88,173440,1,0,0:0:0:0:
256,236,173624,1,0,0:0:0:0:
184,88,173808,1,0,0:0:0:0:
344,208,173992,6,0,L|323:322,1,92.5
168,208,174360,2,0,L|188:322,1,92.5
416,272,174728,2,0,L|395:386,1,92.5
96,272,175096,2,0,L|116:386,1,92.5
192,88,175464,6,0,P|176:144|41:141,1,185
108,92,176016,1,0,0:0:0:0:
320,88,176200,2,0,P|336:144|471:141,1,185
404,92,176753,1,0,0:0:0:0:
256,192,176937,1,0,0:0:0:0:
332,272,177121,5,0,0:0:0:0:
256,100,177305,1,0,0:0:0:0:
180,272,177489,1,0,0:0:0:0:
256,80,177673,1,0,0:0:0:0:
344,284,177857,1,0,0:0:0:0:
256,64,178041,1,0,0:0:0:0:
168,284,178225,1,0,0:0:0:0:
256,192,178409,1,0,0:0:0:0:
96,236,178593,6,0,B|76:284|76:284|100:344,1,101.750003105164
156,140,178961,2,0,P|124:192|-16:148,2,203.500006210327
360,64,180065,2,0,L|233:41,1,101.750003105164
276,149,180433,2,0,L|496:187,2,203.500006210327
424,288,181538,2,0,P|377:273|306:304,1,101.750003105164
236,336,181906,2,0,P|155:376|36:308,2,203.500006210327
128,180,182826,6,0,L|147:290,1,101.750003105164,0|0,0:0|0:0,0:0:0:0:
72,104,183194,1,0,0:0:0:0:
92,84,183286,2,0,L|218:106,1,101.750003105164
376,224,183654,2,0,L|190:191,1,152.625004657746,0|0,0:0|0:0,0:0:0:0:
208,12,184114,2,0,P|208:72|295:70,1,152.625004657746,0|0,0:0|0:0,0:0:0:0:
300,72,184483,6,0,B|348:56|348:56|420:80,1,101.750003105164
508,40,184851,2,0,L|471:244,2,203.500006210327
400,308,185955,2,0,P|420:328|512:328,1,101.750003105164
372,216,186323,2,0,P|312:216|212:324,2,203.500006210327
272,48,187427,2,0,L|378:66,1,101.750003105164
272,144,187795,2,0,L|55:105,2,203.500006210327
336,288,188716,5,0,0:0:0:0:
408,184,188900,1,0,0:0:0:0:
254,240,189084,2,0,P|239:287|269:353,1,101.750003105164
456,268,189452,2,0,P|496:220|436:88,1,203.500006210327
312,183,190004,2,0,B|359:201|359:201|443:170,1,101.750003105164
433,19,190372,6,0,B|361:-5|361:-5|245:33,1,152.625004657746
269,35,190740,2,0,B|173:83|173:-9|69:39,1,203.500006210327
97,259,191292,2,0,B|122:113|122:113|77:162,1,203.500006210327
85,375,191845,2,0,P|61:327|172:337,1,203.500006210327
333,359,192397,2,0,P|283:376|218:345,1,101.750003105164
297,179,192765,2,0,B|259:138|259:138|285:283,1,203.500006210327
473,255,193317,6,0,L|358:234,1,101.750003105164
344,96,193685,2,0,L|459:117,1,101.750003105164
204,200,194053,1,0,0:0:0:0:
116,44,194237,1,0,0:0:0:0:
288,184,194421,2,0,L|102:151,1,152.625004657746
120,180,194789,5,0,0:0:0:0:
35,134,194973,2,0,P|20:175|45:241,1,101.750003105164
144,348,195341,2,0,B|96:332|96:332|29:355,1,101.750003105164
244,300,195710,2,0,B|292:316|292:316|359:293,1,101.750003105164
408,368,196078,1,0,0:0:0:0:
292,216,196262,6,0,L|312:101,1,101.750003105164
140,44,196630,1,0,0:0:0:0:
448,192,196998,1,0,0:0:0:0:
140,340,197366,1,0,0:0:0:0:
488,108,197734,5,0,0:0:0:0:
364,144,197918,2,0,P|349:190|373:255,1,101.750003105164
404,32,198286,2,0,L|285:52,1,101.750003105164
144,152,198654,2,0,L|262:131,1,101.750003105164
48,112,199022,1,0,0:0:0:0:
208,232,199207,5,0,0:0:0:0:
64,336,199391,1,0,0:0:0:0:
144,384,199575,1,0,0:0:0:0:
256,40,199943,1,0,0:0:0:0:
368,384,200311,1,0,0:0:0:0:
256,16,200679,5,0,0:0:0:0:
200,112,200863,1,0,0:0:0:0:
308,112,201047,1,0,0:0:0:0:
160,28,201231,1,0,0:0:0:0:
256,188,201415,5,0,0:0:0:0:
404,64,201599,1,0,0:0:0:0:
120,196,201783,1,0,0:0:0:0:
344,304,201967,1,0,0:0:0:0:
256,40,202151,5,0,0:0:0:0:
256,192,202335,12,0,209513,0:0:0:0:
