osu file format v14

[General]
AudioFilename: audio.mp3
AudioLeadIn: 0
PreviewTime: 69952
Countdown: 0
SampleSet: Soft
StackLeniency: 0.7
Mode: 0
LetterboxInBreaks: 0
WidescreenStoryboard: 1

[Editor]
Bookmarks: 5742,7145,8549,11356,22584,23987,26794,27496,33812,45040,67496,81531,92233,92759,98373,104513,107847,120829,122233,125929,142584,146092,157320,160490,162420,168549,179777,193812,206455,216268
DistanceSpacing: 2.4
BeatDivisor: 4
GridSize: 4
TimelineZoom: 1

[Metadata]
Title:Ignorance
TitleUnicode:Ignorance
Artist:Paramore
ArtistUnicode:Paramore
Creator:sammish
Version:Insane
Source:
Tags:Rock, English, Streams, Brand New Eyes
BeatmapID:1094709
BeatmapSetID:514899

[Difficulty]
HPDrainRate:6
CircleSize:4
OverallDifficulty:7.3
ApproachRate:9
SliderMultiplier:1.7
SliderTickRate:1

[Events]
//Background and Video events
0,0,"fallout-wasteland.jpg",0,0
//Break Periods
2,92971,97434
2,168760,170768
2,174375,176382
//Storyboard Layer 0 (Background)
//Storyboard Layer 1 (Fail)
//Storyboard Layer 2 (Pass)
//Storyboard Layer 3 (Foreground)
//Storyboard Sound Samples

[TimingPoints]
140,350.877192982456,4,2,1,40,1,0
140,-166.666666666667,4,2,1,40,0,0
11368,-100,4,2,1,80,0,0
22069,-200,4,2,1,80,0,0
22420,-133.333333333333,4,2,1,40,0,0
33824,-133.333333333333,4,2,1,60,0,0
45052,-100,4,2,1,70,0,0
67508,-133.333333333333,4,2,1,70,0,0
69613,-200,4,2,1,70,0,0
70315,-100,4,2,1,80,0,1
75929,-100,4,2,1,60,0,0
81543,-100,4,2,1,80,0,1
87157,-100,4,2,1,70,0,0
92771,-100,4,2,1,70,0,0
98034,-133.333333333333,4,2,1,40,0,0
109613,-133.333333333333,4,2,1,50,0,0
117683,-153.846153846154,4,2,1,50,0,0
118034,-133.333333333333,4,2,1,50,0,0
120841,-100,4,2,1,60,0,0
143297,-133.333333333333,4,2,1,60,0,0
146104,-100,4,2,1,80,0,1
151718,-100,4,2,1,60,0,0
157332,-100,4,2,1,80,0,1
162947,-100,4,2,1,80,0,0
168561,-100,4,2,1,60,0,0
179789,-133.333333333333,4,2,1,80,0,0
188210,-100,4,2,1,80,0,0
189613,-100,4,2,1,80,0,1
191017,-133.333333333333,4,2,1,80,0,0
193824,-100,4,2,1,90,0,1
205052,-100,4,2,1,100,0,1
215754,-200,4,2,1,100,0,1
216280,-100,4,2,1,5,0,0

[Colours]
Combo1 : 139,120,101
Combo2 : 125,68,51
Combo3 : 33,66,32
Combo4 : 188,173,129
SliderBorder : 90,95,120
SliderTrackOverride : 20,20,20

[HitObjects]
112,120,140,6,0,L|88:168,1,50.9999984436036,0|0,0:0|0:0,0:0:0:0:
112,120,666,2,0,L|88:168,1,50.9999984436036,0|0,0:0|0:0,0:0:0:0:
360,104,1192,1,0,0:0:0:0:
360,104,1543,6,0,L|384:152,1,50.9999984436036,0|0,0:0|0:0,0:0:0:0:
360,104,2069,2,0,L|384:152,1,50.9999984436036,0|0,0:0|0:0,0:0:0:0:
112,120,2596,1,0,0:0:0:0:
364,108,2947,5,0,0:0:0:0:
364,108,3122,1,0,0:0:0:0:
220,236,3473,1,0,0:0:0:0:
220,236,3648,1,0,0:0:0:0:
204,44,3999,1,0,0:0:0:0:
272,203,4350,5,0,0:0:0:0:
272,203,4525,1,0,0:0:0:0:
79,191,4876,1,0,0:0:0:0:
79,191,5051,1,0,0:0:0:0:
204,44,5402,1,4,0:0:0:0:
208,216,5754,6,0,P|268:280|352:276,1,152.999995330811,2|2,0:0|0:0,0:0:0:0:
432,256,6455,1,0,0:0:0:0:
208,216,6806,1,0,0:0:0:0:
328,284,7157,6,0,P|392:224|388:140,1,152.999995330811,2|2,0:0|0:0,0:0:0:0:
368,60,7858,1,0,0:0:0:0:
328,284,8209,1,0,0:0:0:0:
260,160,8561,6,0,P|196:220|200:304,1,152.999995330811,2|2,0:0|0:0,0:0:0:0:
220,384,9262,1,0,0:0:0:0:
135,138,9613,1,0,0:0:0:0:
32,249,9964,5,2,0:0:0:0:
199,198,10139,1,0,0:0:0:0:
96,309,10315,1,2,0:0:0:0:
135,138,10490,1,0,0:0:0:0:
180,284,10666,1,2,0:0:0:0:
52,164,10841,2,0,P|101:214|148:220,1,101.999996887207,2|0,0:0|0:0,0:0:0:0:
275,317,11368,6,0,P|323:321|371:309,1,85,2|0,0:0|0:0,0:0:0:0:
473,266,11718,1,8,0:0:0:0:
441,146,11894,2,0,P|393:142|345:154,1,85,0|2,0:0|0:0,0:0:0:0:
252,216,12244,1,0,0:0:0:0:
148,152,12420,2,0,P|140:110|144:68,1,85,8|0,0:0|0:0,0:0:0:0:
255,132,12771,6,0,P|259:174|251:215,2,85,2|0|8,0:0|0:0|0:0,0:0:0:0:
216,48,13297,1,0,0:0:0:0:
216,48,13473,2,0,P|270:38|328:56,1,85,2|0,0:0|0:0,0:0:0:0:
452,132,13824,2,0,P|398:142|340:124,1,85,8|0,0:0|0:0,0:0:0:0:
264,116,14175,5,2,0:0:0:0:
368,228,14350,1,0,0:0:0:0:
332,144,14525,1,8,0:0:0:0:
180,184,14701,1,0,0:0:0:0:
180,184,14876,2,0,P|128:200|76:192,1,85,2|0,0:0|0:0,0:0:0:0:
16,328,15227,2,0,P|68:312|120:320,1,85,8|0,0:0|0:0,0:0:0:0:
208,324,15578,5,2,0:0:0:0:
312,212,15753,1,0,0:0:0:0:
138,255,15928,1,8,0:0:0:0:
298,304,16104,1,0,0:0:0:0:
188,167,16280,2,0,B|174:124|174:124|176:75,1,85,2|0,0:0|0:0,0:0:0:0:
356,60,16631,2,0,B|357:99|357:99|343:142,1,85,8|0,0:0|0:0,0:0:0:0:
328,288,16982,5,10,0:0:0:0:
424,228,17157,1,0,0:0:0:0:
424,228,17332,1,0,0:0:0:0:
328,288,17508,1,8,0:0:0:0:
232,228,17683,1,2,0:0:0:0:
232,228,17858,1,0,0:0:0:0:
310,143,18034,2,0,P|337:181|336:219,1,85,8|0,0:3|0:3,0:3:0:0:
206,309,18385,5,10,0:0:0:0:
54,217,18561,1,0,0:0:0:0:
54,217,18736,1,0,0:0:0:0:
126,313,18911,1,8,0:0:0:0:
83,140,19087,1,2,0:0:0:0:
83,140,19262,1,0,0:0:0:0:
50,293,19438,1,8,0:0:0:0:
141,140,19614,1,0,0:0:0:0:
284,176,19789,6,0,P|360:176|400:160,2,85,10|0|0,0:0|0:0|0:0,0:0:0:0:
231,281,20315,2,0,P|189:287|147:283,2,85,8|2|0,0:0|0:0|0:0,0:0:0:0:
368,268,20841,1,8,0:0:0:0:
284,176,21017,1,0,0:0:0:0:
152,240,21192,5,10,0:0:0:0:
128,227,21279,1,0,0:0:0:0:
111,207,21367,1,0,0:0:0:0:
100,183,21455,1,0,0:0:0:0:
99,156,21542,1,2,0:0:0:0:
106,131,21630,1,0,0:0:0:0:
121,109,21718,1,0,0:0:0:0:
142,94,21806,1,0,0:0:0:0:
167,86,21893,1,2,0:0:0:0:
272,76,22069,6,0,B|311:98|311:98|364:96,1,85
452,84,22596,6,0,L|428:160,1,63.7500024318696,2|0,0:0|0:0,0:0:0:0:
376,236,22947,2,0,L|400:312,1,63.7500024318696,0|0,0:0|0:0,0:0:0:0:
492,232,23297,2,0,L|512:172,1,63.7500024318696,2|0,0:0|0:0,0:0:0:0:
364,84,23648,2,0,L|344:144,1,63.7500024318696,0|0,0:0|0:0,0:0:0:0:
308,224,23999,2,0,P|232:240|176:204,1,127.500004863739,2|0,0:0|0:0,0:0:0:0:
128,144,24525,1,0,0:0:0:0:
40,163,24701,2,0,L|60:224,1,63.7500024318696,2|0,0:0|0:0,0:0:0:0:
207,135,25052,2,0,L|188:75,1,63.7500024318696,0|0,0:0|0:0,0:0:0:0:
90,83,25403,6,0,P|55:87|23:83,2,63.7500024318696,2|0|0,0:0|0:0|0:0,0:0:0:0:
256,112,25929,1,0,0:0:0:0:
261,117,26016,1,0,0:0:0:0:
261,117,26104,2,0,P|296:128|344:108,1,63.7500024318696,2|0,0:0|0:0,0:0:0:0:
432,104,26455,2,0,P|405:129|399:180,1,63.7500024318696,0|0,0:0|0:0,0:0:0:0:
358,258,26806,2,0,P|349:222|308:191,1,63.7500024318696,2|0,0:0|0:0,0:0:0:0:
200,120,27157,2,0,P|206:150|226:175,1,63.7500024318696
288,112,27508,2,0,P|244:40|192:28,1,127.500004863739,2|0,0:0|0:0,0:0:0:0:
124,40,28034,1,0,0:0:0:0:
48,96,28210,6,0,L|32:176,1,63.7500024318696,2|0,0:0|0:0,0:0:0:0:
120,208,28561,2,0,L|136:288,1,63.7500024318696,0|0,0:0|0:0,0:0:0:0:
256,192,28911,2,0,P|228:168|236:184,2,127.500004863739,2|0|2,0:0|0:0|0:0,0:0:0:0:
280,280,29789,1,0,0:0:0:0:
384,272,29964,2,0,L|452:244,1,63.7500024318696,0|0,0:0|0:0,0:0:0:0:
348,160,30315,2,0,L|280:132,1,63.7500024318696,2|0,0:0|0:0,0:0:0:0:
312,324,30666,2,0,L|380:352,1,63.7500024318696,0|0,0:0|0:0,0:0:0:0:
404,252,31017,1,2,0:0:0:0:
428,160,31192,1,0,0:0:0:0:
428,160,31368,6,0,P|408:132|360:120,1,63.7500024318696
224,84,31718,2,0,P|244:56|292:44,1,63.7500024318696,2|0,0:0|0:0,0:0:0:0:
360,188,32069,2,0,P|340:216|292:228,1,63.7500024318696,0|0,0:0|0:0,0:0:0:0:
174,167,32420,2,0,L|237:167,1,63.7500024318696,2|0,0:0|0:0,0:0:0:0:
396,106,32771,2,0,L|333:106,1,63.7500024318696,0|0,0:0|0:0,0:0:0:0:
237,167,33122,2,0,P|217:79|245:31,1,127.500004863739,2|8,0:0|0:0,0:0:0:0:
299,1,33648,1,0,0:0:0:0:
142,56,33824,6,0,P|110:63|79:64,1,63.7500024318696,2|0,0:0|0:0,0:0:0:0:
80,197,34175,2,0,P|107:180|132:159,1,63.7500024318696,8|0,0:0|0:0,0:0:0:0:
150,263,34525,2,0,P|140:293|125:322,1,63.7500024318696,0|8,0:0|0:0,0:0:0:0:
259,253,34876,2,0,P|267:223|284:196,1,63.7500024318696
288,348,35227,1,0,0:0:0:0:
380,316,35403,1,0,0:0:0:0:
404,208,35578,1,8,0:0:0:0:
340,140,35754,5,0,0:0:0:0:
340,140,35841,1,0,0:0:0:0:
340,140,35929,1,0,0:0:0:0:
268,216,36104,1,8,0:0:0:0:
408,96,36280,1,8,0:0:0:0:
408,96,36631,6,0,P|360:92|316:96,1,63.7500024318696,0|0,0:0|0:0,0:0:0:0:
268,160,36982,2,0,P|220:156|176:160,1,63.7500024318696,8|0,0:0|0:0,0:0:0:0:
128,224,37332,2,0,P|80:220|36:224,1,63.7500024318696,0|8,0:0|0:0,0:0:0:0:
248,244,37683,2,0,P|292:268|324:272,1,63.7500024318696,8|0,0:0|0:0,0:0:0:0:
448,174,38034,2,0,P|404:150|372:146,1,63.7500024318696,0|0,0:0|0:0,0:0:0:0:
392,256,38385,2,0,L|392:320,1,63.7500024318696,8|0,0:0|0:0,0:0:0:0:
308,200,38736,5,0,0:0:0:0:
300,186,38823,1,0,0:0:0:0:
295,170,38911,1,8,0:0:0:0:
292,155,38999,1,0,0:0:0:0:
292,136,39087,2,0,L|300:92,4,31.8750012159348,8|0|0|0|0,0:0|0:0|0:0|0:0|0:0,0:0:0:0:
384,28,39613,5,0,0:0:0:0:
376,140,39789,1,8,0:0:0:0:
232,72,39964,1,0,0:0:0:0:
232,72,40139,2,0,L|200:144,1,63.7500024318696,0|8,0:0|0:0,0:0:0:0:
244,264,40490,2,0,L|276:192,1,63.7500024318696,0|0,0:0|0:0,0:0:0:0:
308,132,40841,5,0,0:0:0:0:
184,208,41017,1,0,0:0:0:0:
368,188,41192,1,8,0:0:0:0:
244,264,41368,2,0,L|244:304,2,31.8750012159348
264,160,41718,1,0,0:0:0:0:
368,188,41894,2,0,P|408:156|420:72,1,127.500004863739,8|0,0:0|0:0,0:0:0:0:
444,232,42420,5,0,0:0:0:0:
344,112,42596,2,0,P|292:92|264:88,1,63.7500024318696,8|0,0:0|0:0,0:0:0:0:
148,84,42947,2,0,P|117:92|88:105,1,63.7500024318696,0|8,0:0|0:0,0:0:0:0:
80,260,43297,2,0,P|110:251|139:238,1,63.7500024318696,8|0,0:0|0:0,0:0:0:0:
224,184,43648,5,0,0:0:0:0:
248,280,43824,1,0,0:0:0:0:
140,132,43999,1,8,0:0:0:0:
272,180,44175,2,0,L|280:140,1,31.8750012159348
290,115,44350,5,0,0:0:0:0:
306,95,44437,1,0,0:0:0:0:
329,84,44525,1,0,0:0:0:0:
354,82,44613,1,0,0:0:0:0:
378,90,44700,1,8,0:0:0:0:
397,107,44788,1,0,0:0:0:0:
410,123,44876,2,0,L|466:115,2,31.8750012159348,0|0|0,0:0|0:0|0:0,0:0:0:0:
260,84,45227,5,0,0:0:0:0:
344,216,45403,1,8,0:0:0:0:
168,168,45578,1,0,0:0:0:0:
332,96,45754,2,0,P|308:180|296:188,1,85,0|8,0:0|0:0,0:0:0:0:
372,227,46104,2,0,P|336:250|294:251,1,85,8|0,0:0|0:0,0:0:0:0:
277,328,46455,2,0,P|216:265|215:250,1,85,0|0,0:0|0:0,0:0:0:0:
200,156,46806,5,8,0:0:0:0:
84,244,46982,1,0,0:0:0:0:
105,245,47069,1,0,0:0:0:0:
126,246,47157,1,0,0:0:0:0:
200,156,47332,2,0,L|268:160,2,42.5,8|0|0,0:0|0:0|0:0,0:0:0:0:
72,144,47683,1,0,0:0:0:0:
200,256,47859,2,0,P|224:196|208:120,1,127.5,0|0,0:0|0:0,0:0:0:0:
192,104,48210,6,0,B|244:112|244:112|288:104,1,85,8|0,0:0|0:0,0:0:0:0:
304,96,48473,1,0,0:0:0:0:
340,80,48561,1,0,0:0:0:0:
424,16,48736,1,8,0:0:0:0:
440,160,48911,1,0,0:0:0:0:
304,96,49087,2,0,P|248:124|208:120,1,85,0|0,0:0|0:0,0:0:0:0:
223,220,49438,2,0,P|182:214|146:191,1,85,0|8,0:0|0:0,0:0:0:0:
120,104,49789,1,0,0:0:0:0:
120,82,49876,1,0,0:0:0:0:
120,61,49964,1,0,0:0:0:0:
220,136,50139,5,8,0:0:0:0:
56,220,50315,1,8,0:0:0:0:
40,108,50490,1,0,0:0:0:0:
172,240,50666,2,0,B|256:224|256:224|304:264|360:228,1,170,0|8,0:0|0:0,0:0:0:0:
432,192,51192,2,0,L|424:108,1,85
308,172,51543,2,0,L|299:256,2,85,8|0|0,0:0|0:0|0:0,0:0:0:0:
383,264,52069,6,0,P|328:337|238:317,1,170,0|8,0:0|0:0,0:0:0:0:
163,258,52596,1,0,0:0:0:0:
143,262,52683,1,0,0:0:0:0:
119,266,52771,2,0,L|107:170,1,85,0|8,0:0|0:0,0:0:0:0:
91,78,53122,1,0,0:0:0:0:
0,164,53297,1,0,0:0:0:0:
216,132,53473,6,0,L|312:144,2,85,0|0|8,0:0|0:0|0:0,0:0:0:0:
108,181,53999,2,0,L|12:193,2,85,0|0|8,0:0|0:0|0:0,0:0:0:0:
142,331,54525,1,8,0:0:0:0:
220,216,54701,1,0,0:0:0:0:
220,216,54876,2,0,P|272:200|308:152,1,85,0|0,0:0|0:0,0:0:0:0:
248,8,55227,2,0,P|196:24|160:72,1,85,8|0,0:0|0:0,0:0:0:0:
120,128,55578,5,0,0:0:0:0:
143,149,55665,1,0,0:0:0:0:
171,165,55753,1,8,0:0:0:0:
201,175,55841,1,0,0:0:0:0:
232,179,55928,1,0,0:0:0:0:
264,177,56016,1,0,0:0:0:0:
295,168,56104,1,0,0:0:0:0:
323,153,56192,1,0,0:0:0:0:
347,133,56279,1,0,0:0:0:0:
388,32,56455,5,0,0:0:0:0:
252,112,56631,1,8,0:0:0:0:
408,216,56806,1,0,0:0:0:0:
408,216,56982,2,0,L|448:308,1,85,0|8,0:0|0:0,0:0:0:0:
308,264,57332,2,0,L|268:356,1,85,8|0,0:0|0:0,0:0:0:0:
172,232,57683,2,0,L|212:140,1,85,0|0,0:0|0:0,0:0:0:0:
240,72,58034,1,8,0:0:0:0:
328,180,58210,5,0,0:0:0:0:
307,186,58297,1,0,0:0:0:0:
287,192,58385,1,0,0:0:0:0:
104,228,58561,1,8,0:0:0:0:
302,282,58736,1,0,0:0:0:0:
151,160,58911,1,0,0:0:0:0:
223,318,59087,1,8,0:0:0:0:
219,77,59438,1,8,0:0:0:0:
219,77,59613,6,0,L|152:88,2,42.5,0|0|0,0:0|0:0|0:0,0:0:0:0:
312,128,59964,2,0,L|379:139,2,42.5,8|0|8,0:0|0:0|0:0,0:0:0:0:
228,188,60315,2,0,L|161:199,1,42.5,0|0,0:0|0:0,0:0:0:0:
96,208,60490,2,0,P|124:264|240:264,1,170,0|8,0:0|0:0,0:0:0:0:
312,244,61017,1,0,0:0:0:0:
331,235,61104,1,0,0:0:0:0:
351,227,61192,1,0,0:0:0:0:
360,128,61368,1,0,0:0:0:0:
360,128,61543,6,0,P|428:204|416:248,1,127.5,8|0,0:0|0:0,0:0:0:0:
417,320,61894,2,0,P|349:244|361:200,1,127.5,0|0,0:0|0:0,0:0:0:0:
352,208,62245,2,0,L|264:172,1,85,8|0,0:0|0:0,0:0:0:0:
172,136,62596,2,0,B|128:124|128:124|84:140,2,85,0|8|0,0:0|0:0|0:0,0:0:0:0:
232,236,63122,1,0,0:0:0:0:
276,144,63297,2,0,B|298:104|298:104|392:68,1,127.5,0|0,0:0|0:0,0:0:0:0:
400,68,63648,2,0,P|400:115|371:164,1,85,8|0,0:0|0:0,0:0:0:0:
210,241,63999,2,0,P|210:194|239:145,1,85,0|8,0:0|0:0,0:0:0:0:
268,80,64350,1,0,0:0:0:0:
316,204,64525,1,0,0:0:0:0:
148,160,64701,5,0,0:0:0:0:
148,328,64876,1,0,0:0:0:0:
104,232,65052,2,0,P|184:236|228:136,1,170,8|0,0:0|0:0,0:0:0:0:
236,76,65578,1,8,0:0:0:0:
316,180,65754,1,0,0:0:0:0:
132,148,65929,1,0,0:0:0:0:
244,24,66104,5,8,0:0:0:0:
260,212,66280,1,0,0:0:0:0:
312,88,66455,1,8,0:0:0:0:
424,216,66631,1,0,0:0:0:0:
388,44,66806,1,8,0:0:0:0:
260,212,66982,1,0,0:0:0:0:
334,234,67157,1,0,0:0:0:0:
408,256,67332,1,0,0:0:0:0:
368,136,67508,6,0,P|312:104|294:39,1,127.500004863739
402,32,68210,2,0,L|478:32,1,63.7500024318696,8|0,0:0|0:0,0:0:0:0:
368,136,68561,2,0,L|292:136,2,63.7500024318696,0|8|0,0:0|0:0|0:0,0:0:0:0:
223,110,69087,5,0,0:0:0:0:
172,179,69263,1,0,0:0:0:0:
222,249,69438,1,0,0:0:0:0:
304,222,69614,1,8,0:0:0:0:
304,108,69964,1,0,0:0:0:0:
304,296,70315,6,0,P|356:304|400:288,1,85,0|0,0:0|0:0,0:0:0:0:
424,136,70666,1,8,0:0:0:0:
320,208,70841,2,0,P|268:216|224:200,1,85,0|0,0:0|0:0,0:0:0:0:
200,48,71192,1,0,0:0:0:0:
280,124,71368,1,8,0:0:0:0:
88,156,71543,1,0,0:0:0:0:
88,156,71718,6,0,B|92:204|92:204|136:240,1,85
256,268,72069,1,8,0:0:0:0:
316,144,72245,2,0,P|364:164|384:200,1,85,0|0,0:0|0:0,0:0:0:0:
424,328,72596,1,0,0:0:0:0:
444,132,72771,1,8,0:0:0:0:
324,232,72947,1,0,0:0:0:0:
324,232,73122,6,0,L|248:292,2,85,0|0|8,0:0|0:0|0:0,0:0:0:0:
336,64,73648,2,0,L|412:4,2,85,0|0|0,0:0|0:0|0:0,0:0:0:0:
248,144,74175,1,8,0:0:0:0:
372,164,74350,1,0,0:0:0:0:
208,48,74525,5,0,0:0:0:0:
192,60,74613,1,0,0:0:0:0:
180,72,74701,2,0,B|160:104|160:104|152:172,1,85,0|8,0:0|0:0,0:0:0:0:
64,248,75052,1,0,0:0:0:0:
76,264,75140,1,0,0:0:0:0:
88,276,75228,2,0,B|120:296|120:296|188:304,1,85,0|0,0:0|0:0,0:0:0:0:
356,312,75578,1,8,0:0:0:0:
346,292,75665,1,0,0:0:0:0:
336,273,75753,1,0,0:0:0:0:
272,120,75929,6,0,L|356:180,1,85
188,192,76280,1,8,0:0:0:0:
168,88,76455,1,0,0:0:0:0:
256,240,76631,1,0,0:0:0:0:
100,172,76806,1,0,0:0:0:0:
244,124,76982,1,8,0:0:0:0:
188,288,77157,1,0,0:0:0:0:
332,208,77332,6,0,P|364:160|368:116,1,85,0|0,0:0|0:0,0:0:0:0:
356,56,77683,1,8,0:0:0:0:
432,184,77859,1,0,0:0:0:0:
268,152,78034,1,0,0:0:0:0:
436,76,78210,1,0,0:0:0:0:
360,248,78385,1,8,0:0:0:0:
224,96,78561,1,0,0:0:0:0:
144,180,78736,6,0,P|112:132|108:88,1,85,0|0,0:0|0:0,0:0:0:0:
228,224,79087,1,8,0:0:0:0:
40,168,79262,1,0,0:0:0:0:
188,116,79438,1,0,0:0:0:0:
64,260,79613,1,0,0:0:0:0:
244,288,79789,1,8,0:0:0:0:
192,120,79964,1,0,0:0:0:0:
192,120,80139,6,0,P|240:144|296:132,1,85,0|0,0:0|0:0,0:0:0:0:
296,132,80403,1,0,0:0:0:0:
328,114,80490,1,8,0:0:0:0:
365,113,80578,1,0,0:0:0:0:
399,128,80666,1,0,0:0:0:0:
423,155,80753,1,0,0:0:0:0:
433,191,80841,2,0,L|392:236,3,42.5,8|0|0|0,0:0|0:0|0:0|0:0,0:0:0:0:
484,284,81192,2,0,L|525:329,3,42.5,8|0|0|0,0:0|0:0|0:0|0:0,0:0:0:0:
336,168,81543,6,0,P|288:152|244:160,1,85,8|0,0:0|0:0,0:0:0:0:
128,200,81894,1,8,0:0:0:0:
192,308,82069,1,0,0:0:0:0:
198,287,82156,1,0,0:0:0:0:
204,267,82244,1,0,0:0:0:0:
248,160,82420,1,0,0:0:0:0:
92,204,82596,1,8,0:0:0:0:
272,288,82771,1,0,0:0:0:0:
156,144,82947,6,0,P|156:88|176:64,1,85,0|0,0:0|0:0,0:0:0:0:
304,8,83297,2,0,P|325:43|320:85,1,85,8|0,0:0|0:0,0:0:0:0:
280,164,83648,1,0,0:0:0:0:
160,116,83824,1,0,0:0:0:0:
264,268,83999,1,8,0:0:0:0:
400,224,84175,2,0,L|452:252,2,42.5,0|0|0,0:0|0:0|0:0,0:0:0:0:
264,188,84525,1,0,0:0:0:0:
164,276,84701,2,0,P|216:328|260:324,1,85,8|0,0:0|0:0,0:0:0:0:
374,229,85052,2,0,P|393:158|368:122,1,85,0|0,0:0|0:0,0:0:0:0:
229,70,85403,2,0,P|158:89|139:129,1,85,8|0,0:0|0:0,0:0:0:0:
92,192,85754,5,0,0:0:0:0:
228,184,85929,1,0,0:0:0:0:
40,116,86104,1,8,0:0:0:0:
72,284,86280,1,0,0:0:0:0:
0,208,86455,1,0,0:0:0:0:
0,208,86631,1,0,0:0:0:0:
180,272,86806,1,8,0:0:0:0:
180,272,86982,1,0,0:0:0:0:
300,308,87157,6,0,L|408:300,1,85,0|0,0:0|0:0,0:0:0:0:
488,292,87508,1,8,0:0:0:0:
392,208,87683,2,0,L|284:200,1,85
204,192,88034,1,0,0:0:0:0:
300,108,88210,2,0,L|408:100,1,85,8|0,0:0|0:0,0:0:0:0:
296,24,88561,6,0,L|188:16,1,85,0|0,0:0|0:0,0:0:0:0:
136,8,88911,1,8,0:0:0:0:
40,144,89087,1,0,0:0:0:0:
216,152,89262,1,0,0:0:0:0:
72,32,89438,1,0,0:0:0:0:
108,212,89613,1,8,0:0:0:0:
208,84,89789,1,0,0:0:0:0:
12,68,89964,6,0,B|32:108|32:108|80:124,1,85,0|0,0:0|0:0,0:0:0:0:
180,124,90315,1,8,0:0:0:0:
296,240,90490,1,0,0:0:0:0:
120,216,90666,1,0,0:0:0:0:
320,144,90841,1,0,0:0:0:0:
200,292,91017,1,8,0:0:0:0:
228,92,91192,1,0,0:0:0:0:
372,208,91368,5,0,0:0:0:0:
372,208,91543,1,0,0:0:0:0:
176,180,91718,1,8,0:0:0:0:
176,180,91894,1,0,0:0:0:0:
292,124,92069,1,0,0:0:0:0:
264,280,92245,2,0,P|336:324|448:312,1,170,0|8,0:0|0:0,0:0:0:0:
376,176,92771,1,8,0:0:0:0:
364,244,98034,6,0,L|404:260,4,31.8750012159348
268,204,98561,1,0,0:0:0:0:
288,284,98736,1,8,0:0:0:0:
360,148,98911,1,0,0:0:0:0:
364,152,98999,1,0,0:0:0:0:
364,152,99087,2,0,P|366:120|355:90,1,63.7500024318696,0|8,0:0|0:0,0:0:0:0:
236,44,99438,2,0,P|234:76|245:106,1,63.7500024318696,0|0,0:0|0:0,0:0:0:0:
296,176,99789,1,0,0:0:0:0:
124,124,99964,5,0,0:0:0:0:
168,264,100139,1,8,0:0:0:0:
232,100,100315,2,0,L|248:60,2,31.8750012159348,0|0|0,0:0|0:0|0:0,0:0:0:0:
312,184,100666,1,8,0:0:0:0:
140,132,100841,2,0,P|156:224|172:244,1,95.6250036478044,8|0,0:0|0:0,0:0:0:0:
164,248,101192,2,0,B|201:254|201:254|256:248,1,63.7500024318696
392,248,101543,5,8,0:0:0:0:
296,112,101718,1,0,0:0:0:0:
296,112,101805,1,0,0:0:0:0:
296,112,101893,1,0,0:0:0:0:
459,97,102069,6,0,P|429:187|396:200,1,127.500004863739
312,100,102596,2,0,P|353:108|381:124,1,63.7500024318696,0|0,0:0|0:0,0:0:0:0:
336,247,102947,2,0,P|322:206|322:174,1,63.7500024318696,8|0,0:0|0:0,0:0:0:0:
320,176,103210,1,0,0:0:0:0:
320,168,103297,1,0,0:0:0:0:
316,60,103473,1,8,0:0:0:0:
224,152,103648,2,0,P|172:188|128:188,1,95.6250036478044,0|0,0:0|0:0,0:0:0:0:
108,192,103999,6,0,L|72:276,1,63.7500024318696,0|0,0:0|0:0,0:0:0:0:
268,224,104350,1,8,0:0:0:0:
140,168,104525,5,0,0:0:0:0:
140,168,104612,1,0,0:0:0:0:
140,168,104700,1,0,0:0:0:0:
104,312,104876,2,0,P|184:328|228:304,1,127.500004863739,8|0,0:0|0:0,0:0:0:0:
304,240,105403,2,0,L|384:240,1,63.7500024318696,0|0,0:0|0:0,0:0:0:0:
416,132,105754,1,8,0:0:0:0:
488,224,105929,2,0,L|512:244,2,31.8750012159348
344,132,106280,1,8,0:0:0:0:
344,132,106455,1,8,0:0:0:0:
488,224,106806,6,0,P|440:256|412:256,1,63.7500024318696,0|0,0:0|0:0,0:0:0:0:
344,132,107157,2,0,P|392:100|420:100,1,63.7500024318696,8|0,0:0|0:0,0:0:0:0:
404,172,107420,1,0,0:0:0:0:
404,172,107508,2,0,B|368:112|368:112|304:84,1,127.500004863739,0|8,0:0|0:0,0:0:0:0:
216,60,108034,1,0,0:0:0:0:
140,132,108210,2,0,L|112:168,3,31.8750012159348,0|0|0|0,0:0|0:0|0:0|0:0,0:0:0:0:
216,180,108561,2,0,L|244:216,3,31.8750012159348,8|0|0|0,0:0|0:0|0:0|0:0,0:0:0:0:
160,252,108911,5,0,0:0:0:0:
160,267,108998,1,0,0:0:0:0:
160,283,109086,1,8,0:0:0:0:
160,299,109174,1,0,0:0:0:0:
160,316,109262,2,0,P|220:328|272:316,1,95.6250036478044,8|0,0:0|0:0,0:0:0:0:
288,308,109613,6,0,L|316:232,1,63.7500024318696,0|0,0:0|0:0,0:0:0:0:
340,152,109964,2,0,L|391:214,1,63.7500024318696,8|0,0:0|0:0,0:0:0:0:
449,275,110315,2,0,L|369:288,1,63.7500024318696,0|8,0:0|0:0,0:0:0:0:
277,162,110666,2,0,L|356:148,1,63.7500024318696,0|0,0:0|0:0,0:0:0:0:
444,124,111017,5,0,0:0:0:0:
384,212,111192,1,0,0:0:0:0:
277,162,111368,2,0,P|229:150|205:130,1,63.7500024318696,8|0,0:0|0:0,0:0:0:0:
196,128,111631,1,0,0:0:0:0:
176,112,111718,2,0,L|172:188,1,63.7500024318696,0|8,0:0|0:0,0:0:0:0:
164,276,112069,1,8,0:0:0:0:
148,64,112420,6,0,L|144:140,1,63.7500024318696,0|0,0:0|0:0,0:0:0:0:
136,228,112771,1,8,0:0:0:0:
248,188,112947,1,0,0:0:0:0:
263,188,113034,1,0,0:0:0:0:
279,188,113122,1,0,0:0:0:0:
400,188,113297,2,0,P|452:208|472:232,1,63.7500024318696,8|0,0:0|0:0,0:0:0:0:
396,276,113648,1,0,0:0:0:0:
396,276,113824,6,0,L|400:132,1,127.500004863739,0|8,0:0|0:0,0:0:0:0:
396,48,114350,2,0,L|440:24,2,31.8750012159348,0|0|0,0:0|0:0|0:0,0:0:0:0:
276,120,114701,1,8,0:0:0:0:
276,120,114876,2,0,P|224:124|184:108,1,95.6250036478044,8|0,0:0|0:0,0:0:0:0:
156,84,115227,2,0,L|120:160,1,63.7500024318696,0|0,0:0|0:0,0:0:0:0:
192,280,115578,2,0,L|228:204,1,63.7500024318696,8|0,0:0|0:0,0:0:0:0:
44,216,115929,2,0,L|116:216,1,63.7500024318696,0|8,0:0|0:0,0:0:0:0:
316,148,116280,2,0,L|244:148,2,63.7500024318696,0|0|0,0:0|0:0|0:0,0:0:0:0:
416,148,116806,5,0,0:0:0:0:
372,240,116982,2,0,P|324:264|292:268,1,63.7500024318696,8|0,0:0|0:0,0:0:0:0:
264,268,117245,1,0,0:0:0:0:
228,260,117332,2,0,P|180:248|140:248,1,63.7500024318696,0|8,0:0|0:0,0:0:0:0:
55,272,117683,6,0,L|111:164,1,110.499994941712,8|0,0:0|0:0,0:0:0:0:
163,62,118210,5,0,0:0:0:0:
192,168,118385,1,8,0:0:0:0:
57,111,118561,2,0,L|25:68,2,31.8750012159348,0|0|0,0:0|0:0|0:0,0:0:0:0:
192,168,118911,2,0,P|248:172|276:164,1,63.7500024318696,8|0,0:0|0:0,0:0:0:0:
348,144,119262,1,0,0:0:0:0:
448,240,119438,2,0,P|392:244|364:236,1,63.7500024318696,0|0,0:0|0:0,0:0:0:0:
292,216,119789,1,8,0:0:0:0:
192,312,119964,5,0,0:0:0:0:
223,317,120051,1,0,0:0:0:0:
254,314,120139,1,8,0:0:0:0:
292,216,120315,1,0,0:0:0:0:
129,293,120490,1,8,0:0:0:0:
158,304,120577,1,0,0:0:0:0:
189,311,120665,1,0,0:0:0:0:
221,314,120753,1,0,0:0:0:0:
254,314,120841,6,0,L|200:232,1,85,0|0,2:0|0:0,0:0:0:0:
140,152,121192,2,0,L|93:222,1,85,8|0,0:0|0:0,0:0:0:0:
244,180,121543,1,0,0:0:0:0:
204,80,121718,1,8,0:0:0:0:
64,184,121894,1,0,0:0:0:0:
164,264,122069,1,0,0:0:0:0:
264,184,122245,2,0,P|324:188|356:172,1,85,0|0,0:0|0:0,0:0:0:0:
444,104,122596,1,8,0:0:0:0:
436,224,122771,6,0,L|432:276,2,42.5,0|0|0,0:0|0:0|0:0,0:0:0:0:
340,140,123122,2,0,L|336:88,2,42.5,8|0|8,0:0|0:0|0:0,0:0:0:0:
344,240,123473,1,0,0:0:0:0:
240,160,123648,2,0,P|172:164|120:136,1,127.5,0|0,0:0|0:0,0:0:0:0:
88,108,123999,2,0,L|69:205,1,85,8|0,0:0|0:0,0:0:0:0:
48,288,124262,1,0,0:0:0:0:
39,313,124350,2,0,L|136:331,1,85,0|8,0:0|0:0,0:0:0:0:
232,272,124701,2,0,L|329:254,1,85,0|0,0:0|0:0,0:0:0:0:
424,228,125052,5,0,0:0:0:0:
380,336,125227,1,0,0:0:0:0:
320,168,125403,1,8,0:0:0:0:
320,168,125578,2,0,L|252:192,2,42.5,0|0|0,0:0|0:0|0:0,0:0:0:0:
432,136,125929,1,8,0:0:0:0:
476,244,126104,1,8,0:0:0:0:
380,304,126279,1,0,0:0:0:0:
432,136,126455,6,0,P|380:100|264:128,1,170,0|8,0:0|0:0,0:0:0:0:
128,284,126982,2,0,P|180:320|296:292,1,170,0|8,0:0|0:0,0:0:0:0:
264,224,127508,2,0,L|208:156,1,85,0|0,0:0|0:0,0:0:0:0:
148,91,127859,2,0,P|200:55|316:83,1,170,0|8,0:0|0:0,0:0:0:0:
452,239,128386,2,0,P|400:275|284:247,1,170,0|8,0:0|0:0,0:0:0:0:
224,204,128911,1,0,0:0:0:0:
332,344,129087,1,0,0:0:0:0:
364,168,129262,6,0,L|452:144,2,85,0|0|8,0:0|0:0|0:0,0:0:0:0:
299,259,129789,2,0,L|211:283,2,85,0|0|8,0:0|0:0|0:0,0:0:0:0:
364,168,130315,2,0,P|376:120|364:76,1,85,0|8,0:0|0:0,0:0:0:0:
212,24,130666,2,0,P|204:65|216:106,1,85,0|8,0:0|0:0,0:0:0:0:
236,124,130929,1,0,0:0:0:0:
262,142,131016,1,0,0:0:0:0:
288,160,131104,1,0,0:0:0:0:
314,179,131192,1,0,0:0:0:0:
424,256,131368,5,8,0:0:0:0:
398,274,131455,1,0,0:0:0:0:
372,292,131543,1,0,0:0:0:0:
346,311,131631,1,0,0:0:0:0:
324,328,131718,2,0,L|256:324,1,42.5,0|0,0:0|0:0,0:0:0:0:
197,300,131894,2,0,L|154:302,1,42.5
256,248,132069,2,0,P|276:200|268:152,1,85,0|0,0:0|0:0,0:0:0:0:
168,80,132420,2,0,P|148:128|156:176,1,85,8|0,0:0|0:0,0:0:0:0:
192,224,132771,5,0,0:0:0:0:
240,132,132947,1,8,0:0:0:0:
76,140,133122,1,0,0:0:0:0:
28,48,133297,1,0,0:0:0:0:
169,123,133473,1,0,0:0:0:0:
42,215,133648,1,0,0:0:0:0:
112,56,133824,2,0,P|172:40|212:48,1,85,8|0,0:0|0:0,0:0:0:0:
228,52,134087,1,0,0:0:0:0:
264,64,134175,1,0,0:0:0:0:
352,180,134350,5,8,0:0:0:0:
352,60,134525,1,8,0:0:0:0:
256,164,134701,1,0,0:0:0:0:
444,112,134876,1,0,0:0:0:0:
125,20,135227,5,8,0:0:0:0:
201,76,135403,1,0,0:0:0:0:
201,76,135490,1,0,0:0:0:0:
201,76,135578,2,0,L|277:132,1,85,0|8,0:0|0:0,0:0:0:0:
329,196,135929,2,0,L|253:252,1,85,8|0,0:0|0:0,0:0:0:0:
182,294,136280,2,0,P|118:314|50:294,2,127.5,0|8|0,0:0|0:0|0:0,0:0:0:0:
224,224,136982,5,0,0:0:0:0:
236,207,137069,1,0,0:0:0:0:
252,193,137157,1,0,0:0:0:0:
271,182,137245,1,0,0:0:0:0:
291,176,137332,1,8,0:0:0:0:
312,174,137420,1,0,0:0:0:0:
336,176,137508,2,0,L|368:140,1,42.5
468,136,137683,6,0,P|452:84|344:40,1,170,0|8,0:0|0:0,0:0:0:0:
336,176,138210,2,0,P|352:228|460:272,1,170,0|8,0:0|0:0,0:0:0:0:
436,168,138736,2,0,P|424:120|380:88,1,85,0|0,0:0|0:0,0:0:0:0:
280,64,139087,2,0,B|156:56|156:56|200:96,1,170,0|8,0:0|0:0,0:0:0:0:
296,180,139613,1,0,0:0:0:0:
296,180,139701,1,0,0:0:0:0:
300,184,139789,2,0,B|268:212|268:212|220:208,1,85,0|8,0:0|0:0,0:0:0:0:
112,168,140139,2,0,B|72:153|72:153|28:174,1,85,8|0,0:0|0:0,0:0:0:0:
164,256,140490,5,0,0:0:0:0:
216,144,140666,1,0,0:0:0:0:
128,68,140841,2,0,P|80:80|44:68,1,85,8|0,0:0|0:0,0:0:0:0:
220,164,141192,2,0,P|268:152|304:164,1,85,0|8,0:0|0:0,0:0:0:0:
368,224,141543,1,0,0:0:0:0:
348,112,141718,1,8,0:0:0:0:
296,244,141894,5,8,0:0:0:0:
432,112,142069,1,0,0:0:0:0:
232,212,142245,1,8,0:0:0:0:
464,192,142420,2,0,L|408:260,1,85,0|8,0:0|0:0,0:0:0:0:
348,112,142771,2,0,L|392:56,2,42.5,0|0|8,0:0|0:0|0:0,0:0:0:0:
300,172,143122,1,0,0:0:0:0:
248,232,143297,5,0,0:0:0:0:
400,48,143648,1,8,0:0:0:0:
248,232,143999,5,8,0:0:0:0:
348,216,144175,1,0,0:0:0:0:
288,148,144350,1,0,0:0:0:0:
184,280,144525,5,8,0:0:0:0:
348,216,144876,2,0,P|388:232|408:256,2,63.7500024318696,0|8|0,0:0|0:0|0:0,0:0:0:0:
168,184,145403,6,0,L|88:168,1,63.7500024318696
348,216,145754,1,8,0:0:0:0:
348,216,146104,6,0,P|296:244|240:232,1,85
152,240,146455,1,8,0:0:0:0:
96,296,146631,1,0,0:0:0:0:
147,155,146806,1,0,0:0:0:0:
63,177,146982,1,0,0:0:0:0:
186,81,147157,1,8,0:0:0:0:
94,55,147333,1,0,0:0:0:0:
224,176,147508,6,0,P|272:172|316:136,1,85,0|0,0:0|0:0,0:0:0:0:
388,96,147859,1,8,0:0:0:0:
464,232,148034,1,0,0:0:0:0:
464,232,148122,1,0,0:0:0:0:
464,232,148210,2,0,P|416:228|372:192,1,85,0|0,0:0|0:0,0:0:0:0:
302,152,148561,2,0,P|254:156|201:182,1,85,8|0,0:0|0:0,0:0:0:0:
132,229,148911,5,0,0:0:0:0:
291,263,149087,1,0,0:0:0:0:
200,75,149262,2,0,B|248:55|248:55|293:68,1,85,8|0,0:0|0:0,0:0:0:0:
386,165,149613,2,0,B|379:216|379:216|345:249,1,85
215,281,149964,2,0,B|173:249|173:249|162:203,1,85
386,165,150315,5,0,0:0:0:0:
397,206,150402,1,0,0:0:0:0:
408,247,150490,2,0,L|418:297,2,42.5,0|0|8,0:0|0:0|0:0,0:0:0:0:
252,212,150841,1,0,0:0:0:0:
240,253,150928,1,0,0:0:0:0:
229,294,151016,2,0,L|219:343,3,42.5,0|0|0|0,0:0|0:0|0:0|0:0,0:0:0:0:
140,236,151368,2,0,L|149:186,3,42.5,8|0|0|0,0:0|0:0|0:0|0:0,0:0:0:0:
120,312,151718,5,0,0:0:0:0:
236,224,151894,1,0,0:0:0:0:
72,176,152069,1,8,0:0:0:0:
187,264,152245,1,0,0:0:0:0:
236,127,152421,1,0,0:0:0:0:
72,176,152596,1,0,0:0:0:0:
278,240,152771,2,0,P|346:252|386:240,1,85,8|0,0:0|0:0,0:0:0:0:
456,120,153122,6,0,P|388:108|348:120,2,85,0|0|8,0:0|0:0|0:0,0:0:0:0:
400,32,153648,1,0,0:0:0:0:
316,172,153824,1,0,0:0:0:0:
210,20,153999,1,0,0:0:0:0:
148,200,154175,1,8,0:0:0:0:
324,40,154350,1,0,0:0:0:0:
364,176,154525,6,0,B|318:167|318:167|275:175,1,85
167,259,154876,2,0,B|130:266|130:266|84:257,1,85
80,116,155227,1,0,0:0:0:0:
168,260,155403,1,0,0:0:0:0:
8,156,155578,1,8,0:0:0:0:
178,69,155754,1,0,0:0:0:0:
155,235,155929,5,0,0:0:0:0:
35,157,156104,1,0,0:0:0:0:
152,112,156280,1,0,0:0:0:0:
166,151,156367,1,0,0:0:0:0:
166,193,156455,1,0,0:0:0:0:
150,233,156543,1,0,0:0:0:0:
122,264,156630,1,0,0:0:0:0:
19,157,156806,1,0,0:0:0:0:
152,112,156982,2,0,L|204:144,3,42.5,8|0|0|0,0:0|0:0|0:0|0:0,0:0:0:0:
260,176,157332,6,0,P|328:160|368:168,1,85,0|0,0:0|0:0,0:0:0:0:
468,284,157683,2,0,P|400:268|360:276,1,85,8|0,0:0|0:0,0:0:0:0:
284,288,157946,1,0,0:0:0:0:
284,288,158034,2,0,P|284:245|298:205,1,85,0|0,0:0|0:0,0:0:0:0:
368,120,158385,1,8,0:0:0:0:
384,228,158561,1,0,0:0:0:0:
207,107,158736,5,0,0:0:0:0:
304,56,158912,1,0,0:0:0:0:
280,260,159087,1,8,0:0:0:0:
184,209,159263,1,0,0:0:0:0:
352,232,159438,5,0,0:0:0:0:
112,244,159613,1,0,0:0:0:0:
296,168,159789,1,8,0:0:0:0:
272,336,159964,1,0,0:0:0:0:
176,164,160139,2,0,B|216:192|216:192|272:196,1,85,0|0,0:0|0:0,0:0:0:0:
409,101,160490,6,0,B|369:73|369:73|313:69,1,85,8|0,0:0|0:0,0:0:0:0:
198,109,160754,1,0,0:0:0:0:
198,109,160841,2,0,B|226:146|226:146|228:185,1,85
76,248,161192,2,0,B|71:296|71:296|96:347,1,85,8|0,0:0|0:0,0:0:0:0:
200,256,161543,2,0,B|204:207|204:207|179:156,1,85,0|0,0:0|0:0,0:0:0:0:
56,120,161894,5,8,0:0:0:0:
124,228,162069,1,0,0:0:0:0:
120,68,162245,1,8,0:0:0:0:
124,228,162420,1,0,0:0:0:0:
158,253,162507,1,0,0:0:0:0:
196,280,162596,2,0,L|248:320,3,42.5,8|0|0|0,0:0|0:0|0:0|0:0,0:0:0:0:
292,344,162947,6,0,L|348:264,1,85,0|0,0:0|0:0,0:0:0:0:
428,144,163297,1,8,0:0:0:0:
240,284,163473,2,0,L|296:204,1,85,0|0,0:0|0:0,0:0:0:0:
376,84,163823,1,0,0:0:0:0:
188,224,163999,2,0,L|244:144,1,85,8|0,0:0|0:0,0:0:0:0:
456,144,164350,6,0,L|400:224,2,85,0|0|8,0:0|0:0|0:0,0:0:0:0:
504,80,164876,1,0,0:0:0:0:
360,84,165052,1,0,0:0:0:0:
425,185,165227,1,0,0:0:0:0:
276,168,165403,2,0,P|220:212|132:204,1,127.5,8|0,0:0|0:0,0:0:0:0:
116,204,165754,6,0,L|172:288,1,85,0|0,0:0|0:0,0:0:0:0:
212,336,166104,1,8,0:0:0:0:
276,248,166280,1,0,0:0:0:0:
168,228,166455,1,0,0:0:0:0:
300,320,166631,1,0,0:0:0:0:
336,176,166806,1,8,0:0:0:0:
208,284,166982,1,0,0:0:0:0:
408,232,167157,5,0,0:0:0:0:
408,232,167332,1,0,0:0:0:0:
264,112,167508,1,0,0:0:0:0:
264,112,167683,1,0,0:0:0:0:
256,248,167859,1,0,0:0:0:0:
352,156,168034,2,0,B|358:95|419:51|419:51|346:57|281:30,1,255,0|4,0:0|0:0,0:0:0:0:
310,133,171368,5,4,0:0:0:0:
310,133,172771,5,4,0:0:0:0:
284,52,173473,6,0,P|236:88|228:144,1,85,0|0,0:0|0:0,0:0:0:0:
336,216,173824,2,0,P|384:180|392:124,1,85,0|0,0:0|0:0,0:0:0:0:
310,133,174175,5,4,0:0:0:0:
310,133,176982,5,4,0:0:0:0:
310,133,178385,5,4,0:0:0:0:
310,133,179087,2,0,P|276:160|216:160,2,56.6666666666667,8|0|0,3:2|3:2|3:2,0:0:0:0:
344,64,179438,2,0,P|364:44|390:33,2,56.6666666666667,8|0|0,3:2|3:2|3:2,0:0:0:0:
328,140,179789,6,0,L|364:160,3,31.8750012159348,8|0|0|0,0:0|0:0|0:0|0:0,0:0:0:0:
300,212,180139,2,0,L|326:243,3,31.8750012159348,8|0|0|0,0:0|0:0|0:0|0:0,0:0:0:0:
249,270,180490,2,0,L|263:308,3,31.8750012159348,0|0|0|0,0:0|0:0|0:0|0:0,0:0:0:0:
181,307,180841,2,0,L|181:348,3,31.8750012159348,8|0|0|0,0:0|0:0|0:0|0:0,0:0:0:0:
164,236,181192,5,0,0:0:0:0:
160,222,181279,1,0,0:0:0:0:
156,209,181367,1,0,0:0:0:0:
153,196,181455,1,0,0:0:0:0:
149,183,181542,1,8,0:0:0:0:
146,170,181630,1,0,0:0:0:0:
142,156,181718,1,0,0:0:0:0:
139,143,181806,1,0,0:0:0:0:
136,128,181894,5,0,0:0:0:0:
165,140,181981,1,0,0:0:0:0:
196,144,182069,1,0,0:0:0:0:
228,140,182157,1,0,0:0:0:0:
260,128,182245,2,0,L|284:92,1,31.8750012159348,8|0,0:0|0:0,0:0:0:0:
340,36,182420,2,0,L|364:72,1,31.8750012159348,0|0,0:0|0:0,0:0:0:0:
420,124,182596,6,0,L|416:168,3,31.8750012159348,0|0|0|0,0:0|0:0|0:0|0:0,0:0:0:0:
285,231,182947,2,0,L|288:200,3,31.8750012159348,8|0|0|0,0:0|0:0|0:0|0:0,0:0:0:0:
440,232,183297,2,0,L|436:276,3,31.8750012159348,0|0|0|0,0:0|0:0|0:0|0:0,0:0:0:0:
305,339,183648,2,0,L|307:307,3,31.8750012159348,8|0|0|0,0:0|0:0|0:0|0:0,0:0:0:0:
280,236,183999,5,0,0:0:0:0:
262,209,184086,1,0,0:0:0:0:
234,194,184174,1,0,0:0:0:0:
202,194,184262,1,0,0:0:0:0:
172,212,184350,2,0,L|132:224,1,31.8750012159348,8|8,0:0|0:0,0:0:0:0:
68,104,184525,2,0,L|108:116,1,31.8750012159348,8|8,0:0|0:0,0:0:0:0:
212,148,184701,5,0,0:0:0:0:
240,156,184788,1,0,0:0:0:0:
271,148,184876,1,0,0:0:0:0:
295,129,184964,1,0,0:0:0:0:
308,95,185052,2,0,L|330:60,1,31.8750012159348,8|0,0:0|0:0,0:0:0:0:
458,111,185227,2,0,L|419:127,1,31.8750012159348,8|0,0:0|0:0,0:0:0:0:
344,160,185403,6,0,L|328:216,3,31.8750012159348,0|0|0|0,0:0|0:0|0:0|0:0,0:0:0:0:
231,234,185754,2,0,L|240:204,3,31.8750012159348,8|0|0|0,0:0|0:0|0:0|0:0,0:0:0:0:
135,247,186104,2,0,L|127:278,3,31.8750012159348,0|0|0|0,0:0|0:0|0:0|0:0,0:0:0:0:
22,321,186455,2,0,L|30:290,3,31.8750012159348,8|0|0|0,0:0|0:0|0:0|0:0,0:0:0:0:
56,216,186806,1,0,0:0:0:0:
63,196,186893,1,0,0:0:0:0:
70,176,186981,1,0,0:0:0:0:
77,156,187069,1,0,0:0:0:0:
84,136,187157,5,8,0:0:0:0:
91,155,187244,1,0,0:0:0:0:
98,175,187332,1,0,0:0:0:0:
105,195,187420,1,0,0:0:0:0:
116,224,187508,5,0,0:0:0:0:
143,240,187595,1,0,0:0:0:0:
173,248,187683,1,0,0:0:0:0:
205,245,187771,1,0,0:0:0:0:
234,233,187858,1,8,0:0:0:0:
259,213,187946,1,0,0:0:0:0:
276,186,188034,1,8,0:0:0:0:
284,155,188122,1,0,0:0:0:0:
276,120,188210,6,0,L|208:104,3,42.5,0|0|0|0,0:0|0:0|0:0|0:0,0:0:0:0:
404,172,188561,2,0,L|472:156,3,42.5,8|0|0|0,0:0|0:0|0:0|0:0,0:0:0:0:
352,224,188911,1,0,0:0:0:0:
324,255,188998,1,0,0:0:0:0:
284,269,189087,2,0,L|220:264,1,42.5,0|0,0:0|0:0,0:0:0:0:
124,252,189263,1,0,0:0:0:0:
151,283,189350,1,0,0:0:0:0:
191,297,189439,2,0,L|255:291,1,42.5,0|0,0:0|0:0,0:0:0:0:
328,284,189613,6,0,L|300:220,1,42.5,0|0,0:0|0:0,0:0:0:0:
192,180,189789,2,0,L|220:244,1,42.5,0|0,0:0|0:0,0:0:0:0:
208,304,189964,2,0,L|246:286,1,42.5,8|0,0:0|0:0,0:0:0:0:
312,168,190139,2,0,L|273:185,1,42.5,8|0,0:0|0:0,0:0:0:0:
376,259,190315,5,8,0:0:0:0:
405,229,190402,1,0,0:0:0:0:
421,190,190490,1,8,0:0:0:0:
422,148,190578,1,0,0:0:0:0:
408,109,190666,2,0,L|340:80,1,42.5,8|0,0:0|0:0,0:0:0:0:
208,72,190841,2,0,L|276:101,1,42.5,8|8,0:0|0:0,0:0:0:0:
348,128,191017,6,0,P|300:184|232:196,1,127.500004863739,8|0,0:0|0:0,0:0:0:0:
144,192,191718,1,8,0:0:0:0:
252,96,191894,1,0,0:0:0:0:
288,264,192069,1,0,0:0:0:0:
288,264,192245,6,0,P|336:308|412:288,1,127.500004863739,8|0,0:0|0:0,0:0:0:0:
456,236,192771,1,0,0:0:0:0:
411,174,192947,1,0,0:0:0:0:
338,197,193122,1,8,0:0:0:0:
338,274,193298,1,0,0:0:0:0:
428,348,193473,1,0,0:0:0:0:
338,274,193824,6,0,P|288:296|224:288,1,85,4|0,0:0|0:0,0:0:0:0:
148,292,194175,1,8,0:0:0:0:
216,208,194350,1,0,0:0:0:0:
260,340,194525,1,0,0:0:0:0:
120,208,194701,1,0,0:0:0:0:
324,163,194876,2,0,P|311:203|283:234,1,85,8|0,0:0|0:0,0:3:0:0:
188,136,195227,6,0,P|160:104|147:64,1,85,0|0,0:0|0:0,0:3:0:0:
260,56,195578,1,8,0:0:0:0:
188,136,195754,1,0,0:0:0:0:
145,133,195841,1,0,0:0:0:0:
108,113,195929,1,0,0:0:0:0:
188,19,196104,1,0,0:0:0:0:
172,236,196280,1,8,0:0:0:0:
299,112,196455,2,0,L|343:144,1,42.5
368,172,196631,6,0,B|372:212|372:212|412:272,1,85,4|0,0:0|0:0,0:0:0:0:
244,208,196982,2,0,B|240:168|240:168|200:108,1,85,8|0,0:0|0:0,0:0:0:0:
88,96,197332,2,0,B|92:136|92:136|132:196,1,85,0|0,0:0|0:0,0:0:0:0:
336,216,197683,2,0,B|332:176|332:176|292:116,1,85,8|0,0:0|0:0,0:0:0:0:
216,92,198034,5,0,0:0:0:0:
236,184,198210,1,0,0:0:0:0:
396,124,198385,2,0,L|460:108,3,42.5,8|0|0|0,0:0|0:0|0:0|0:0,0:0:0:0:
184,164,198736,2,0,L|120:180,3,42.5,8|0|0|0,0:0|0:0|0:0|0:0,0:0:0:0:
280,136,199087,1,8,0:0:0:0:
224,236,199262,1,0,0:0:0:0:
136,76,199438,5,4,0:0:0:0:
160,208,199613,1,0,0:0:0:0:
160,208,199789,1,8,0:0:0:0:
226,37,199965,1,0,0:0:0:0:
280,144,200140,1,0,0:0:0:0:
280,144,200315,1,0,0:0:0:0:
176,124,200490,1,8,0:0:0:0:
336,72,200666,1,0,0:0:0:0:
312,228,200841,6,0,P|264:244|212:232,1,85,4|0,0:0|0:0,0:0:0:0:
128,212,201192,1,8,0:0:0:0:
232,144,201368,1,0,0:0:0:0:
216,320,201543,1,0,0:0:0:0:
124,180,201718,1,0,0:0:0:0:
108,356,201894,2,0,L|204:324,1,85,8|0,0:0|0:0,0:0:0:0:
336,234,202245,6,0,L|256:208,1,85,4|0,0:0|0:0,0:0:0:0:
172,176,202596,1,8,0:0:0:0:
240,284,202771,1,0,0:0:0:0:
237,123,202947,1,0,0:0:0:0:
237,123,203122,1,0,0:0:0:0:
110,235,203297,1,8,0:0:0:0:
110,235,203473,1,0,0:0:0:0:
276,208,203648,5,8,0:0:0:0:
318,200,203735,1,0,0:0:0:0:
360,192,203823,1,0,0:0:0:0:
402,185,203911,1,0,0:0:0:0:
432,176,203999,1,8,0:0:0:0:
390,168,204086,1,0,0:0:0:0:
348,160,204174,1,0,0:0:0:0:
306,153,204262,1,0,0:0:0:0:
264,148,204350,2,0,L|216:172,3,42.5,8|0|0|0,0:0|0:0|0:0|0:0,0:0:0:0:
432,68,204701,2,0,L|480:44,3,42.5,8|0|0|0,0:0|0:0|0:0|0:0,0:0:0:0:
368,204,205052,5,12,0:0:0:0:
292,56,205227,1,0,0:0:0:0:
264,260,205403,1,8,0:0:0:0:
354,120,205578,1,0,0:0:0:0:
163,197,205754,1,0,0:0:0:0:
329,205,205930,1,0,0:0:0:0:
200,84,206104,2,0,B|160:72|160:72|88:92,1,85,8|0,0:0|0:0,0:0:0:0:
24,224,206455,6,0,B|64:236|64:236|136:216,1,85,0|0,0:0|0:0,0:0:0:0:
228,180,206806,1,8,0:0:0:0:
300,300,206982,2,0,L|278:263,1,42.5
208,116,207157,2,0,B|168:104|168:104|96:124,1,85,0|0,0:0|0:0,0:0:0:0:
4,160,207508,1,8,0:0:0:0:
120,252,207683,1,0,0:0:0:0:
120,252,207771,1,0,0:0:0:0:
120,252,207859,2,0,P|184:236|224:244,1,85,4|0,0:0|0:0,0:0:0:0:
348,296,208210,6,0,P|284:312|244:304,1,85,8|0,0:0|0:0,0:0:0:0:
232,148,208561,2,0,P|252:184|285:212,1,85,0|0,0:0|0:0,0:0:0:0:
392,72,208911,2,0,P|364:104|327:125,1,85,8|0,0:0|0:0,0:0:0:0:
232,144,209262,1,8,0:0:0:0:
232,144,209350,1,0,0:0:0:0:
232,144,209438,1,0,0:0:0:0:
104,232,209613,1,8,0:0:0:0:
104,232,209701,1,0,0:0:0:0:
104,232,209789,1,0,0:0:0:0:
232,296,209964,5,8,0:0:0:0:
232,296,210052,1,0,0:0:0:0:
232,296,210139,2,0,L|291:279,1,42.5,0|0,0:0|0:0,0:0:0:0:
368,336,210315,2,0,L|427:352,1,42.5,8|0,0:0|0:0,0:0:0:0:
472,232,210490,2,0,L|412:248,1,42.5,0|0,0:0|0:0,0:0:0:0:
336,260,210666,2,0,P|352:188|376:164,2,85,12|0|8,0:0|0:0|0:0,0:0:0:0:
448,172,211192,2,0,P|432:100|408:76,1,85,0|0,0:0|0:0,0:0:0:0:
344,40,211543,1,0,0:0:0:0:
268,200,211718,1,8,0:0:0:0:
372,148,211894,1,0,0:0:0:0:
204,88,212069,6,0,B|163:113|163:113|148:172,1,85,4|0,0:0|0:0,0:0:0:0:
300,68,212420,1,8,0:0:0:0:
352,248,212596,1,0,0:0:0:0:
352,248,212771,1,0,0:0:0:0:
332,64,212947,1,0,0:0:0:0:
256,192,213122,1,8,0:0:0:0:
436,148,213297,1,0,0:0:0:0:
190,167,213473,5,4,0:0:0:0:
190,167,213561,1,0,0:0:0:0:
190,167,213648,1,0,0:0:0:0:
304,84,213824,1,8,0:0:0:0:
244,228,213999,1,0,0:0:0:0:
112,80,214175,1,0,0:0:0:0:
312,168,214350,1,0,0:0:0:0:
136,200,214525,1,8,0:0:0:0:
220,56,214701,1,0,0:0:0:0:
264,248,214876,5,12,0:0:0:0:
200,48,215052,1,0,0:0:0:0:
48,200,215227,1,8,0:0:0:0:
212,16,215403,1,0,0:0:0:0:
340,160,215578,1,8,0:0:0:0:
120,160,215754,6,0,P|180:136|208:64,1,127.5,8|0,0:0|0:0,0:0:0:0:
