osu file format v14

[General]
AudioFilename: audio.mp3
AudioLeadIn: 0
PreviewTime: 69952
Countdown: 0
SampleSet: Soft
StackLeniency: 0.7
Mode: 0
LetterboxInBreaks: 0
WidescreenStoryboard: 0

[Editor]
Bookmarks: 5742,8549,11356,22584,23987,33812,45040,67496,81531,81806,92233,92759,98373,107847,120829,122233,142584,146092,157320,168549,179777,193812,216268
DistanceSpacing: 1
BeatDivisor: 4
GridSize: 4
TimelineZoom: 1

[Metadata]
Title:Ignorance
TitleUnicode:Ignorance
Artist:Paramore
ArtistUnicode:Paramore
Creator:sammish
Version:Bliss
Source:
Tags:Rock, English, Streams, Brand New Eyes
BeatmapID:1093539
BeatmapSetID:514899

[Difficulty]
HPDrainRate:6
CircleSize:4.2
OverallDifficulty:8.5
ApproachRate:9.3
SliderMultiplier:1.7
SliderTickRate:1

[Events]
//Background and Video events
0,0,"fallout-wasteland.jpg",0,0
//Break Periods
2,92971,97422
2,168761,170756
2,174375,176370
//Storyboard Layer 0 (Background)
//Storyboard Layer 1 (Fail)
//Storyboard Layer 2 (Pass)
//Storyboard Layer 3 (Foreground)
//Storyboard Sound Samples

[TimingPoints]
140,350.877192982456,4,2,1,100,1,0
140,-133.333333333333,4,2,1,40,0,0
11368,-100,4,2,1,80,0,0
16894,-100,4,2,1,5,0,0
16982,-100,4,2,1,80,0,0
22069,-133.333333333333,4,2,1,80,0,0
22420,-133.333333333333,4,2,1,40,0,0
33824,-133.333333333333,4,2,1,60,0,0
45052,-100,4,2,1,70,0,0
67508,-133.333333333333,4,2,1,70,0,0
69613,-200,4,2,1,70,0,0
70315,-100,4,2,1,80,0,1
75929,-100,4,2,1,60,0,0
81543,-100,4,2,1,80,0,1
87157,-100,4,2,1,70,0,0
92771,-100,4,2,1,70,0,0
98034,-133.333333333333,4,2,1,40,0,0
109613,-133.333333333333,4,2,1,50,0,0
117683,-200,4,2,1,50,0,0
117947,-200,4,2,1,5,0,0
118034,-133.333333333333,4,2,1,50,0,0
120841,-100,4,2,1,60,0,0
143297,-133.333333333333,4,2,1,60,0,0
146104,-100,4,2,1,80,0,1
151718,-100,4,2,1,60,0,0
157332,-100,4,2,1,80,0,1
162947,-100,4,2,1,80,0,0
168561,-100,4,2,1,60,0,0
179789,-133.333333333333,4,2,1,80,0,0
188210,-100,4,2,1,80,0,0
189613,-100,4,2,1,80,0,1
191017,-133.333333333333,4,2,1,80,0,0
193824,-100,4,2,1,90,0,1
205052,-100,4,2,1,100,0,1
215775,-100,4,2,1,5,0,0

[Colours]
Combo1 : 139,120,101
Combo2 : 125,68,51
Combo3 : 33,66,32
Combo4 : 188,173,129
SliderBorder : 90,95,120
SliderTrackOverride : 20,20,20

[HitObjects]
352,136,140,6,0,P|388:144|432:128,2,63.7500024318696
240,56,666,2,0,P|204:48|160:64,2,63.7500024318696
352,136,1192,2,0,P|360:172|344:216,1,63.7500024318696
327,294,1543,6,0,P|358:299|388:291,2,63.7500024318696
220,236,2069,2,0,P|188:241|158:233,2,63.7500024318696
284,140,2595,2,0,P|292:104|276:60,1,63.7500024318696
252,4,2947,6,0,P|288:-4|332:12,2,63.7500024318696
208,140,3473,2,0,P|172:148|128:132,2,63.7500024318696
326,110,3999,2,0,P|331:141|323:171,1,63.7500024318696
352,256,4350,6,0,P|321:261|291:254,2,63.7500024318696
285,146,4876,2,0,P|255:139|224:143,2,63.7500024318696
213,243,5403,2,0,P|182:247|152:240,1,63.7500024318696,4|0,0:0|0:0,0:0:0:0:
168,156,5754,6,0,P|106:152|66:199,1,127.500004863739,2|0,0:0|0:0,0:0:0:0:
176,316,6280,2,0,P|212:324|280:256,1,127.500004863739,2|0,0:0|0:0,0:0:0:0:
208,128,6806,2,0,P|200:164|216:208,1,63.7500024318696
236,260,7157,6,0,P|200:268|132:200,1,127.500004863739,2|0,0:0|0:0,0:0:0:0:
146,63,7683,2,0,P|182:55|250:123,1,127.500004863739,2|0,0:0|0:0,0:0:0:0:
284,196,8210,2,0,P|320:204|364:188,1,63.7500024318696
433,171,8561,6,0,P|434:224|377:285,1,127.500004863739,2|0,0:0|0:0,0:0:0:0:
268,264,9087,2,0,P|269:309|333:372,1,127.500004863739,2|0,0:0|0:0,0:0:0:0:
452,283,9613,2,0,P|421:288|391:281,1,63.7500024318696
280,220,9964,5,2,0:0:0:0:
264,106,10140,1,0,0:0:0:0:
157,62,10315,1,2,0:0:0:0:
66,134,10491,1,0,0:0:0:0:
83,248,10666,1,2,0:0:0:0:
189,290,10841,6,0,P|215:231|187:167,1,127.500004863739,2|0,0:0|0:0,0:0:0:0:
44,220,11368,6,0,P|112:228|132:216,1,85,2|0,0:0|0:0,0:0:0:0:
224,136,11718,1,8,0:0:0:0:
320,244,11894,2,0,L|240:288,1,85,0|2,0:0|0:0,0:0:0:0:
224,136,12245,1,0,0:0:0:0:
320,244,12420,2,0,P|388:252|408:240,1,85,8|0,0:0|0:0,0:0:0:0:
464,112,12771,6,0,P|396:104|376:116,1,85,2|0,0:0|0:0,0:0:0:0:
284,196,13121,1,8,0:0:0:0:
188,88,13297,2,0,L|268:44,1,85,0|2,0:0|0:0,0:0:0:0:
284,196,13648,1,0,0:0:0:0:
116,152,13824,1,8,0:0:0:0:
153,18,13999,1,0,0:0:0:0:
212,176,14175,6,0,B|224:216|224:216|280:264,1,85,2|0,0:0|0:0,0:0:0:0:
284,84,14525,1,8,0:0:0:0:
372,184,14701,2,0,B|408:203|408:203|482:198,1,85,0|2,0:0|0:0,0:0:0:0:
357,68,15051,1,0,0:0:0:0:
247,173,15227,1,8,0:0:0:0:
328,308,15403,1,0,0:0:0:0:
332,168,15578,6,0,P|288:176|240:172,1,85,2|0,0:0|0:0,0:0:0:0:
124,136,15929,1,8,0:0:0:0:
72,268,16104,2,0,P|116:276|164:272,1,85,0|2,0:0|0:0,0:0:0:0:
280,236,16455,1,0,0:0:0:0:
161,178,16631,2,8,P|148:232|184:322,1,127.5,8|0,0:0|0:0,0:0:0:0:
244,352,16982,1,10,0:0:0:0:
338,255,17157,5,0,0:0:0:0:
338,255,17332,1,0,0:0:0:0:
240,143,17508,1,8,0:0:0:0:
193,284,17683,1,2,0:0:0:0:
193,284,17859,1,0,0:0:0:0:
240,143,18034,1,8,0:0:0:0:
338,255,18210,1,0,0:0:0:0:
273,135,18385,5,10,0:0:0:0:
165,258,18561,1,0,0:0:0:0:
165,258,18736,1,0,0:0:0:0:
273,135,18911,1,8,0:0:0:0:
326,289,19087,1,2,0:0:0:0:
326,289,19263,1,0,0:0:0:0:
273,135,19438,1,8,0:0:0:0:
165,258,19614,1,0,0:0:0:0:
352,196,19789,6,0,B|384:168|384:168|388:104,1,85,10|0,0:0|0:0,0:0:0:0:
248,60,20139,1,0,0:0:0:0:
248,60,20315,2,0,B|216:88|216:88|212:152,1,85,8|2,0:0|0:0,0:0:0:0:
352,224,20666,1,0,0:0:0:0:
352,224,20841,2,0,B|312:248|312:248|260:248,1,85,8|0,0:0|0:0,0:0:0:0:
156,248,21192,5,10,0:0:0:0:
115,258,21279,1,0,0:0:0:0:
73,253,21367,1,0,0:0:0:0:
39,228,21455,1,0,0:0:0:0:
29,188,21542,5,2,0:0:0:0:
44,149,21630,1,0,0:0:0:0:
77,123,21718,1,0,0:0:0:0:
118,119,21806,1,0,0:0:0:0:
159,131,21893,5,2,0:0:0:0:
199,127,21981,1,0,0:0:0:0:
239,109,22069,2,0,B|283:115|326:102|326:102|306:114|291:138,1,127.500004863739
396,192,22596,5,2,0:0:0:0:
396,192,22771,2,0,P|380:240|380:276,2,63.7500024318696
492,192,23297,2,0,P|508:144|508:108,1,63.7500024318696,2|0,0:0|0:0,0:0:0:0:
416,44,23648,2,0,P|400:92|400:128,1,63.7500024318696
400,216,23999,2,0,P|368:211|339:198,1,63.7500024318696,2|0,0:0|0:0,0:0:0:0:
256,140,24350,1,0,0:0:0:0:
180,284,24525,6,0,P|185:252|198:223,1,63.7500024318696,0|2,0:0|0:0,0:0:0:0:
256,140,24876,1,0,0:0:0:0:
316,216,25052,2,0,P|311:248|298:277,1,63.7500024318696
216,365,25403,2,0,P|116:341|101:305,1,127.500004863739,2|0,0:0|0:0,0:0:0:0:
64,188,25929,1,0,0:0:0:0:
64,188,26017,1,0,0:0:0:0:
64,188,26104,6,0,P|69:156|82:127,1,63.7500024318696,2|0,0:0|0:0,0:0:0:0:
200,120,26455,2,0,P|195:152|182:181,1,63.7500024318696
96,48,26806,6,0,P|128:53|157:66,1,63.7500024318696,2|0,0:0|0:0,0:0:0:0:
168,208,27157,2,0,P|136:203|107:190,1,63.7500024318696
190,6,27508,6,0,P|214:28|231:54,1,63.7500024318696,2|0,0:0|0:0,0:0:0:0:
236,236,27859,2,0,P|211:214|194:187,1,63.7500024318696
176,96,28122,1,0,0:0:0:0:
176,96,28210,2,0,L|251:102,1,63.7500024318696,2|0,0:0|0:0,0:0:0:0:
344,116,28561,1,0,0:0:0:0:
248,204,28736,1,0,0:0:0:0:
264,72,28911,2,0,B|300:48|344:84|396:64,2,127.500004863739,2|0|2,0:0|0:0|0:0,0:0:0:0:
192,136,29789,5,0,0:0:0:0:
88,128,29964,2,0,P|40:120|16:128,1,63.7500024318696
48,256,30315,2,0,P|96:248|120:256,1,63.7500024318696,2|0,0:0|0:0,0:0:0:0:
208,336,30666,2,0,P|236:348|268:344,2,63.7500024318696,0|0|2,0:0|0:0|0:0,0:0:0:0:
136,280,31192,1,0,0:0:0:0:
248,252,31368,2,0,P|228:200|208:184,1,63.7500024318696
136,125,31718,5,2,0:0:0:0:
136,280,32069,1,0,0:0:0:0:
45,250,32420,1,2,0:0:0:0:
45,154,32771,1,0,0:0:0:0:
136,125,33122,1,2,0:0:0:0:
192,202,33473,2,0,L|212:232,3,31.8750012159348,8|0|0|0,0:0|0:0|0:0|0:0,0:0:0:0:
136,125,33824,1,0,0:0:0:0:
136,125,33999,5,0,0:0:0:0:
192,202,34175,2,0,P|228:197|256:176,1,63.7500024318696,8|0,0:0|0:0,0:0:0:0:
360,124,34438,1,0,0:0:0:0:
360,124,34525,2,0,L|353:195,1,63.7500024318696,0|8,0:0|0:0,0:0:0:0:
280,248,34876,2,0,L|286:319,1,63.7500024318696
400,268,35227,1,0,0:0:0:0:
308,176,35403,1,0,0:0:0:0:
188,216,35578,2,0,L|194:287,2,63.7500024318696,8|0|0,0:0|0:0|0:0,0:0:0:0:
168,76,36104,1,8,0:0:0:0:
72,156,36280,1,8,0:0:0:0:
188,216,36455,6,0,L|216:184,1,31.8750012159348
264,124,36631,2,0,P|320:128|352:116,1,63.7500024318696
388,64,36982,2,0,P|408:96|400:180,1,95.6250036478044,8|0,0:0|0:0,0:0:0:0:
432,248,37332,2,0,P|394:249|325:200,1,95.6250036478044
252,196,37683,2,0,P|269:162|346:127,1,95.6250036478044,8|0,0:0|0:0,0:0:0:0:
336,112,38034,2,0,L|328:36,1,63.7500024318696
444,92,38385,2,0,L|432:192,1,95.6250036478044,8|0,0:0|0:0,0:0:0:0:
403,205,38735,5,0,0:0:0:0:
371,208,38823,1,0,0:0:0:0:
340,200,38911,1,8,0:0:0:0:
310,190,38998,1,0,0:0:0:0:
279,183,39086,1,8,0:0:0:0:
248,189,39174,1,0,0:0:0:0:
221,206,39262,1,0,0:0:0:0:
280,320,39438,6,0,L|280:228,1,63.7500024318696
280,108,39789,1,8,0:0:0:0:
128,160,39964,1,0,0:0:0:0:
216,48,40139,1,0,0:0:0:0:
160,236,40315,1,8,0:0:0:0:
4,116,40490,6,0,P|44:120|88:112,1,63.7500024318696
196,104,40841,1,0,0:0:0:0:
348,156,41016,1,0,0:0:0:0:
260,44,41191,1,8,0:0:0:0:
316,232,41367,1,0,0:0:0:0:
232,168,41543,2,0,P|264:136|304:128,1,63.7500024318696,0|8,0:0|0:0,0:0:0:0:
412,96,41894,2,0,L|396:224,1,127.500004863739
296,272,42420,6,0,L|316:352,1,63.7500024318696,0|8,0:0|0:0,0:0:0:0:
408,300,42771,1,0,0:0:0:0:
332,132,42947,2,0,L|312:212,1,63.7500024318696,0|8,0:0|0:0,0:0:0:0:
180,252,43297,2,0,L|200:172,1,63.7500024318696,8|0,0:0|0:0,0:0:0:0:
224,96,43648,1,0,0:0:0:0:
288,216,43824,1,0,0:0:0:0:
112,176,43999,1,8,0:0:0:0:
224,36,44175,6,0,P|236:60|240:80,1,31.8750012159348
303,165,44350,1,0,0:0:0:0:
322,196,44437,1,0,0:0:0:0:
327,232,44525,1,8,0:0:0:0:
315,266,44613,1,0,0:0:0:0:
292,281,44700,1,8,0:0:0:0:
262,290,44788,1,0,0:0:0:0:
231,283,44876,1,0,0:0:0:0:
207,263,44964,1,0,0:0:0:0:
192,235,45052,6,0,P|157:236|103:215,1,85
172,124,45403,1,8,0:0:0:0:
128,324,45578,1,0,0:0:0:0:
96,176,45754,1,0,0:0:0:0:
214,342,45929,1,8,0:0:0:0:
214,342,46104,2,0,B|272:348|272:348|316:332,1,85,8|0,0:0|0:0,0:0:0:0:
392,200,46455,2,0,B|334:194|334:194|290:210,1,85
372,300,46806,1,8,0:0:0:0:
416,128,46982,5,0,0:0:0:0:
421,107,47069,1,0,0:0:0:0:
426,86,47157,1,0,0:0:0:0:
480,212,47332,1,8,0:0:0:0:
320,184,47508,1,0,0:0:0:0:
426,86,47683,1,0,0:0:0:0:
392,256,47859,2,0,B|352:276|352:276|292:252,1,85
200,192,48210,2,0,B|160:172|160:172|100:196,1,85,8|0,0:0|0:0,0:0:0:0:
68,232,48473,5,0,0:0:0:0:
68,232,48561,2,0,L|84:136,1,85,0|8,0:0|0:0,0:0:0:0:
220,32,48911,2,0,L|236:128,1,85
248,208,49262,1,0,0:0:0:0:
144,96,49438,1,0,0:0:0:0:
248,252,49613,1,8,0:0:0:0:
144,140,49789,1,0,0:0:0:0:
144,161,49876,1,0,0:0:0:0:
144,182,49964,1,0,0:0:0:0:
288,132,50139,1,8,0:0:0:0:
176,44,50315,1,8,0:0:0:0:
144,180,50490,1,0,0:0:0:0:
184,48,50666,6,0,B|240:40|240:40|276:52|276:52|352:40,1,170,0|8,0:0|0:0,0:0:0:0:
440,80,51192,2,0,B|452:124|452:124|448:176,1,85
436,280,51543,1,8,0:0:0:0:
332,168,51719,1,0,0:0:0:0:
436,56,51894,1,0,0:0:0:0:
396,208,52069,6,0,P|332:244|260:164,1,170,0|8,0:0|0:0,0:0:0:0:
164,92,52595,1,0,0:0:0:0:
157,133,52682,1,0,0:0:0:0:
150,175,52770,1,0,0:0:0:0:
136,268,52946,1,8,0:0:0:0:
72,136,53122,1,0,0:0:0:0:
232,156,53297,1,0,0:0:0:0:
392,176,53473,2,0,B|456:176|468:96|468:96|492:152,1,170,0|8,0:0|0:0,0:0:0:0:
512,228,53999,2,0,B|496:340|496:340|480:316|432:292,1,170,0|8,0:0|0:0,0:0:0:0:
348,264,54525,2,0,P|308:248|248:260,1,85,8|0,0:0|0:0,0:0:0:0:
288,344,54876,6,0,L|320:176,1,170,0|8,0:0|0:0,0:0:0:0:
348,64,55403,2,0,P|387:79|429:76,1,85
456,98,55666,1,0,0:0:0:0:
440,143,55754,1,8,0:0:0:0:
397,164,55842,1,0,0:0:0:0:
359,165,55930,1,0,0:0:0:0:
319,177,56017,1,0,0:0:0:0:
297,200,56105,1,0,0:0:0:0:
289,233,56192,1,0,0:0:0:0:
289,265,56280,6,0,L|237:185,1,85
89,157,56631,2,0,L|141:237,1,85,8|0,0:0|0:0,0:0:0:0:
245,97,56982,6,0,L|165:149,1,85,0|8,0:0|0:0,0:0:0:0:
125,337,57333,2,0,L|205:285,1,85,8|0,0:0|0:0,0:0:0:0:
312,216,57683,1,0,0:0:0:0:
312,340,57859,1,0,0:0:0:0:
128,264,58034,1,8,0:0:0:0:
216,176,58210,1,0,0:0:0:0:
216,176,58297,1,0,0:0:0:0:
216,176,58385,2,0,P|280:176|316:160,1,85,0|8,0:0|0:0,0:0:0:0:
400,100,58736,1,0,0:0:0:0:
388,248,58911,1,0,0:0:0:0:
240,80,59087,5,8,0:0:0:0:
312,328,59438,1,8,0:0:0:0:
240,236,59613,1,0,0:0:0:0:
226,252,59700,1,0,0:0:0:0:
213,269,59788,1,0,0:0:0:0:
230,137,59964,5,8,0:0:0:0:
223,117,60051,1,0,0:0:0:0:
215,97,60139,1,8,0:0:0:0:
321,178,60315,5,0,0:0:0:0:
342,181,60402,1,0,0:0:0:0:
364,184,60490,2,0,B|400:136|400:136|364:48,2,127.5,0|8|0,0:0|0:0|0:0,0:0:0:0:
264,220,61104,1,0,0:0:0:0:
260,220,61192,2,0,L|160:228,1,85
88,136,61543,2,0,L|-12:127,1,85,8|0,0:0|0:0,0:0:0:0:
0,244,61894,6,0,L|100:235,1,85
188,164,62245,1,8,0:0:0:0:
224,60,62420,2,0,P|160:56|80:148,1,170,0|8,0:0|0:0,0:0:0:0:
44,208,62859,1,0,0:0:0:0:
44,220,62947,2,0,L|51:304,1,85
180,248,63298,6,0,L|187:163,2,85,0|0|8,0:0|0:0|0:0,0:0:0:0:
152,360,63824,2,0,P|216:364|296:272,1,170,0|8,0:0|0:0,0:0:0:0:
320,176,64350,1,0,0:0:0:0:
409,241,64525,1,0,0:0:0:0:
191,162,64701,5,0,0:0:0:0:
191,162,65052,2,0,B|196:212|196:212|240:260,1,85,8|0,0:0|0:0,0:0:0:0:
304,160,65403,2,0,B|344:131|344:131|364:69,1,85,0|8,0:0|0:0,0:0:0:0:
245,64,65754,2,0,B|200:43|200:43|136:57,1,85
104,140,66104,5,8,0:0:0:0:
204,200,66280,1,0,0:0:0:0:
204,84,66455,1,8,0:0:0:0:
112,240,66631,1,0,0:0:0:0:
300,168,66806,1,8,0:0:0:0:
104,120,66982,1,0,0:0:0:0:
248,272,67157,1,8,0:0:0:0:
316,96,67332,1,0,0:0:0:0:
316,96,67508,6,8,P|372:108|440:80,2,127.500004863739
220,40,68385,2,0,L|184:92,1,63.7500024318696
128,180,68736,2,0,P|72:192|4:164,1,127.500004863739,8|0,0:0|0:0,0:0:0:0:
0,268,69262,2,0,L|36:320,1,63.7500024318696
240,172,69613,6,0,L|192:96,1,85,8|0,0:0|0:0,0:0:0:0:
124,248,70315,5,0,0:0:0:0:
145,250,70402,1,0,0:0:0:0:
166,253,70490,1,0,0:0:0:0:
296,276,70666,1,8,0:0:0:0:
244,152,70842,1,0,0:0:0:0:
241,173,70928,1,0,0:0:0:0:
238,194,71017,1,0,0:0:0:0:
216,324,71192,1,0,0:0:0:0:
352,216,71368,1,8,0:0:0:0:
168,148,71543,1,0,0:0:0:0:
304,264,71718,6,0,P|364:260|392:248,1,85
472,184,72069,1,8,0:0:0:0:
308,136,72245,2,0,P|248:132|220:120,1,85
140,56,72596,1,0,0:0:0:0:
216,232,72771,1,8,0:0:0:0:
296,56,72947,1,0,0:0:0:0:
133,218,73122,6,0,P|193:222|221:234,1,85
304,320,73473,1,8,0:0:0:0:
316,152,73648,1,0,0:0:0:0:
220,328,73824,1,0,0:0:0:0:
396,140,73999,1,0,0:0:0:0:
380,288,74175,1,8,0:0:0:0:
343,265,74262,1,0,0:0:0:0:
307,243,74350,1,0,0:0:0:0:
136,152,74525,5,0,0:0:0:0:
104,152,74612,1,0,0:0:0:0:
77,168,74700,1,0,0:0:0:0:
60,195,74788,1,0,0:0:0:0:
57,226,74876,1,8,0:0:0:0:
148,344,75052,5,0,0:0:0:0:
180,344,75139,1,0,0:0:0:0:
207,328,75227,1,0,0:0:0:0:
224,301,75315,1,0,0:0:0:0:
227,270,75403,2,0,L|224:208,1,42.5
308,156,75578,2,0,L|305:113,2,42.5,8|0|0,0:0|0:0|0:0,0:0:0:0:
312,272,75929,5,0,0:0:0:0:
216,152,76104,1,0,0:0:0:0:
384,136,76280,1,8,0:0:0:0:
348,328,76455,1,0,0:0:0:0:
304,96,76631,1,0,0:0:0:0:
448,280,76806,1,0,0:0:0:0:
252,208,76982,1,8,0:0:0:0:
408,156,77157,1,0,0:0:0:0:
292,332,77332,6,0,P|240:336|188:320,1,85
92,252,77683,1,8,0:0:0:0:
196,192,77859,1,0,0:0:0:0:
156,360,78034,1,0,0:0:0:0:
276,272,78210,1,0,0:0:0:0:
48,232,78385,1,8,0:0:0:0:
240,140,78561,1,0,0:0:0:0:
160,324,78736,6,0,P|156:272|172:228,1,85
240,140,79087,1,8,0:0:0:0:
312,284,79262,1,0,0:0:0:0:
104,212,79438,1,0,0:0:0:0:
312,124,79613,1,0,0:0:0:0:
132,116,79789,1,8,0:0:0:0:
244,300,79964,1,0,0:0:0:0:
400,136,80139,5,0,0:0:0:0:
249,183,80315,1,0,0:0:0:0:
224,148,80402,1,0,0:0:0:0:
221,106,80490,2,0,L|235:61,3,42.5
120,100,80841,2,0,L|108:140,1,42.5
204,261,81017,2,0,L|245:250,1,42.5
302,108,81192,2,0,L|272:77,1,42.5
173,21,81368,1,0,0:0:0:0:
123,148,81543,6,0,P|175:148|219:132,1,85,8|0,0:0|0:0,0:0:0:0:
385,181,81894,2,0,P|333:181|289:197,1,85,8|0,0:0|0:0,0:0:0:0:
204,236,82157,1,0,0:0:0:0:
204,236,82245,2,0,L|168:140,1,85
116,44,82596,1,8,0:0:0:0:
80,184,82771,1,0,0:0:0:0:
285,216,82947,5,0,0:0:0:0:
176,148,83122,1,0,0:0:0:0:
100,304,83297,1,8,0:0:0:0:
204,236,83473,2,0,L|171:192,1,42.5
117,100,83648,1,0,0:0:0:0:
3,160,83823,1,0,0:0:0:0:
144,276,83998,1,8,0:0:0:0:
83,161,84175,1,0,0:0:0:0:
8,264,84350,6,0,L|127:274,1,85
232,156,84701,2,0,L|112:166,1,85,8|0,0:0|0:0,0:0:0:0:
192,312,85052,1,0,0:0:0:0:
200,292,85139,1,0,0:0:0:0:
209,273,85227,1,0,0:0:0:0:
83,161,85403,1,8,0:0:0:0:
92,181,85490,1,0,0:0:0:0:
101,200,85578,1,0,0:0:0:0:
248,108,85754,6,0,P|184:108|140:136,1,85
76,200,86104,1,8,0:0:0:0:
56,80,86280,1,0,0:0:0:0:
200,152,86455,2,0,P|264:152|308:124,1,85
356,64,86805,1,8,0:0:0:0:
376,184,86981,1,0,0:0:0:0:
256,72,87157,6,0,B|208:56|208:56|156:52,2,85,0|0|8,0:0|0:0|0:0,0:0:0:0:
148,212,87683,2,0,B|103:236|103:236|53:250,2,85
248,128,88210,1,8,0:0:0:0:
240,248,88385,1,0,0:0:0:0:
92,104,88561,2,0,B|118:60|118:60|155:24,1,85
164,252,88911,1,8,0:0:0:0:
248,80,89087,2,0,B|274:36|274:36|311:1,1,85
320,228,89437,1,0,0:0:0:0:
208,180,89613,1,8,0:0:0:0:
372,124,89789,1,0,0:0:0:0:
280,304,89964,5,0,0:0:0:0:
248,80,90139,1,0,0:0:0:0:
96,208,90315,1,8,0:0:0:0:
288,176,90490,1,0,0:0:0:0:
136,92,90666,1,0,0:0:0:0:
148,284,90841,1,0,0:0:0:0:
332,228,91017,1,8,0:0:0:0:
196,72,91192,1,0,0:0:0:0:
128,204,91368,6,0,L|184:176,1,42.5
264,96,91543,2,0,L|280:148,1,42.5
312,266,91718,6,0,L|340:210,1,42.5,8|0,0:0|0:0,0:0:0:0:
480,160,91894,2,0,L|452:216,1,42.5
404,303,92069,6,0,L|369:250,1,42.5
311,162,92245,2,0,L|373:158,1,42.5
480,160,92420,5,8,0:0:0:0:
312,266,92596,1,8,0:0:0:0:
192,48,92771,1,8,0:0:0:0:
304,200,98034,6,0,L|352:228,3,31.8750012159348
184,140,98385,1,0,0:0:0:0:
184,140,98561,1,0,0:0:0:0:
232,252,98736,1,8,0:0:0:0:
304,88,98911,1,0,0:0:0:0:
304,88,98999,1,0,0:0:0:0:
304,88,99087,2,0,P|260:128|232:136,1,63.7500024318696,0|8,0:0|0:0,0:0:0:0:
144,152,99438,2,0,P|104:108|96:80,2,63.7500024318696
200,240,99964,5,0,0:0:0:0:
208,248,100052,1,0,0:0:0:0:
215,255,100139,2,0,P|256:264|280:260,1,63.7500024318696,8|0,0:0|0:0,0:0:0:0:
376,224,100403,1,0,0:0:0:0:
376,224,100490,2,0,P|385:183|381:159,1,63.7500024318696,0|8,0:0|0:0,0:0:0:0:
280,80,100841,2,0,P|271:121|275:145,1,63.7500024318696,8|0,0:0|0:0,0:0:0:0:
368,100,101192,5,0,0:0:0:0:
328,8,101368,1,0,0:0:0:0:
228,68,101543,2,0,L|140:60,1,63.7500024318696,8|0,0:0|0:0,0:0:0:0:
76,124,101806,1,0,0:0:0:0:
60,148,101894,2,0,L|148:156,1,63.7500024318696,0|8,0:0|0:0,0:0:0:0:
208,228,102245,2,0,L|296:220,1,63.7500024318696
424,188,102596,6,0,P|440:120|408:88,2,95.6250036478044,0|8|8,0:0|0:0|0:0,0:0:0:0:
372,264,103210,1,8,0:0:0:0:
372,264,103297,1,0,0:0:0:0:
328,136,103473,1,8,0:0:0:0:
372,264,103648,2,0,P|312:272|260:252,1,95.6250036478044
248,248,103999,6,0,L|208:324,1,63.7500024318696
128,168,104350,1,8,0:0:0:0:
68,272,104525,1,0,0:0:0:0:
89,271,104612,1,0,0:0:0:0:
110,269,104700,1,0,0:0:0:0:
171,166,104876,1,8,0:0:0:0:
149,166,104963,1,0,0:0:0:0:
128,168,105051,1,0,0:0:0:0:
8,200,105227,2,0,P|7:118|52:76,1,127.500004863739
160,48,105754,6,0,L|232:60,1,63.7500024318696,8|0,0:0|0:0,0:0:0:0:
372,104,106104,2,0,L|300:116,1,63.7500024318696,0|8,0:0|0:0,0:0:0:0:
160,160,106455,2,0,L|232:172,1,63.7500024318696,8|0,0:0|0:0,0:0:0:0:
336,192,106806,1,0,0:0:0:0:
243,93,106982,1,0,0:0:0:0:
188,248,107157,1,8,0:0:0:0:
347,230,107332,1,0,0:0:0:0:
347,230,107420,1,0,0:0:0:0:
347,230,107508,2,0,P|400:232|440:208,2,95.6250036478044,0|8|0,0:0|0:0|0:0,0:0:0:0:
272,180,108210,6,0,L|244:152,3,31.8750012159348,8|0|0|0,0:0|0:0|0:0|0:0,0:0:0:0:
184,256,108561,2,0,L|212:284,3,31.8750012159348,8|0|0|0,0:0|0:0|0:0|0:0,0:0:0:0:
104,196,108911,5,0,0:0:0:0:
78,177,108998,1,0,0:0:0:0:
70,147,109086,1,8,0:0:0:0:
75,116,109174,1,0,0:0:0:0:
94,91,109261,5,8,0:0:0:0:
124,84,109349,1,0,0:0:0:0:
156,89,109437,1,0,0:0:0:0:
188,91,109525,1,0,0:0:0:0:
219,86,109612,5,0,0:0:0:0:
280,224,109789,1,0,0:0:0:0:
300,72,109964,1,8,0:0:0:0:
200,208,110139,1,0,0:0:0:0:
344,152,110315,2,0,P|388:152|420:136,1,63.7500024318696,0|8,0:0|0:0,0:0:0:0:
412,264,110666,2,0,P|456:264|488:280,2,63.7500024318696
280,284,111192,5,0,0:0:0:0:
312,128,111367,1,8,0:0:0:0:
412,264,111543,2,0,L|368:244,1,31.8750012159348
268,208,111718,2,0,P|224:208|192:192,1,63.7500024318696,0|8,0:0|0:0,0:0:0:0:
104,88,112069,1,8,0:0:0:0:
44,192,112245,1,0,0:0:0:0:
212,128,112420,1,0,0:0:0:0:
152,24,112596,5,0,0:0:0:0:
148,172,112771,2,0,P|168:216|208:228,1,63.7500024318696,8|0,0:0|0:0,0:0:0:0:
396,232,113122,2,0,P|376:188|336:176,1,63.7500024318696,0|8,0:0|0:0,0:0:0:0:
256,332,113473,2,0,P|300:312|312:272,1,63.7500024318696
316,80,113824,6,0,P|268:104|252:160,1,95.6250036478044
248,216,114175,1,8,0:0:0:0:
360,248,114350,1,0,0:0:0:0:
375,250,114437,1,0,0:0:0:0:
392,252,114525,2,0,L|444:204,1,63.7500024318696,0|8,0:0|0:0,0:0:0:0:
469,87,114876,6,0,P|409:95|357:75,1,95.6250036478044,8|0,0:0|0:0,0:0:0:0:
345,71,115227,6,0,L|305:147,1,63.7500024318696
276,204,115578,1,8,0:0:0:0:
200,132,115754,1,0,0:0:0:0:
120,236,115929,2,0,L|63:206,1,63.7500024318696,0|8,0:0|0:0,0:0:0:0:
64,76,116280,2,0,L|93:132,1,63.7500024318696
152,64,116631,6,0,L|160:0,1,63.7500024318696
310,69,116982,1,8,0:0:0:0:
228,152,117157,1,0,0:0:0:0:
230,167,117244,1,0,0:0:0:0:
232,184,117332,2,0,L|236:268,1,63.7500024318696,0|8,0:0|0:0,0:0:0:0:
128,268,117683,6,0,L|124:352,1,63.7500024318696,8|0,0:0|0:0,0:0:0:0:
128,352,118034,6,0,L|212:356,1,63.7500024318696
304,352,118385,1,8,0:0:0:0:
392,272,118561,1,0,0:0:0:0:
394,256,118648,1,0,0:0:0:0:
397,240,118736,1,0,0:0:0:0:
252,212,118911,1,8,0:0:0:0:
316,284,119087,1,0,0:0:0:0:
348,136,119262,1,0,0:0:0:0:
188,182,119438,6,0,L|100:174,1,63.7500024318696
20,96,119789,2,0,L|107:88,1,63.7500024318696,8|0,0:0|0:0,0:0:0:0:
112,88,120052,1,0,0:0:0:0:
144,84,120139,1,8,0:0:0:0:
296,64,120315,5,0,0:0:0:0:
244,192,120490,1,8,0:0:0:0:
274,199,120577,1,0,0:0:0:0:
306,199,120665,1,0,0:0:0:0:
336,189,120753,1,0,0:0:0:0:
363,172,120840,5,0,2:0:0:0:
292,108,121017,1,0,0:0:0:0:
304,292,121192,1,8,0:0:0:0:
360,124,121368,1,0,0:0:0:0:
238,262,121543,2,0,P|192:268|136:244,1,85,0|8,0:0|0:0,0:0:0:0:
16,176,121894,2,0,P|33:133|82:96,1,85
200,40,122245,2,0,P|228:76|235:137,1,85
240,240,122596,5,8,0:0:0:0:
168,132,122771,5,0,0:0:0:0:
149,106,122858,1,0,0:0:0:0:
130,80,122946,1,0,0:0:0:0:
96,192,123122,1,8,0:0:0:0:
248,124,123297,1,8,0:0:0:0:
112,56,123473,1,0,0:0:0:0:
188,188,123648,2,0,B|216:236|172:280,1,85
84,320,123999,1,8,0:0:0:0:
4,248,124175,5,0,0:0:0:0:
4,248,124262,1,0,0:0:0:0:
4,248,124350,2,0,B|-24:200|20:156,1,85,0|8,0:0|0:0,0:0:0:0:
84,100,124701,1,0,0:0:0:0:
92,196,124876,1,0,0:0:0:0:
12,64,125052,1,0,0:0:0:0:
164,104,125227,2,0,P|204:104|260:76,1,85,0|8,0:0|0:0,0:0:0:0:
336,56,125578,5,0,0:0:0:0:
336,56,125666,1,0,0:0:0:0:
336,56,125754,1,0,0:0:0:0:
408,184,125929,1,8,0:0:0:0:
444,56,126104,1,8,0:0:0:0:
292,168,126280,1,0,0:0:0:0:
292,168,126455,6,0,P|272:224|352:316,1,170,0|8,0:0|0:0,0:0:0:0:
364,224,126982,2,0,B|396:200|396:200|420:124,1,85
324,44,127332,1,8,0:0:0:0:
224,148,127508,1,0,0:0:0:0:
356,68,127683,1,0,0:0:0:0:
196,120,127859,6,0,B|88:96|88:96|120:124|116:176,1,170,0|8,0:0|0:0,0:0:0:0:
128,240,128385,1,0,0:0:0:0:
118,281,128472,1,0,0:0:0:0:
108,322,128560,1,0,0:0:0:0:
20,248,128736,1,8,0:0:0:0:
224,304,128911,1,0,0:0:0:0:
60,180,129087,1,0,0:0:0:0:
208,224,129262,6,0,B|216:176|216:176|208:136,1,85
152,52,129613,1,8,0:0:0:0:
60,96,129789,2,0,B|52:144|52:144|60:184,1,85
116,268,130140,1,8,0:0:0:0:
208,224,130315,1,0,0:0:0:0:
20,224,130490,1,8,0:0:0:0:
92,364,130666,1,0,0:0:0:0:
220,296,130841,5,8,0:0:0:0:
260,283,130928,1,0,0:0:0:0:
302,280,131016,1,0,0:0:0:0:
344,287,131104,1,0,0:0:0:0:
383,305,131191,1,0,0:0:0:0:
464,188,131368,5,8,0:0:0:0:
423,200,131455,1,0,0:0:0:0:
381,203,131543,1,0,0:0:0:0:
339,196,131631,1,0,0:0:0:0:
300,178,131718,2,0,L|295:119,1,42.5
208,40,131894,2,0,L|205:83,1,42.5
193,191,132069,5,0,0:0:0:0:
88,104,132245,2,0,P|24:96|-8:108,1,85,0|8,0:0|0:0,0:0:0:0:
79,229,132596,1,0,0:0:0:0:
91,246,132683,1,0,0:0:0:0:
104,264,132771,2,0,P|145:271|186:261,1,85,0|8,0:0|0:0,0:0:0:0:
264,216,133122,1,0,0:0:0:0:
276,312,133297,1,0,0:0:0:0:
172,192,133473,1,0,0:0:0:0:
344,164,133648,2,0,P|385:171|426:161,1,85,0|8,0:0|0:0,0:0:0:0:
372,48,133999,5,0,0:0:0:0:
376,68,134086,1,0,0:0:0:0:
379,88,134174,1,0,0:0:0:0:
408,256,134350,1,8,0:0:0:0:
488,120,134525,1,8,0:0:0:0:
300,164,134701,1,0,0:0:0:0:
300,164,134876,2,0,P|232:188|171:144,1,127.5
243,91,135227,1,8,0:0:0:0:
136,52,135403,5,0,0:0:0:0:
134,73,135490,1,0,0:0:0:0:
132,94,135578,1,0,0:0:0:0:
196,164,135754,1,8,0:0:0:0:
198,143,135842,1,0,0:0:0:0:
200,122,135929,1,8,0:0:0:0:
268,192,136104,1,0,0:0:0:0:
266,213,136191,1,0,0:0:0:0:
264,244,136280,2,0,B|312:284|312:284|388:276,2,127.5,0|8|0,0:0|0:0|0:0,0:0:0:0:
160,164,136982,5,0,0:0:0:0:
125,140,137069,1,0,0:0:0:0:
84,145,137157,1,0,0:0:0:0:
56,177,137245,1,0,0:0:0:0:
58,215,137332,1,8,0:0:0:0:
92,240,137420,1,0,0:0:0:0:
136,240,137508,1,0,0:0:0:0:
176,252,137596,1,0,0:0:0:0:
204,284,137683,5,0,0:0:0:0:
264,152,137859,1,0,0:0:0:0:
308,288,138034,1,8,0:0:0:0:
156,160,138210,2,0,P|220:164|256:152,1,85
364,48,138561,2,0,P|300:44|264:56,1,85,8|0,0:0|0:0,0:0:0:0:
328,128,138911,1,0,0:0:0:0:
448,208,139087,5,0,0:0:0:0:
344,272,139262,1,0,0:0:0:0:
404,112,139438,1,0,0:0:0:0:
284,188,139613,1,0,0:0:0:0:
242,197,139700,1,0,0:0:0:0:
200,194,139788,1,0,0:0:0:0:
48,188,139964,1,8,0:0:0:0:
156,288,140139,1,8,0:0:0:0:
100,124,140315,1,0,0:0:0:0:
100,124,140490,6,0,B|156:120|160:36|160:36|228:88,1,170,0|8,0:0|0:0,0:0:0:0:
280,128,141017,1,0,0:0:0:0:
280,128,141192,2,0,P|352:116|384:100,1,85,0|8,0:0|0:0,0:0:0:0:
476,224,141543,2,0,P|404:212|372:196,1,85,0|8,0:0|0:0,0:0:0:0:
412,44,141894,5,8,0:0:0:0:
272,244,142069,1,0,0:0:0:0:
480,144,142245,1,8,0:0:0:0:
312,112,142420,1,0,0:0:0:0:
392,248,142596,1,8,0:0:0:0:
388,80,142771,1,0,0:0:0:0:
228,180,142947,2,0,P|190:212|134:208,1,85,8|0,0:0|0:0,0:0:0:0:
39,156,143297,6,0,P|83:124|167:136,1,127.500004863739,0|8,0:0|0:0,0:0:0:0:
228,180,143999,1,8,0:0:0:0:
112,204,144175,1,0,0:0:0:0:
176,68,144350,1,0,0:0:0:0:
342,210,144525,6,0,P|298:178|214:186,1,127.500004863739,8|0,0:0|0:0,0:0:0:0:
215,309,145052,2,0,L|271:253,2,63.7500024318696,8|0|0,0:0|0:0|0:0,0:0:0:0:
154,384,145754,1,8,0:0:0:0:
356,248,146104,5,0,0:0:0:0:
322,221,146191,1,0,0:0:0:0:
305,183,146279,1,0,0:0:0:0:
328,96,146455,1,8,0:0:0:0:
460,116,146631,1,0,0:0:0:0:
433,149,146718,1,0,0:0:0:0:
395,166,146806,1,0,0:0:0:0:
292,180,146982,1,0,0:0:0:0:
336,92,147157,1,8,0:0:0:0:
352,256,147332,1,0,0:0:0:0:
216,208,147508,6,0,P|144:188|128:168,1,85
88,80,147859,1,8,0:0:0:0:
12,245,148034,2,0,P|6:170|19:148,1,85
88,80,148385,1,0,0:0:0:0:
128,180,148561,1,8,0:0:0:0:
20,80,148736,1,0,0:0:0:0:
168,48,148911,6,0,L|224:40,2,42.5
324,24,149262,1,8,0:0:0:0:
244,140,149438,2,0,L|300:132,2,42.5
400,116,149789,1,0,0:0:0:0:
320,232,149964,2,0,L|376:224,1,42.5,8|0,0:0|0:0,0:0:0:0:
444,212,150139,1,0,0:0:0:0:
276,168,150315,5,0,0:0:0:0:
244,140,150402,1,0,0:0:0:0:
204,124,150490,1,0,0:0:0:0:
162,122,150578,1,0,0:0:0:0:
122,134,150665,1,8,0:0:0:0:
16,92,150841,5,0,0:0:0:0:
7,132,150928,1,0,0:0:0:0:
13,175,151016,1,0,0:0:0:0:
32,212,151104,1,0,0:0:0:0:
63,241,151192,2,0,L|110:230,1,42.5
160,312,151368,2,0,L|206:327,1,42.5
256,244,151543,2,0,L|302:229,1,42.5
404,256,151718,5,0,0:0:0:0:
440,60,151894,1,0,0:0:0:0:
440,60,152069,1,8,0:0:0:0:
344,196,152245,1,0,0:0:0:0:
308,0,152421,1,0,0:0:0:0:
308,0,152596,1,0,0:0:0:0:
156,144,152771,1,8,0:0:0:0:
352,108,152947,1,0,0:0:0:0:
224,60,153122,5,0,0:0:0:0:
260,256,153297,1,0,0:0:0:0:
260,256,153473,1,8,0:0:0:0:
296,108,153648,1,0,0:0:0:0:
120,208,153824,1,0,0:0:0:0:
300,304,153999,1,0,0:0:0:0:
212,164,154175,2,0,P|184:116|184:88,1,85,8|0,0:0|0:0,0:0:0:0:
339,23,154525,2,0,P|336:65|311:100,1,85
332,240,154876,1,0,0:0:0:0:
332,240,155052,6,0,P|290:236|255:212,1,85
164,100,155403,1,0,0:0:0:0:
120,248,155578,1,8,0:0:0:0:
304,136,155754,1,0,0:0:0:0:
152,228,155929,5,0,0:0:0:0:
189,208,156016,1,0,0:0:0:0:
232,184,156104,2,0,L|281:160,1,42.5
436,196,156280,5,8,0:0:0:0:
399,216,156367,1,0,0:0:0:0:
361,236,156455,2,0,L|312:260,1,42.5
212,276,156631,5,0,0:0:0:0:
172,264,156718,1,0,0:0:0:0:
140,236,156806,1,0,0:0:0:0:
120,200,156894,1,0,0:0:0:0:
112,160,156981,1,8,0:0:0:0:
116,116,157069,1,0,0:0:0:0:
140,80,157157,1,0,0:0:0:0:
176,56,157245,1,0,0:0:0:0:
216,60,157332,6,0,P|276:72|312:64,1,85
440,44,157683,1,8,0:0:0:0:
356,172,157859,2,0,L|360:236,2,42.5
224,104,158210,2,0,L|221:61,2,42.5,0|0|8,0:0|0:0|0:0,0:0:0:0:
296,244,158560,1,0,0:0:0:0:
172,336,158736,6,0,P|132:304|112:252,1,85
115,106,159087,2,0,P|155:138|175:190,1,85,8|0,0:0|0:0,0:0:0:0:
208,264,159438,1,0,0:0:0:0:
40,208,159613,1,0,0:0:0:0:
120,32,159789,1,8,0:0:0:0:
171,168,159964,1,0,0:0:0:0:
40,116,160139,6,0,B|80:96|80:96|156:100,1,85
228,176,160490,2,0,B|268:196|268:196|344:192,1,85,8|0,0:0|0:0,0:0:0:0:
340,184,160754,1,0,0:0:0:0:
376,156,160841,1,0,0:0:0:0:
432,56,161017,1,0,0:0:0:0:
280,108,161192,1,8,0:0:0:0:
416,224,161368,1,0,0:0:0:0:
332,20,161543,5,0,0:0:0:0:
272,236,161718,1,0,0:0:0:0:
472,152,161894,1,8,0:0:0:0:
260,120,162069,1,0,0:0:0:0:
392,220,162245,1,8,0:0:0:0:
180,188,162420,1,0,0:0:0:0:
244,320,162596,1,8,0:0:0:0:
283,335,162683,1,0,0:0:0:0:
325,334,162771,1,0,0:0:0:0:
364,316,162859,1,0,0:0:0:0:
392,285,162947,6,0,L|416:192,2,85,0|0|8,0:0|0:0|0:0,0:0:0:0:
296,216,163473,2,0,L|274:133,1,85
140,88,163824,1,0,0:0:0:0:
60,208,163999,2,0,L|153:232,1,85,8|0,0:0|0:0,0:0:0:0:
280,112,164350,6,0,L|187:136,2,85,0|0|8,0:0|0:0|0:0,0:0:0:0:
384,212,164876,2,0,L|477:236,2,85
256,168,165403,1,8,0:0:0:0:
328,272,165578,1,0,0:0:0:0:
358,121,165754,5,0,0:0:0:0:
195,198,165929,1,0,0:0:0:0:
361,300,166104,1,8,0:0:0:0:
275,95,166280,1,0,0:0:0:0:
198,300,166455,1,0,0:0:0:0:
412,227,166631,1,0,0:0:0:0:
172,160,166806,1,8,0:0:0:0:
358,297,166982,1,0,0:0:0:0:
296,168,167157,5,0,0:0:0:0:
264,127,167244,1,0,0:0:0:0:
220,101,167332,1,0,0:0:0:0:
169,95,167420,1,0,0:0:0:0:
119,109,167507,1,0,0:0:0:0:
79,141,167595,1,0,0:0:0:0:
60,188,167683,1,0,0:0:0:0:
60,188,167771,1,0,0:0:0:0:
60,188,167859,1,0,0:0:0:0:
264,244,168034,6,0,P|271:165|211:197,1,170
204,340,168561,5,4,0:0:0:0:
260,204,171368,5,4,0:0:0:0:
104,128,172771,5,4,0:0:0:0:
268,240,173473,5,0,0:0:0:0:
268,240,173648,1,0,0:0:0:0:
268,240,173824,1,0,0:0:0:0:
268,240,173999,1,0,0:0:0:0:
116,116,174175,5,4,0:0:0:0:
116,116,176982,5,4,0:0:0:0:
284,116,178385,5,4,0:0:0:0:
360,248,179087,6,0,L|400:296,2,56.6666666666667,8|0|0,3:2|3:2|3:2,3:2:0:0:
260,196,179438,2,0,L|256:252,2,56.6666666666667,8|0|0,3:2|3:2|3:2,3:2:0:0:
280,92,179789,6,0,L|284:48,1,31.8750012159348,8|0,0:0|0:0,0:0:0:0:
396,136,179964,2,0,L|400:92,1,31.8750012159348
508,184,180139,2,0,L|512:140,1,31.8750012159348,8|0,0:0|0:0,0:0:0:0:
408,272,180315,2,0,L|404:316,1,31.8750012159348
288,296,180490,5,0,0:0:0:0:
272,297,180577,1,0,0:0:0:0:
256,299,180665,1,0,0:0:0:0:
240,301,180753,1,0,0:0:0:0:
224,303,180840,1,8,0:0:0:0:
208,305,180928,1,0,0:0:0:0:
193,306,181016,1,0,0:0:0:0:
180,308,181104,5,0,0:0:0:0:
160,304,181192,1,0,0:0:0:0:
136,282,181279,1,0,0:0:0:0:
122,254,181367,1,0,0:0:0:0:
130,223,181455,1,0,0:0:0:0:
155,205,181543,1,8,0:0:0:0:
178,183,181630,1,0,0:0:0:0:
192,155,181718,1,0,0:0:0:0:
184,124,181806,1,0,0:0:0:0:
159,106,181894,6,0,L|104:88,3,31.8750012159348,0|0|0|0,0:0|0:0|0:0|0:0,0:0:0:0:
252,212,182245,2,0,L|307:230,3,31.8750012159348,8|0|0|0,0:0|0:0|0:0|0:0,0:0:0:0:
288,72,182596,1,0,0:0:0:0:
319,69,182683,1,0,0:0:0:0:
348,82,182771,1,0,0:0:0:0:
366,108,182859,1,0,0:0:0:0:
369,139,182947,1,8,0:0:0:0:
366,170,183034,1,0,0:0:0:0:
379,199,183122,1,0,0:0:0:0:
405,217,183210,1,0,0:0:0:0:
436,220,183297,6,0,L|468:220,1,31.8750012159348,0|0,0:0|0:0,0:0:0:0:
424,316,183473,2,0,L|392:315,1,31.8750012159348,0|0,0:0|0:0,0:0:0:0:
296,188,183648,2,0,L|327:187,1,31.8750012159348,8|0,0:0|0:0,0:0:0:0:
264,316,183824,2,0,L|232:315,1,31.8750012159348,0|0,0:0|0:0,0:0:0:0:
104,312,183999,6,0,L|92:356,3,31.8750012159348,0|0|0|0,0:0|0:0|0:0|0:0,0:0:0:0:
128,264,184350,1,8,0:0:0:0:
158,213,184437,1,8,0:0:0:0:
162,154,184525,1,8,0:0:0:0:
139,100,184613,1,8,0:0:0:0:
100,64,184701,6,0,L|44:56,3,31.8750012159348
139,100,185052,1,8,0:0:0:0:
188,131,185139,1,0,0:0:0:0:
248,135,185227,1,8,0:0:0:0:
301,112,185315,1,0,0:0:0:0:
348,88,185403,5,0,0:0:0:0:
378,95,185490,1,0,0:0:0:0:
405,112,185578,1,0,0:0:0:0:
424,137,185666,1,0,0:0:0:0:
434,167,185753,1,8,0:0:0:0:
434,199,185841,1,0,0:0:0:0:
423,229,185929,1,0,0:0:0:0:
403,253,186017,1,0,0:0:0:0:
376,270,186104,6,0,L|380:316,3,31.8750012159348,0|0|0|0,0:0|0:0|0:0|0:0,0:0:0:0:
296,144,186455,2,0,L|292:98,3,31.8750012159348,8|0|0|0,0:0|0:0|0:0|0:0,0:0:0:0:
281,163,186806,5,0,0:0:0:0:
255,182,186893,1,0,0:0:0:0:
225,192,186981,1,0,0:0:0:0:
194,194,187069,1,0,0:0:0:0:
163,186,187157,1,8,0:0:0:0:
143,211,187244,1,0,0:0:0:0:
133,241,187332,1,0,0:0:0:0:
131,272,187420,1,0,0:0:0:0:
139,303,187508,6,0,L|184:280,1,31.8750012159348
272,236,187683,2,0,L|227:213,1,31.8750012159348
68,192,187859,2,0,L|113:169,1,31.8750012159348,8|0,0:0|0:0,0:0:0:0:
272,112,188034,2,0,L|227:89,1,31.8750012159348,8|0,0:0|0:0,0:0:0:0:
144,68,188210,5,0,0:0:0:0:
153,108,188297,1,0,0:0:0:0:
180,141,188385,1,0,0:0:0:0:
218,159,188473,1,0,0:0:0:0:
261,158,188561,1,8,0:0:0:0:
301,167,188648,1,0,0:0:0:0:
334,194,188736,1,0,0:0:0:0:
352,232,188824,1,0,0:0:0:0:
351,275,188911,5,0,0:0:0:0:
404,264,188998,1,0,0:0:0:0:
447,231,189086,1,0,0:0:0:0:
472,183,189174,1,0,0:0:0:0:
473,129,189261,1,8,0:0:0:0:
451,80,189349,1,0,0:0:0:0:
410,45,189437,1,0,0:0:0:0:
357,31,189525,1,0,0:0:0:0:
308,48,189613,6,0,L|272:92,1,42.5
184,180,189789,2,0,L|236:192,1,42.5,0|0,0:0|0:0,0:0:0:0:
340,180,189964,6,0,L|296:144,1,42.5,0|0,0:0|0:0,0:0:0:0:
208,56,190140,2,0,L|196:108,1,42.5,0|0,0:0|0:0,0:0:0:0:
176,284,190315,2,0,L|224:268,1,42.5,8|0,0:0|0:0,0:0:0:0:
353,139,190490,2,0,L|337:187,1,42.5,8|0,0:0|0:0,0:0:0:0:
412,348,190666,2,0,L|374:314,1,42.5,8|0,0:0|0:0,0:0:0:0:
254,165,190841,1,8,0:0:0:0:
254,165,190929,1,8,0:0:0:0:
254,165,191017,6,0,P|306:153|370:221,1,127.500004863739,8|0,0:0|0:0,0:0:0:0:
368,272,191718,5,8,0:0:0:0:
488,152,191894,1,0,0:0:0:0:
312,104,192069,1,0,0:0:0:0:
396,32,192245,2,0,L|399:177,1,127.500004863739,8|0,0:0|0:0,0:0:0:0:
320,252,192771,2,0,B|304:284|304:284|304:332,2,63.7500024318696,0|0|8,0:0|0:0|0:0,0:0:0:0:
396,308,193297,1,0,0:0:0:0:
144,240,193473,1,0,0:0:0:0:
56,96,193824,6,0,L|167:105,1,85,4|0,0:0|0:0,0:0:0:0:
336,116,194175,1,8,0:0:0:0:
280,232,194350,1,0,0:0:0:0:
238,237,194437,1,0,0:0:0:0:
197,225,194525,1,0,0:0:0:0:
80,184,194701,1,0,0:0:0:0:
96,352,194876,2,0,P|172:316|180:304,1,85,8|0,0:0|0:0,0:0:0:0:
296,196,195227,6,0,P|262:170|221:161,1,85,0|0,0:0|0:0,0:0:0:0:
120,152,195578,1,8,0:0:0:0:
208,248,195754,1,0,0:0:0:0:
317,54,195929,1,0,0:0:0:0:
229,150,196105,1,0,0:0:0:0:
112,44,196280,2,0,P|96:108|104:144,1,85,8|0,0:0|0:0,0:0:0:0:
112,160,196543,1,0,0:0:0:0:
136,192,196631,1,4,0:0:0:0:
340,148,196807,5,0,0:0:0:0:
232,64,196982,1,8,0:0:0:0:
240,252,197157,1,0,0:0:0:0:
408,160,197332,2,0,P|480:176|504:192,2,85,0|0|8,0:0|0:0|0:0,0:0:0:0:
268,176,197859,1,0,0:0:0:0:
382,320,198034,6,0,P|399:282|404:240,1,85
289,95,198385,1,8,0:0:0:0:
273,134,198472,1,0,0:0:0:0:
266,176,198560,1,0,0:0:0:0:
267,218,198648,1,0,0:0:0:0:
276,260,198736,5,8,0:0:0:0:
224,256,198823,1,0,0:0:0:0:
178,236,198911,1,0,0:0:0:0:
141,201,198999,1,0,0:0:0:0:
121,154,199086,5,8,0:0:0:0:
208,64,199262,1,0,0:0:0:0:
224,256,199438,6,0,L|238:345,2,85,4|0|8,0:0|0:0|0:0,0:0:0:0:
168,152,199964,1,0,0:0:0:0:
108,248,200139,1,0,0:0:0:0:
240,168,200315,1,0,0:0:0:0:
52,120,200490,1,8,0:0:0:0:
248,284,200666,1,0,0:0:0:0:
336,68,200841,5,4,0:0:0:0:
336,68,201017,2,0,P|280:96|256:96,1,85,0|8,0:0|0:0,0:0:0:0:
68,112,201368,1,0,0:0:0:0:
68,112,201544,2,0,P|124:140|148:140,1,85,0|0,0:0|0:0,0:0:0:0:
268,132,201894,1,8,0:0:0:0:
176,64,202069,1,0,0:0:0:0:
168,256,202245,5,4,0:0:0:0:
368,176,202420,1,0,0:0:0:0:
116,168,202596,1,8,0:0:0:0:
256,336,202771,1,0,0:0:0:0:
256,336,202947,2,0,P|332:328|356:312,1,85,0|0,0:0|0:0,0:0:0:0:
420,188,203298,2,0,P|344:196|320:212,1,85,8|0,0:0|0:0,0:0:0:0:
388,268,203648,5,12,0:0:0:0:
396,226,203735,1,0,0:0:0:0:
390,184,203823,1,0,0:0:0:0:
370,147,203911,1,0,0:0:0:0:
344,120,203999,5,8,0:0:0:0:
300,138,204086,1,0,0:0:0:0:
256,157,204174,1,0,0:0:0:0:
214,176,204262,1,0,0:0:0:0:
164,192,204350,5,0,0:0:0:0:
157,144,204437,1,0,0:0:0:0:
167,96,204525,1,0,0:0:0:0:
193,55,204613,1,0,0:0:0:0:
231,26,204700,1,0,0:0:0:0:
277,10,204788,1,0,0:0:0:0:
325,12,204876,1,0,0:0:0:0:
370,29,204964,1,0,0:0:0:0:
408,56,205052,6,0,P|452:68|504:52,1,85,12|0,0:0|0:0,0:0:0:0:
444,184,205403,2,0,P|400:172|348:188,1,85,8|0,0:0|0:0,0:0:0:0:
328,196,205666,1,0,0:0:0:0:
304,228,205754,1,0,0:0:0:0:
240,352,205929,1,0,0:0:0:0:
208,328,206017,1,0,0:0:0:0:
191,293,206105,2,0,P|183:251|195:211,1,85,8|0,0:0|0:0,0:0:0:0:
260,80,206455,1,0,0:0:0:0:
356,204,206631,1,0,0:0:0:0:
152,116,206806,1,8,0:0:0:0:
312,140,206982,5,0,0:0:0:0:
312,140,207069,1,0,0:0:0:0:
312,140,207157,1,0,0:0:0:0:
116,184,207332,1,0,0:0:0:0:
260,292,207508,2,0,L|248:208,1,85,8|0,0:0|0:0,0:0:0:0:
160,32,207859,2,0,L|172:116,1,85,4|0,0:0|0:0,0:0:0:0:
384,64,208210,2,0,L|372:148,1,85,8|0,0:0|0:0,0:0:0:0:
240,44,208561,2,0,L|252:128,1,85
464,52,208911,2,0,L|452:136,1,85,8|0,0:0|0:0,0:0:0:0:
432,260,209262,5,8,0:0:0:0:
425,302,209349,1,0,0:0:0:0:
419,344,209437,1,0,0:0:0:0:
302,308,209613,5,8,0:0:0:0:
310,256,209701,1,0,0:0:0:0:
317,206,209788,1,0,0:0:0:0:
202,153,209964,5,8,0:0:0:0:
194,211,210051,1,0,0:0:0:0:
185,272,210139,2,0,L|180:316,1,42.5,0|0,0:0|0:0,0:0:0:0:
60,244,210315,2,0,L|54:200,1,42.5,8|0,0:0|0:0,0:0:0:0:
168,60,210490,2,0,L|162:103,1,42.5
148,196,210666,1,4,0:0:0:0:
244,0,210841,5,0,0:0:0:0:
352,96,211017,1,8,0:0:0:0:
136,152,211192,1,0,0:0:0:0:
272,44,211368,1,0,0:0:0:0:
272,44,211543,1,0,0:0:0:0:
288,260,211718,1,8,0:0:0:0:
288,260,211894,1,0,0:0:0:0:
180,164,212070,5,4,0:0:0:0:
396,108,212245,1,0,0:0:0:0:
344,316,212420,1,8,0:0:0:0:
242,112,212596,1,0,0:0:0:0:
452,268,212771,1,0,0:0:0:0:
252,284,212946,1,0,0:0:0:0:
440,72,213122,1,8,0:0:0:0:
376,336,213297,1,0,0:0:0:0:
136,192,213473,5,4,0:0:0:0:
304,92,213648,1,0,0:0:0:0:
264,304,213824,1,8,0:0:0:0:
160,68,213999,1,0,0:0:0:0:
412,184,214174,1,0,0:0:0:0:
220,236,214350,1,0,0:0:0:0:
384,60,214525,1,8,0:0:0:0:
324,340,214701,1,0,0:0:0:0:
508,116,214876,5,0,0:0:0:0:
461,89,214963,1,0,0:0:0:0:
410,80,215051,1,0,0:0:0:0:
356,87,215139,1,0,0:0:0:0:
309,109,215226,1,0,0:0:0:0:
260,131,215314,1,0,0:0:0:0:
208,139,215402,1,0,0:0:0:0:
157,128,215490,1,0,0:0:0:0:
112,101,215577,1,0,0:0:0:0:
256,28,215754,6,0,B|272:80|240:128|240:128|272:160|272:160|232:216|256:264,1,255
