osu file format v14

[General]
AudioFilename: audio.mp3
AudioLeadIn: 0
PreviewTime: 148927
Countdown: 0
SampleSet: Soft
StackLeniency: 0.7
Mode: 0
LetterboxInBreaks: 0
WidescreenStoryboard: 1

[Editor]
DistanceSpacing: 1
BeatDivisor: 4
GridSize: 32
TimelineZoom: 0.7999998

[Metadata]
Title:Here We Go Again
TitleUnicode:Here We Go Again
Artist:Paramore
ArtistUnicode:Paramore
Creator:Ruiz Duchamp
Version:Normal
Source:
Tags:all we know is falling english punk rock alternative
BeatmapID:4091618
BeatmapSetID:1897276

[Difficulty]
HPDrainRate:5
CircleSize:3.5
OverallDifficulty:5
ApproachRate:5
SliderMultiplier:1.15
SliderTickRate:1

[Events]
//Background and Video events
0,0,"34.jpeg",0,0
//Break Periods
2,57127,59727
2,121127,123727
//Storyboard Layer 0 (Background)
//Storyboard Layer 1 (Fail)
//Storyboard Layer 2 (Pass)
//Storyboard Layer 3 (Foreground)
//Storyboard Layer 4 (Overlay)
//Storyboard Sound Samples

[TimingPoints]
927,500,4,2,1,50,1,0
180927,-125,4,2,1,60,0,1
211927,526.315789473684,4,2,1,60,1,1
212979,-100,4,2,1,60,0,0
217420,-100,4,2,1,10,0,0

[Colours]
Combo1 : 17,254,176
Combo2 : 173,255,95
Combo3 : 255,88,100
Combo4 : 255,94,55

[HitObjects]
28,67,927,6,0,P|101:72|166:62,1,115,2|8,1:0|1:0,2:0:0:0:
189,100,1677,1,2,1:0:0:0:
290,45,2177,2,0,P|328:47|353:46,1,57.5,2|8,2:1|1:0,2:0:0:0:
389,85,2677,2,0,P|389:154|397:211,1,115,2|2,1:0|1:0,2:0:0:0:
365,248,3427,1,8,1:0:0:0:
390,299,3677,2,0,L|458:306,2,57.5,2|2|2,1:0|1:0|2:1,2:0:0:0:
347,337,4427,1,10,1:0:0:0:
238,299,4927,6,0,P|202:301|175:298,1,57.5,2|0,1:0|2:0,2:0:0:0:
136,334,5427,1,8,1:0:0:0:
136,334,5677,2,0,P|105:275|100:219,1,115,2|2,1:0|2:1,2:0:0:0:
104,170,6427,1,8,1:0:0:0:
156,145,6677,1,2,1:0:0:0:
244,218,7177,1,2,1:0:0:0:
352,174,7677,1,2,2:0:0:0:
352,174,7927,2,0,P|389:178|418:174,1,57.5,2|2,1:0|2:0,2:0:0:0:
460,201,8427,1,8,1:0:0:0:
482,89,8927,5,2,1:0:0:0:
378,39,9427,2,0,L|296:35,1,57.5,10|0,1:0|2:0,2:0:0:0:
277,73,9927,1,2,1:0:0:0:
277,73,10177,1,0,2:0:0:0:
224,48,10427,2,2,P|158:55|99:44,1,115,10|2,1:0|1:0,2:1:0:0:
50,145,11427,2,0,P|51:195|46:222,1,57.5,10|2,1:0|2:0,2:0:0:0:
89,251,11927,1,2,1:0:0:0:
89,251,12177,1,2,2:0:0:0:
142,229,12427,2,0,P|186:233|214:227,1,57.5,8|2,1:0|2:0,2:0:0:0:
239,272,12927,6,2,P|315:276|371:262,1,115,2|10,1:0|1:0,2:1:0:0:
461,306,13927,2,0,P|465:274|463:241,1,57.5,2|0,1:0|2:0,2:0:0:0:
501,204,14427,1,10,1:0:0:0:
393,161,14927,2,0,P|389:85|400:27,1,115,2|10,1:0|1:0,2:0:0:0:
347,14,15677,1,2,2:0:0:0:
299,47,15927,2,0,L|236:56,1,57.5,2|2,1:0|2:0,2:0:0:0:
190,29,16427,1,10,1:0:0:0:
155,75,16677,1,2,2:0:0:0:
102,51,16927,6,0,P|99:120|87:180,1,115,2|10,1:0|1:0,2:0:0:0:
20,256,17927,1,2,1:0:0:0:
105,333,18427,1,10,1:0:0:0:
179,244,18927,2,0,P|252:241|316:220,1,115,2|10,1:0|1:0,2:0:0:0:
340,270,19677,1,2,2:0:0:0:
340,270,19927,2,0,L|416:279,1,57.5,2|2,1:0|2:0,2:0:0:0:
453,257,20427,1,10,1:0:0:0:
453,257,20677,1,2,2:0:0:0:
481,307,20927,5,2,1:0:0:0:
389,377,21427,1,8,1:0:0:0:
339,359,21677,1,2,2:0:0:0:
339,359,21927,2,2,P|266:356|202:335,1,115,2|8,1:0|1:0,2:1:0:0:
174,317,22677,1,2,2:0:0:0:
123,343,22927,1,2,1:0:0:0:
61,245,23427,1,10,1:0:0:0:
145,166,23927,2,0,P|184:170|211:167,1,57.5,2|8,1:0|2:1,2:0:0:0:
248,202,24427,1,10,2:1:0:0:
248,202,24677,1,4,2:3:0:0:
294,168,24927,5,6,1:0:0:0:
386,236,25427,2,2,P|383:302|388:356,2,115,2|8|8,1:0|1:0|1:0,2:1:0:0:
428,196,26677,1,4,2:3:0:0:
471,91,27177,1,8,1:0:0:0:
471,91,27427,1,4,2:3:0:0:
384,14,27927,2,2,P|329:20|247:11,1,115,10|2,1:0|2:3,2:1:0:0:
232,60,28677,1,0,2:0:0:0:
174,53,28927,5,6,1:0:0:0:
105,145,29427,1,2,1:0:0:0:
193,218,29927,1,10,1:0:0:0:
267,130,30427,1,10,1:0:0:0:
267,130,30677,1,4,2:3:0:0:
314,162,30927,2,0,P|315:243|320:280,1,115,2|4,2:3|2:3,2:0:0:0:
334,332,31677,2,0,L|401:337,1,57.5,4|14,2:3|1:0,2:0:0:0:
443,311,32177,1,0,2:0:0:0:
488,346,32427,1,14,1:0:0:0:
510,233,32927,6,2,P|509:152|504:115,1,115,6|4,1:0|2:3,2:1:0:0:
461,79,33677,1,4,2:3:0:0:
416,114,33927,1,10,1:0:0:0:
325,42,34427,1,8,1:0:0:0:
277,75,34677,1,4,2:3:0:0:
170,31,35177,1,10,1:0:0:0:
121,61,35427,2,0,L|51:54,1,57.5,2|4,1:0|2:3,2:0:0:0:
25,98,35927,1,10,1:0:0:0:
50,149,36177,1,4,1:0:0:0:
27,201,36427,1,4,2:3:0:0:
88,298,36927,6,2,P|28:329|-1:366,2,115,6|2|14,1:0|1:0|1:0,2:1:0:0:
191,246,38427,1,14,1:0:0:0:
252,343,38927,1,2,1:0:0:0:
350,283,39427,1,2,1:0:0:0:
397,314,39677,2,0,P|426:312|469:318,1,57.5,2|8,1:0|1:0,2:0:0:0:
493,272,40177,2,2,P|509:213|510:150,1,115,2|0,2:3|2:0,2:1:0:0:
479,111,40927,5,4,1:0:0:0:
368,142,41427,2,2,P|352:83|351:20,2,115,2|10|8,1:0|1:0|1:0,2:1:0:0:
353,197,42677,1,2,1:0:0:0:
249,147,43177,1,8,1:0:0:0:
198,175,43427,2,0,P|199:218|196:243,1,57.5,4|4,2:3|2:3,2:0:0:0:
228,280,43927,1,10,1:0:0:0:
149,363,44427,1,2,2:3:0:0:
59,290,44927,5,6,1:0:0:0:
84,238,45177,1,4,2:3:0:0:
60,185,45427,1,6,1:0:0:0:
129,93,45927,1,10,1:0:0:0:
222,159,46427,2,0,P|264:157|297:164,1,57.5,8|4,1:0|2:3,2:0:0:0:
334,144,46927,1,2,1:0:0:0:
378,179,47177,1,8,1:0:0:0:
428,151,47427,1,2,1:0:0:0:
485,51,47927,1,10,1:0:0:0:
380,2,48427,2,0,P|348:5|312:1,1,57.5,2|4,2:3|2:3,2:0:0:0:
281,43,48927,5,6,1:0:0:0:
334,144,49427,1,2,1:3:0:0:
279,245,49927,2,0,P|247:248|209:244,1,57.5,10|0,1:0|2:0,2:0:0:0:
182,288,50427,1,8,1:0:0:0:
211,337,50677,1,2,1:0:0:0:
168,375,50927,2,0,P|136:372|98:376,1,57.5,0|8,2:0|1:0,2:0:0:0:
69,342,51427,1,4,2:3:0:0:
69,342,51677,1,4,2:3:0:0:
88,287,51927,2,2,P|92:234|86:172,1,115,8|2,1:0|2:0,2:1:0:0:
171,96,52927,5,6,1:0:0:0:
171,96,53177,1,4,2:3:0:0:
171,96,53427,1,6,1:0:0:0:
171,96,53677,1,4,2:3:0:0:
171,96,53927,1,10,1:0:0:0:
250,12,54427,1,8,1:0:0:0:
338,84,54927,1,2,1:0:0:0:
265,173,55427,2,0,P|266:214|263:237,1,57.5,2|4,1:0|2:3,2:0:0:0:
307,268,55927,1,10,1:0:0:0:
358,242,56177,1,0,2:0:0:0:
404,276,56427,2,0,P|403:317|406:340,1,57.5,8|4,2:3|2:3,2:0:0:0:
455,360,56927,1,6,1:0:0:0:
455,360,60927,6,0,P|458:329|454:293,1,57.5,2|2,1:0|2:0,2:0:0:0:
414,263,61427,1,10,1:0:0:0:
363,290,61677,2,2,P|309:288|240:253,1,115,2|2,1:0|2:1,2:1:0:0:
228,212,62427,1,8,1:0:0:0:
257,162,62677,1,2,1:0:0:0:
319,65,63177,1,2,1:0:0:0:
219,6,63677,1,2,2:0:0:0:
170,37,63927,2,0,P|137:33|99:36,1,57.5,2|2,1:0|2:0,2:0:0:0:
65,1,64427,1,10,1:0:0:0:
15,104,64927,6,2,P|16:146|13:182,1,57.5,2|0,1:0|2:0,2:1:0:0:
61,196,65427,1,10,1:0:0:0:
117,184,65677,2,2,P|115:255|125:313,1,115,2|2,1:0|1:0,2:1:0:0:
168,331,66427,1,8,1:0:0:0:
221,309,66677,1,2,1:0:0:0:
308,234,67177,2,0,P|348:236|375:233,1,57.5,2|8,1:0|1:0,2:0:0:0:
413,266,67677,1,2,1:0:0:0:
462,236,67927,1,2,1:0:0:0:
456,178,68177,1,2,2:1:0:0:
416,135,68427,2,0,P|413:87|417:59,1,57.5,8|2,1:0|1:0,2:0:0:0:
373,36,68927,5,2,1:0:0:0:
285,111,69427,2,0,P|253:108|217:111,1,57.5,10|2,1:0|2:0,2:0:0:0:
186,69,69927,2,2,P|149:83|64:88,1,115,2|10,1:0|1:0,2:1:0:0:
47,140,70677,1,0,2:0:0:0:
70,192,70927,1,2,1:0:0:0:
41,303,71427,1,10,1:0:0:0:
147,258,71927,2,0,P|187:263|211:261,1,57.5,2|2,1:0|2:0,2:0:0:0:
242,305,72427,1,10,1:0:0:0:
295,284,72677,1,2,2:0:0:0:
345,310,72927,5,2,1:0:0:0:
443,251,73427,2,0,P|441:221|443:178,1,57.5,10|0,1:0|2:0,2:0:0:0:
407,147,73927,1,2,1:0:0:0:
433,96,74177,1,2,2:0:0:0:
403,46,74427,1,10,1:0:0:0:
292,13,74927,2,0,P|237:20|165:11,1,115,2|10,1:0|1:0,2:0:0:0:
146,62,75677,1,2,2:0:0:0:
94,35,75927,2,0,P|57:38|33:38,1,57.5,2|2,1:0|2:0,2:0:0:0:
12,90,76427,1,10,1:0:0:0:
91,173,76927,5,2,1:0:0:0:
26,268,77427,2,0,P|27:309|22:336,1,57.5,10|2,1:0|2:0,2:0:0:0:
74,353,77927,1,2,1:0:0:0:
126,328,78177,1,2,2:0:0:0:
174,358,78427,2,2,P|249:365|287:380,2,115,10|2|10,1:0|1:0|1:0,2:1:0:0:
144,246,79927,1,2,1:0:0:0:
190,140,80427,2,0,P|226:143|264:140,1,57.5,10|2,1:0|2:0,2:0:0:0:
293,176,80927,5,2,1:0:0:0:
396,109,81427,1,10,1:0:0:0:
445,138,81677,1,0,2:0:0:0:
501,127,81927,2,2,P|502:209|495:255,1,115,2|10,1:0|1:0,2:1:0:0:
446,268,82677,1,2,2:0:0:0:
393,245,82927,1,2,1:0:0:0:
323,336,83427,1,10,1:0:0:0:
227,271,83927,2,0,P|229:238|228:211,1,57.5,2|8,1:0|2:1,2:0:0:0:
266,171,84427,1,10,2:1:0:0:
321,70,84927,5,6,1:0:0:0:
218,18,85427,2,2,P|143:26|25:11,1,172.5,2|2,1:0|2:0,2:1:0:0:
13,63,86427,2,0,P|14:103|12:125,1,57.5,8|4,1:0|2:3,2:0:0:0:
42,169,86927,1,2,2:0:0:0:
15,220,87177,1,8,1:0:0:0:
48,266,87427,1,4,2:3:0:0:
151,215,87927,1,10,1:0:0:0:
208,314,88427,1,2,2:3:0:0:
306,254,88927,6,0,P|346:259|399:248,1,57.5,6|4,1:0|2:3,2:0:0:0:
406,295,89427,1,2,1:0:0:0:
483,209,89927,1,10,1:0:0:0:
394,136,90427,1,10,1:0:0:0:
423,86,90677,1,4,2:3:0:0:
386,41,90927,2,0,P|353:45|312:37,1,57.5,2|8,2:0|1:0,2:0:0:0:
281,74,91427,1,2,1:0:0:0:
227,53,91677,2,0,P|195:55|150:45,1,57.5,2|8,1:0|1:0,2:0:0:0:
134,96,92177,1,2,1:0:0:0:
166,143,92427,1,12,1:0:0:0:
134,253,92927,6,2,P|67:258|-6:284,1,115,6|4,1:0|2:3,2:1:0:0:
0,325,93677,1,4,2:3:0:0:
40,366,93927,1,10,1:0:0:0:
150,334,94427,1,10,1:0:0:0:
200,361,94677,1,4,2:3:0:0:
307,320,95177,1,10,1:0:0:0:
356,350,95427,1,2,1:0:0:0:
405,321,95677,1,4,2:3:0:0:
456,346,95927,1,14,1:0:0:0:
487,298,96177,1,12,1:0:0:0:
458,247,96427,1,14,1:0:0:0:
509,144,96927,6,2,P|511:101|503:6,2,115,6|2|14,1:0|1:0|1:0,2:1:0:0:
458,247,98427,1,10,1:0:0:0:
411,212,98677,1,4,2:3:0:0:
356,230,98927,2,0,P|321:226|256:235,1,57.5,2|8,1:0|1:0,2:0:0:0:
250,195,99427,1,4,2:3:0:0:
207,234,99677,2,2,P|163:245|95:235,1,115,2|2,1:0|1:0,2:1:0:0:
54,193,100427,1,0,2:0:0:0:
95,85,100927,2,0,P|125:88|162:83,1,57.5,4|4,1:0|2:3,2:0:0:0:
206,105,101427,6,2,P|250:94|318:104,2,115,2|10|10,1:0|1:0|1:0,2:1:0:0:
152,86,102677,1,4,2:3:0:0:
64,160,103177,1,8,1:0:0:0:
42,213,103427,1,4,2:3:0:0:
72,261,103677,1,2,1:0:0:0:
41,309,103927,1,14,1:0:0:0:
86,344,104177,1,12,1:0:0:0:
134,313,104427,1,14,1:0:0:0:
237,362,104927,6,2,P|304:359|356:367,1,115,6|2,1:0|1:0,2:1:0:0:
388,321,105677,1,4,2:3:0:0:
440,344,105927,2,2,P|486:347|500:345,1,57.5,10|0,1:0|2:0,2:1:0:0:
507,289,106427,1,8,1:0:0:0:
435,198,106927,1,2,2:3:0:0:
466,149,107177,1,8,1:0:0:0:
430,104,107427,2,0,P|398:107|369:104,1,57.5,4|2,2:3|1:0,2:0:0:0:
330,143,107927,1,14,1:0:0:0:
278,116,108177,1,12,1:0:0:0:
241,160,108427,1,14,1:0:0:0:
150,89,108927,6,0,P|153:59|151:27,1,57.5,6|4,1:0|2:3,2:0:0:0:
97,11,109427,1,6,1:0:0:0:
59,54,109677,1,4,2:3:0:0:
5,32,109927,2,2,P|6:107|-1:162,1,115,10|10,1:0|1:0,2:1:0:0:
42,187,110677,1,4,2:3:0:0:
2,294,111177,1,8,1:0:0:0:
44,333,111427,2,0,P|93:333|108:337,1,57.5,2|4,1:0|2:3,2:0:0:0:
151,307,111927,1,10,1:0:0:0:
253,359,112427,1,2,2:3:0:0:
291,316,112677,1,4,2:3:0:0:
343,340,112927,6,2,P|380:337|418:347,1,57.5,6|0,1:0|2:0,2:1:0:0:
451,315,113427,1,2,1:0:0:0:
500,211,113927,1,10,1:0:0:0:
402,150,114427,1,10,1:0:0:0:
355,184,114677,1,4,2:3:0:0:
302,160,114927,2,0,P|272:160|245:159,1,57.5,2|10,2:3|1:0,2:0:0:0:
203,200,115427,1,2,1:0:0:0:
153,170,115677,1,4,2:3:0:0:
104,200,115927,2,2,P|103:275|91:317,1,115,10|2,1:0|2:1,2:1:0:0:
46,347,116677,1,4,2:3:0:0:
0,308,116927,1,4,1:0:0:0:
256,192,117177,12,2,120927,1:0:0:0:
0,309,124927,6,0,P|-1:245|1:194,1,115,6|8,1:0|1:0,2:0:0:0:
51,166,125677,1,2,1:0:0:0:
147,228,126177,2,0,P|192:225|231:232,1,57.5,2|8,2:0|1:0,2:0:0:0:
258,205,126677,2,2,P|278:153|285:85,1,115,2|2,1:0|1:0,2:1:0:0:
265,40,127427,1,8,1:0:0:0:
308,1,127677,1,2,1:0:0:0:
359,26,127927,2,0,P|390:27|422:25,1,57.5,2|2,1:0|2:0,2:0:0:0:
456,66,128427,1,10,1:0:0:0:
428,177,128927,5,2,1:0:0:0:
452,294,129427,1,8,1:0:0:0:
452,294,129677,2,2,P|402:289|331:294,1,115,2|2,1:0|2:0,2:1:0:0:
305,244,130427,1,8,1:0:0:0:
214,314,130927,2,0,P|180:310|148:315,1,57.5,12|4,2:3|2:3,2:0:0:0:
127,264,131427,2,0,P|131:230|126:198,1,57.5,4|8,2:3|2:3,2:0:0:0:
187,202,131927,1,12,2:3:0:0:
235,164,132177,1,4,2:3:0:0:
242,101,132427,1,8,1:0:0:0:
190,60,132677,1,8,2:3:0:0:
118,91,132927,6,0,P|80:89|45:96,1,57.5,6|2,1:0|1:0,2:0:0:0:
21,145,133427,1,12,1:0:0:0:
51,203,133677,1,2,1:0:0:0:
5,250,133927,2,0,P|6:296|2:319,1,57.5,6|4,1:0|2:3,2:0:0:0:
53,351,134427,1,14,1:0:0:0:
175,300,134927,1,6,1:0:0:0:
231,335,135177,1,2,1:0:0:0:
293,313,135427,2,0,P|345:314|365:311,1,57.5,12|2,1:0|1:0,2:0:0:0:
399,358,135927,1,6,1:0:0:0:
460,333,136177,1,4,2:3:0:0:
461,269,136427,1,12,1:0:0:0:
404,154,136927,5,6,1:0:0:0:
442,102,137177,1,4,2:3:0:0:
400,53,137427,2,2,P|348:59|277:51,1,115,12|6,1:0|1:0,2:1:0:0:
251,107,138177,1,4,2:3:0:0:
283,161,138427,2,0,P|281:210|284:240,1,57.5,14|4,1:0|2:3,2:0:0:0:
239,266,138927,1,6,1:0:0:0:
186,229,139177,2,0,P|153:230|128:228,1,57.5,2|12,1:0|1:0,2:0:0:0:
75,263,139677,1,2,1:0:0:0:
28,219,139927,1,6,1:0:0:0:
51,159,140177,1,4,2:3:0:0:
21,102,140427,1,14,1:0:0:0:
134,43,140927,6,2,P|219:47|258:42,1,115,6|12,1:0|1:0,2:1:0:0:
291,90,141677,1,2,1:0:0:0:
261,146,141927,2,0,P|231:144|191:148,1,57.5,6|4,1:0|2:3,2:0:0:0:
168,199,142427,1,14,1:0:0:0:
195,256,142677,1,4,2:3:0:0:
156,306,142927,1,6,1:0:0:0:
273,355,143427,1,12,1:0:0:0:
311,304,143677,1,2,1:0:0:0:
370,327,143927,2,0,P|421:330|443:322,1,57.5,6|4,1:0|2:3,2:0:0:0:
466,279,144427,1,14,1:0:0:0:
432,224,144677,1,4,2:3:0:0:
469,172,144927,6,2,P|461:112|465:35,1,115,6|12,1:0|1:0,2:1:0:0:
406,27,145677,1,2,1:0:0:0:
354,64,145927,2,0,P|357:110|353:144,1,57.5,6|4,1:0|2:3,2:0:0:0:
323,176,146427,1,14,1:0:0:0:
214,108,146927,1,14,1:0:0:0:
214,108,148927,6,2,P|150:114|77:102,1,115,6|2,1:0|1:3,2:1:0:0:
67,162,149677,1,4,2:3:0:0:
95,218,149927,2,0,P|157:221|175:226,1,57.5,10|0,1:0|2:0,2:0:0:0:
197,265,150427,1,10,1:0:0:0:
167,321,150677,1,4,2:3:0:0:
284,369,151177,1,8,1:0:0:0:
341,342,151427,2,0,P|379:344|405:342,1,57.5,4|4,2:3|2:3,2:0:0:0:
442,297,151927,1,10,1:0:0:0:
385,183,152427,1,2,2:3:0:0:
443,70,152927,1,6,1:0:0:0:
396,27,153177,1,4,2:3:0:0:
348,68,153427,6,2,P|301:61|226:67,2,115,2|10|10,1:0|1:0|1:0,2:1:0:0:
375,125,154677,1,4,2:3:0:0:
352,184,154927,2,0,P|329:182|292:186,1,57.5,2|8,2:3|1:0,2:0:0:0:
259,238,155427,1,2,1:0:0:0:
291,292,155677,2,0,P|290:342|293:360,1,57.5,2|12,1:0|1:0,2:0:0:0:
231,369,156177,1,2,1:0:0:0:
176,337,156427,1,12,1:0:0:0:
54,371,156927,6,2,P|58:321|56:184,1,172.5,4|0,1:0|2:0,2:1:0:0:
96,149,157927,1,10,1:0:0:0:
214,194,158427,1,10,1:0:0:0:
264,155,158677,2,0,P|259:124|263:91,1,57.5,2|2,1:0|2:3,2:0:0:0:
215,54,159177,1,10,1:0:0:0:
159,84,159427,1,2,1:0:0:0:
102,55,159677,1,4,2:3:0:0:
44,82,159927,2,0,P|48:112|45:146,1,57.5,10|4,1:0|2:3,2:0:0:0:
92,182,160427,1,8,2:3:0:0:
71,241,160677,1,12,2:3:0:0:
118,282,160927,6,2,P|200:292|237:310,1,115,6|2,1:0|1:0,2:1:0:0:
279,343,161677,1,4,2:3:0:0:
335,314,161927,1,10,1:0:0:0:
453,358,162427,1,10,1:0:0:0:
507,244,162927,2,0,P|504:211|506:174,1,57.5,2|8,1:0|1:0,2:0:0:0:
454,147,163427,1,2,1:0:0:0:
402,183,163677,2,0,P|377:180|337:182,1,57.5,2|8,1:0|1:0,2:0:0:0:
295,141,164177,1,2,1:0:0:0:
375,43,164677,1,0,2:0:0:0:
320,10,164927,6,2,P|258:14|188:7,2,115,6|6|10,1:0|1:0|1:0,2:1:0:0:
446,10,166427,1,10,1:0:0:0:
485,59,166677,2,0,P|484:113|488:138,1,57.5,4|2,2:3|2:3,2:0:0:0:
444,165,167177,1,8,1:0:0:0:
480,216,167427,1,4,2:3:0:0:
447,270,167677,1,2,1:0:0:0:
387,247,167927,2,0,P|358:250|323:247,1,57.5,14|4,1:0|2:3,2:0:0:0:
286,294,168427,1,14,1:0:0:0:
208,193,168927,5,6,1:0:0:0:
268,81,169427,1,2,1:0:0:0:
223,36,169677,1,4,2:3:0:0:
165,62,169927,2,0,P|128:65|92:59,1,57.5,10|0,1:0|2:3,2:0:0:0:
51,33,170427,1,14,1:0:0:0:
17,86,170677,1,4,2:3:0:0:
56,135,170927,1,2,2:3:0:0:
13,254,171427,1,4,2:3:0:0:
104,341,171927,2,2,P|148:337|229:345,1,115,10|12,1:0|2:3,2:1:0:0:
276,317,172677,1,4,2:3:0:0:
320,361,172927,6,0,P|370:361|398:368,1,57.5,6|4,1:0|2:3,2:0:0:0:
426,323,173427,1,2,1:3:0:0:
492,215,173927,1,10,1:0:0:0:
421,110,174427,1,10,1:0:0:0:
364,81,174677,1,4,2:3:0:0:
312,118,174927,2,0,P|315:166|311:192,1,57.5,2|8,2:3|1:0,2:0:0:0:
275,225,175427,1,4,2:3:0:0:
173,149,175927,2,2,P|170:106|176:27,1,115,8|2,1:0|2:3,2:1:0:0:
114,13,176677,1,0,2:0:0:0:
77,65,176927,5,6,1:0:0:0:
77,65,177177,1,4,2:3:0:0:
77,65,177427,1,6,1:0:0:0:
77,65,177677,1,4,2:3:0:0:
77,65,177927,2,2,P|80:108|74:187,1,115,10|10,1:0|1:0,2:1:0:0:
46,236,178677,1,4,2:3:0:0:
74,292,178927,2,0,P|117:289|142:294,1,57.5,2|8,1:0|1:0,2:0:0:0:
184,256,179427,1,2,1:3:0:0:
261,355,179927,1,14,1:0:0:0:
375,302,180427,1,14,1:0:0:0:
473,327,180927,6,2,P|471:286|476:216,1,92,6|6,1:0|1:0,2:1:0:0:
433,196,181677,1,0,2:0:0:0:
462,149,181927,2,0,P|460:126|463:86,1,46,14|0,1:0|2:0,2:0:0:0:
443,50,182427,1,6,1:0:0:0:
349,108,182927,1,6,1:0:0:0:
273,27,183427,2,0,P|229:32|177:23,1,92,6|14,1:0|1:0,2:0:0:0:
147,67,184177,1,4,2:3:0:0:
183,115,184427,1,6,1:0:0:0:
183,115,184677,1,8,2:3:0:0:
156,163,184927,6,2,P|114:165|61:182,2,92,6|6|14,1:0|1:0|1:0,2:1:0:0:
211,258,186427,1,6,1:0:0:0:
183,365,186927,2,2,P|230:363|289:370,1,92,6|6,1:0|1:0,2:1:0:0:
320,337,187677,1,0,2:0:0:0:
370,358,187927,2,2,P|402:357|429:361,1,46,14|0,1:0|2:0,2:1:0:0:
457,322,188427,1,6,1:0:0:0:
405,224,188927,5,6,1:0:0:0:
459,128,189427,1,6,1:0:0:0:
355,89,189927,2,0,P|326:92|294:88,1,46,14|0,1:0|2:0,2:0:0:0:
272,132,190427,1,6,1:0:0:0:
194,53,190927,1,6,1:0:0:0:
93,97,191427,2,2,P|91:191|87:209,1,92,6|14,1:0|1:0,2:1:0:0:
115,238,192177,1,0,2:0:0:0:
90,287,192427,1,6,1:0:0:0:
180,350,192927,5,6,1:0:0:0:
226,319,193177,1,0,2:0:0:0:
278,336,193427,2,0,P|307:334|334:337,1,46,6|0,1:0|2:0,2:0:0:0:
365,298,193927,1,14,1:0:0:0:
463,348,194427,1,6,1:0:0:0:
479,238,194927,2,2,P|477:195|482:137,1,92,6|6,1:0|1:0,2:1:0:0:
438,110,195677,1,0,2:0:0:0:
457,58,195927,1,14,1:0:0:0:
414,22,196177,1,12,2:3:0:0:
364,45,196427,1,12,1:3:0:0:
274,109,196927,6,2,P|275:164|268:210,1,92,6|6,1:0|1:0,2:1:0:0:
215,190,197677,1,0,2:0:0:0:
171,223,197927,2,0,P|172:253|169:276,1,46,14|0,1:0|2:0,2:0:0:0:
197,316,198427,1,14,1:0:0:0:
97,362,198927,1,6,1:0:0:0:
25,277,199427,2,2,P|29:233|26:176,1,92,6|14,1:0|1:0,2:1:0:0:
73,154,200177,1,0,2:0:0:0:
122,178,200427,2,0,P|153:181|186:173,1,46,14|0,1:0|2:0,2:0:0:0:
208,141,200927,5,6,1:0:0:0:
287,64,201427,1,6,1:0:0:0:
367,140,201927,1,14,1:0:0:0:
291,221,202427,2,2,P|290:294|287:324,1,92,14|6,1:0|1:0,2:1:0:0:
332,346,203177,1,0,2:0:0:0:
380,318,203427,2,0,P|411:320|439:318,1,46,6|0,1:0|2:0,2:0:0:0:
460,277,203927,1,14,1:0:0:0:
431,229,204177,1,0,2:0:0:0:
457,180,204427,1,14,1:0:0:0:
412,79,204927,6,2,P|371:83|318:75,1,92,6|6,1:0|1:0,2:1:0:0:
276,42,205677,1,0,2:0:0:0:
224,60,205927,2,0,P|193:62|163:57,1,46,14|0,1:0|2:0,2:0:0:0:
134,93,206427,1,14,1:0:0:0:
90,126,206677,1,0,2:0:0:0:
90,181,206927,1,6,1:0:0:0:
170,256,207427,1,6,1:0:0:0:
149,364,207927,2,0,P|180:363|209:368,1,46,14|0,1:0|2:0,2:0:0:0:
240,333,208427,1,14,1:0:0:0:
288,359,208677,1,0,2:0:0:0:
341,346,208927,6,2,P|393:351|441:344,2,92,6|6|14,1:0|1:0|1:0,2:1:0:0:
279,254,210427,1,14,1:0:0:0:
332,157,210927,1,14,1:0:0:0:
377,125,211177,1,4,2:3:0:0:
415,164,211427,1,4,1:0:0:0:
452,204,211677,1,10,1:0:0:0:
500,162,211927,1,4,1:0:0:0:
416,56,212453,1,10,1:0:0:0:
332,157,212979,1,6,1:0:0:0:
256,192,213242,12,2,217420,2:0:0:0:
