osu file format v14

[General]
AudioFilename: audio.mp3
AudioLeadIn: 0
PreviewTime: 148927
Countdown: 0
SampleSet: Soft
StackLeniency: 0.7
Mode: 0
LetterboxInBreaks: 0
WidescreenStoryboard: 1

[Editor]
DistanceSpacing: 2.1
BeatDivisor: 4
GridSize: 32
TimelineZoom: 1.4

[Metadata]
Title:Here We Go Again
TitleUnicode:Here We Go Again
Artist:Paramore
ArtistUnicode:Paramore
Creator:Ruiz Duchamp
Version:Hyper
Source:
Tags:all we know is falling english punk rock alternative
BeatmapID:4091617
BeatmapSetID:1897276

[Difficulty]
HPDrainRate:6
CircleSize:4
OverallDifficulty:6
ApproachRate:6
SliderMultiplier:1.3
SliderTickRate:0.5

[Events]
//Background and Video events
0,0,"34.jpeg",0,0
//Break Periods
2,57127,59877
2,121127,123877
//Storyboard Layer 0 (Background)
//Storyboard Layer 1 (Fail)
//Storyboard Layer 2 (Pass)
//Storyboard Layer 3 (Foreground)
//Storyboard Layer 4 (Overlay)
//Storyboard Sound Samples

[TimingPoints]
927,500,4,2,1,50,1,0
180927,-142.857142857143,4,2,1,60,0,1
211927,526.315789473684,4,2,1,60,1,1
211927,-142.857142857143,4,2,1,60,0,1
212979,-142.857142857143,4,2,1,60,0,0
217420,-100,4,2,1,10,0,0

[Colours]
Combo1 : 17,254,176
Combo2 : 173,255,95
Combo3 : 255,88,100
Combo4 : 255,94,55

[HitObjects]
34,71,927,6,0,P|76:74|120:66,1,65,2|2,1:0|2:0,2:0:0:0:
157,118,1427,1,8,1:0:0:0:
228,95,1677,2,0,P|313:102|369:91,1,130,2|2,1:0|2:1,2:0:0:0:
420,135,2427,1,8,1:0:0:0:
389,203,2677,1,2,1:0:0:0:
282,277,3177,2,0,P|251:273|213:278,1,65,2|8,1:0|1:0,2:0:0:0:
157,231,3677,1,2,1:0:0:0:
92,269,3927,1,2,1:0:0:0:
60,200,4177,1,2,2:1:0:0:
83,128,4427,1,10,1:0:0:0:
155,96,4677,1,4,2:3:0:0:
155,96,4802,1,8,2:3:0:0:
155,96,4927,6,0,P|213:98|240:89,1,65,2|0,1:0|2:0,2:0:0:0:
280,140,5427,1,8,1:0:0:0:
351,117,5677,2,0,P|452:122|501:113,1,130,2|2,1:0|2:1,2:0:0:0:
492,192,6427,1,8,1:0:0:0:
481,266,6677,2,0,P|445:262|402:267,1,65,2|4,1:0|2:3,2:0:0:0:
347,232,7177,1,2,1:0:0:0:
300,291,7427,2,0,P|264:287|221:292,1,65,8|2,1:0|2:0,2:0:0:0:
191,227,7927,1,2,1:0:0:0:
115,228,8177,1,2,2:0:0:0:
57,276,8427,1,8,1:0:0:0:
45,350,8677,1,2,2:0:0:0:
135,376,8927,6,0,P|173:374|203:378,1,65,2|2,1:0|2:0,2:0:0:0:
252,322,9427,1,10,1:0:0:0:
321,351,9677,1,0,2:0:0:0:
392,328,9927,2,0,P|429:330|459:326,1,65,2|0,1:0|2:0,2:0:0:0:
475,234,10427,2,2,P|479:168|462:82,1,130,10|2,1:0|1:0,2:1:0:0:
398,78,11177,1,2,2:0:0:0:
332,115,11427,2,0,P|334:163|329:197,1,65,10|2,1:0|2:0,2:0:0:0:
273,227,11927,1,2,1:0:0:0:
214,179,12177,1,2,2:0:0:0:
217,103,12427,1,8,1:0:0:0:
271,50,12677,1,2,2:0:0:0:
186,5,12927,6,0,P|146:8|113:3,1,65,2|2,1:0|2:0,2:0:0:0:
90,73,13427,2,0,P|57:71|20:78,1,65,10|2,1:0|2:0,2:0:0:0:
1,148,13927,1,2,1:0:0:0:
47,207,14177,1,0,2:0:0:0:
17,276,14427,2,2,P|17:318|11:346,1,65,10|0,1:0|2:0,2:1:0:0:
102,367,14927,2,0,P|161:354|234:358,1,130,2|10,1:0|1:0,2:0:0:0:
292,314,15677,1,2,2:0:0:0:
361,342,15927,2,0,P|418:341|440:337,1,65,2|2,1:0|2:0,2:0:0:0:
472,280,16427,1,10,1:0:0:0:
427,219,16677,1,2,2:0:0:0:
486,142,16927,6,0,P|483:108|486:77,1,65,2|2,1:0|2:0,2:0:0:0:
428,28,17427,2,0,P|394:31|363:28,1,65,10|2,1:0|2:0,2:0:0:0:
314,86,17927,2,0,P|242:108|195:143,1,130,2|10,1:0|1:0,2:0:0:0:
221,211,18677,1,0,2:0:0:0:
186,278,18927,2,0,P|150:277|120:282,1,65,2|2,1:0|2:0,2:0:0:0:
64,231,19427,1,10,1:0:0:0:
99,165,19677,1,2,2:0:0:0:
47,110,19927,2,0,P|48:76|47:26,1,65,2|2,1:0|2:0,2:0:0:0:
113,8,20427,1,10,1:0:0:0:
178,44,20677,1,2,2:0:0:0:
271,17,20927,6,2,P|352:25|409:15,1,130,2|8,1:0|1:0,2:1:0:0:
442,78,21677,1,2,2:0:0:0:
400,140,21927,2,2,P|367:138|333:140,1,65,2|0,1:0|2:0,2:1:0:0:
291,200,22427,1,8,1:0:0:0:
334,260,22677,1,2,2:0:0:0:
261,319,22927,2,2,P|213:323|133:357,1,130,2|10,1:0|1:0,2:1:0:0:
84,301,23677,1,0,2:0:0:0:
130,242,23927,2,0,P|132:211|130:161,1,65,2|8,1:0|2:1,2:0:0:0:
91,113,24427,1,10,2:1:0:0:
135,53,24677,1,4,2:3:0:0:
218,94,24927,5,6,1:0:0:0:
285,61,25177,1,4,2:3:0:0:
343,107,25427,2,2,P|348:211|357:243,2,130,2|8|8,1:0|1:0|1:0,2:1:0:0:
424,60,26677,1,4,2:3:0:0:
472,117,26927,2,0,P|471:173|475:191,1,65,2|8,2:3|1:0,2:0:0:0:
434,243,27427,1,4,2:3:0:0:
468,306,27677,1,4,2:3:0:0:
436,370,27927,1,10,1:0:0:0:
321,313,28427,1,2,2:3:0:0:
201,355,28927,6,2,P|121:349|62:357,1,130,6|2,1:0|1:0,2:1:0:0:
35,292,29677,1,4,2:3:0:0:
73,231,29927,2,0,P|123:232|147:229,1,65,10|0,1:0|2:0,2:0:0:0:
188,180,30427,1,10,1:0:0:0:
156,115,30677,1,4,2:3:0:0:
252,129,30927,2,0,P|249:96|255:49,1,65,2|8,2:3|2:1,2:0:0:0:
311,23,31427,1,4,2:3:0:0:
373,99,31677,2,0,P|376:132|370:179,1,65,4|14,2:3|1:0,2:0:0:0:
327,219,32177,1,0,2:0:0:0:
372,303,32427,1,14,1:0:0:0:
259,372,32927,6,2,P|176:366|100:378,2,130,6|4|10,1:0|2:3|1:0,2:1:0:0:
202,255,34427,1,8,1:0:0:0:
235,191,34677,1,4,2:3:0:0:
180,144,34927,2,0,P|143:148|106:143,1,65,2|10,2:3|1:0,2:0:0:0:
55,185,35427,1,2,1:0:0:0:
16,123,35677,1,4,2:3:0:0:
55,62,35927,1,10,1:0:0:0:
126,74,36177,1,4,1:0:0:0:
209,28,36427,2,0,P|254:32|286:24,1,65,4|0,2:3|2:0,2:0:0:0:
351,86,36927,5,6,1:0:0:0:
416,55,37177,1,4,2:3:0:0:
479,88,37427,1,2,1:0:0:0:
484,159,37677,1,4,2:3:0:0:
424,200,37927,1,14,1:0:0:0:
309,258,38427,2,0,P|275:253|230:259,1,65,14|4,1:0|2:3,2:0:0:0:
183,216,38927,2,2,P|114:226|44:212,1,130,2|2,1:0|1:0,2:1:0:0:
22,151,39677,1,2,1:0:0:0:
63,91,39927,2,0,P|99:94|154:86,1,65,8|0,1:0|2:0,2:0:0:0:
189,128,40427,1,2,2:0:0:0:
289,45,40927,5,4,1:0:0:0:
354,73,41177,1,4,2:3:0:0:
422,51,41427,2,2,P|429:129|423:192,2,130,2|10|8,1:0|1:0|1:0,2:1:0:0:
354,73,42677,1,2,1:0:0:0:
273,172,43177,1,8,1:0:0:0:
307,234,43427,1,4,2:3:0:0:
271,295,43677,1,4,2:3:0:0:
324,342,43927,2,2,P|395:345|474:375,1,130,10|2,1:0|2:3,2:1:0:0:
507,250,44927,5,6,1:0:0:0:
460,195,45177,1,4,2:3:0:0:
389,203,45427,2,0,P|391:249|388:276,1,65,6|0,1:0|2:0,2:0:0:0:
324,342,45927,1,10,1:0:0:0:
259,310,46177,1,0,2:0:0:0:
206,358,46427,2,0,P|168:352|132:357,1,65,8|4,1:0|2:3,2:0:0:0:
88,307,46927,1,2,1:0:0:0:
131,250,47177,1,8,1:0:0:0:
93,189,47427,2,0,P|55:194|19:189,1,65,2|4,1:0|2:3,2:0:0:0:
2,124,47927,1,10,1:0:0:0:
51,71,48177,1,4,2:0:0:0:
118,95,48427,1,2,2:3:0:0:
232,33,48927,5,6,1:0:0:0:
298,58,49177,1,0,2:0:0:0:
365,35,49427,1,2,1:3:0:0:
478,96,49927,2,2,P|481:195|491:240,1,130,10|8,1:0|1:0,2:1:0:0:
432,271,50677,1,2,1:0:0:0:
368,239,50927,2,0,P|372:208|370:171,1,65,2|8,2:3|1:0,2:0:0:0:
303,148,51427,1,4,2:3:0:0:
259,204,51677,1,4,2:3:0:0:
289,268,51927,1,8,1:0:0:0:
220,374,52427,1,2,2:0:0:0:
152,349,52677,1,4,2:3:0:0:
58,363,52927,6,2,P|55:303|59:230,1,130,6|6,1:0|1:0,2:1:0:0:
116,190,53677,1,4,2:3:0:0:
83,126,53927,2,2,P|54:129|10:124,1,65,10|0,1:0|2:0,2:1:0:0:
4,55,54427,1,8,1:0:0:0:
68,23,54677,1,4,2:3:0:0:
128,60,54927,2,0,P|157:57|201:62,1,65,2|8,1:0|1:0,2:0:0:0:
279,20,55427,1,2,1:0:0:0:
333,65,55677,1,4,2:3:0:0:
299,128,55927,2,2,P|300:170|292:223,1,65,10|0,1:0|2:0,2:1:0:0:
327,221,56302,1,4,2:3:0:0:
327,221,56427,2,0,P|380:217|396:220,1,65,8|4,2:3|2:3,2:0:0:0:
446,266,56927,1,6,1:0:0:0:
445,265,60927,6,0,P|447:239|445:194,1,65,2|2,1:0|2:0,2:0:0:0:
479,132,61427,1,10,1:0:0:0:
415,94,61677,2,0,P|367:101|276:95,1,130,2|2,1:0|2:1,2:0:0:0:
231,148,62427,1,8,1:0:0:0:
166,111,62677,2,0,P|130:114|88:109,1,65,2|4,1:0|2:3,2:0:0:0:
60,174,63177,1,2,1:0:0:0:
98,237,63427,1,8,1:0:0:0:
56,299,63677,1,2,2:0:0:0:
107,353,63927,2,0,L|195:363,1,65,2|2,1:0|2:0,2:0:0:0:
233,319,64427,1,10,1:0:0:0:
293,362,64677,1,2,2:0:0:0:
354,286,64927,6,2,P|353:258|359:216,1,65,2|0,1:0|2:0,2:1:0:0:
296,178,65427,1,10,1:0:0:0:
220,237,65677,2,2,P|220:154|212:95,1,130,2|2,1:0|1:0,2:1:0:0:
276,65,66427,1,8,1:0:0:0:
342,99,66677,1,2,1:0:0:0:
452,36,67177,1,2,1:0:0:0:
494,100,67427,2,0,P|495:166|499:189,1,65,8|2,1:0|1:0,2:0:0:0:
442,215,67927,1,2,1:0:0:0:
478,276,68177,1,2,2:1:0:0:
451,342,68427,1,8,1:0:0:0:
379,345,68677,1,2,1:0:0:0:
295,297,68927,6,2,P|230:306|150:296,1,130,2|10,1:0|1:0,2:1:0:0:
129,238,69677,1,2,2:0:0:0:
173,181,69927,2,0,P|207:184|259:181,1,65,2|2,1:0|2:0,2:0:0:0:
289,133,70427,2,2,P|354:142|434:132,1,130,10|2,1:0|1:0,2:1:0:0:
464,81,71177,1,2,2:0:0:0:
439,13,71427,1,10,1:0:0:0:
312,46,71927,1,2,1:0:0:0:
248,13,72177,1,2,2:0:0:0:
180,36,72427,2,0,P|149:33|100:38,1,65,10|2,1:0|2:0,2:0:0:0:
25,9,72927,6,2,P|3:84|0:136,1,130,2|10,1:0|1:0,2:1:0:0:
57,177,73677,1,0,2:0:0:0:
127,163,73927,2,0,P|128:210|123:241,1,65,2|2,1:0|2:0,2:0:0:0:
174,280,74427,1,10,1:0:0:0:
298,247,74927,1,2,1:0:0:0:
389,341,75427,2,0,P|432:338|459:341,1,65,10|2,1:0|2:0,2:0:0:0:
490,278,75927,1,2,1:0:0:0:
443,223,76177,1,2,2:0:0:0:
484,165,76427,2,0,P|481:138|486:85,1,65,10|2,1:0|2:0,2:0:0:0:
414,35,76927,5,2,1:0:0:0:
323,129,77427,1,10,1:0:0:0:
219,59,77927,1,2,1:0:0:0:
157,95,78177,1,2,2:0:0:0:
88,74,78427,2,2,P|78:154|80:219,1,130,10|2,1:0|1:0,2:1:0:0:
122,263,79177,1,2,2:0:0:0:
83,323,79427,1,10,1:0:0:0:
123,381,79677,1,2,2:0:0:0:
185,346,79927,2,0,P|222:349|254:345,1,65,2|2,1:0|2:0,2:0:0:0:
314,375,80427,1,10,1:0:0:0:
383,358,80677,1,2,2:0:0:0:
475,379,80927,6,2,P|481:305|478:245,1,130,2|10,1:0|1:0,2:1:0:0:
414,217,81677,1,0,2:0:0:0:
345,239,81927,2,2,P|339:165|342:105,1,130,2|10,1:0|1:0,2:1:0:0:
410,88,82677,1,2,2:0:0:0:
472,123,82927,1,2,1:0:0:0:
478,249,83427,1,10,1:0:0:0:
376,326,83927,1,2,1:0:0:0:
308,302,84177,1,8,2:1:0:0:
254,349,84427,2,0,P|219:345|175:351,1,65,10|4,2:1|2:3,2:0:0:0:
104,305,84927,5,6,1:0:0:0:
72,236,85177,1,4,2:3:0:0:
118,177,85427,2,2,P|133:105|133:43,2,130,2|8|8,1:0|1:0|1:0,2:1:0:0:
169,231,86677,1,4,2:3:0:0:
282,170,87177,1,8,1:0:0:0:
346,208,87427,2,0,P|393:205|422:211,1,65,4|4,2:3|2:3,2:0:0:0:
467,159,87927,1,10,1:0:0:0:
370,80,88427,1,2,2:3:0:0:
282,170,88927,5,6,1:0:0:0:
207,164,89177,1,4,2:3:0:0:
169,231,89427,2,0,P|170:287|167:310,1,65,2|4,1:0|2:3,2:0:0:0:
250,348,89927,2,2,P|315:328|384:325,1,130,10|10,1:0|1:0,2:1:0:0:
409,257,90677,1,4,2:3:0:0:
393,183,90927,2,0,P|444:185|480:183,1,65,2|8,2:0|1:0,2:0:0:0:
490,117,91427,1,2,1:0:0:0:
446,56,91677,1,2,1:0:0:0:
350,56,91927,1,8,1:0:0:0:
309,118,92177,1,2,1:0:0:0:
244,80,92427,2,0,P|203:83|179:80,1,65,12|0,1:0|2:0,2:0:0:0:
94,34,92927,6,2,P|69:98|64:171,1,130,6|4,1:0|2:3,2:1:0:0:
121,205,93677,1,4,2:3:0:0:
85,296,93927,2,0,P|149:294|176:298,1,65,10|0,1:0|2:0,2:0:0:0:
216,329,94427,1,10,1:0:0:0:
255,265,94677,1,4,2:3:0:0:
320,301,94927,1,2,2:3:0:0:
393,241,95177,1,10,1:0:0:0:
458,277,95427,1,2,1:0:0:0:
497,213,95677,1,4,2:3:0:0:
431,142,95927,2,0,P|392:146|359:142,1,65,14|12,1:0|1:0,2:0:0:0:
311,193,96427,1,14,1:0:0:0:
248,152,96677,1,4,2:3:0:0:
176,174,96927,6,2,P|88:198|45:238,2,130,6|2|14,1:0|1:0|1:0,2:1:0:0:
250,68,98427,1,10,1:0:0:0:
190,22,98677,1,4,2:3:0:0:
120,48,98927,2,0,P|88:50|49:49,1,65,2|8,1:0|1:0,2:0:0:0:
17,114,99427,1,4,2:3:0:0:
61,174,99677,1,2,1:0:0:0:
10,229,99927,2,2,P|7:307|-3:367,1,130,8|0,1:0|2:0,2:1:0:0:
122,322,100927,5,4,1:0:0:0:
186,360,101177,1,4,2:3:0:0:
257,339,101427,2,0,P|305:342|339:334,1,65,2|4,1:0|2:3,2:0:0:0:
390,367,101927,2,2,P|446:357|512:304,1,130,10|10,1:0|1:0,2:1:0:0:
455,257,102677,1,0,2:0:0:0:
470,183,102927,2,0,P|511:187|542:183,2,65,2|8|4,2:3|1:0|2:3,2:0:0:0:
400,120,103677,1,2,1:0:0:0:
334,156,103927,1,14,1:0:0:0:
354,227,104177,1,12,1:0:0:0:
271,267,104427,2,0,P|235:262|198:266,1,65,14|0,1:0|2:0,2:0:0:0:
116,227,104927,6,2,P|99:182|93:92,1,130,6|2,1:0|1:0,2:1:0:0:
140,43,105677,1,4,2:3:0:0:
224,86,105927,2,2,P|273:90|310:81,1,65,10|0,1:0|2:0,2:1:0:0:
348,43,106427,1,8,1:0:0:0:
416,73,106677,1,4,2:3:0:0:
490,62,106927,2,0,P|490:112|495:141,1,65,2|8,2:3|1:0,2:0:0:0:
446,209,107427,1,4,2:3:0:0:
485,272,107677,1,2,1:0:0:0:
431,354,107927,1,14,1:0:0:0:
362,324,108177,1,12,1:0:0:0:
302,369,108427,2,0,P|269:364|227:370,1,65,14|0,1:0|2:0,2:0:0:0:
159,315,108927,6,2,P|91:336|29:333,1,130,6|6,1:0|1:0,2:1:0:0:
0,266,109677,1,0,2:0:0:0:
51,212,109927,2,0,P|102:214|129:208,1,65,10|0,1:0|2:0,2:0:0:0:
166,129,110427,1,10,1:0:0:0:
135,60,110677,1,4,2:3:0:0:
215,8,110927,2,0,P|266:10|293:4,1,65,2|8,2:3|1:0,2:0:0:0:
335,90,111427,1,2,1:0:0:0:
293,151,111677,1,4,2:3:0:0:
348,230,111927,2,2,P|435:241|477:265,1,130,10|2,1:0|2:3,2:1:0:0:
445,331,112677,1,4,2:3:0:0:
359,373,112927,6,2,P|327:370|292:373,1,65,6|0,1:0|2:0,2:1:0:0:
236,324,113427,1,2,1:0:0:0:
268,256,113677,1,4,2:3:0:0:
214,204,113927,2,2,P|127:193|85:169,1,130,10|10,1:0|1:0,2:1:0:0:
67,102,114677,1,4,2:3:0:0:
115,44,114927,2,0,P|168:46|190:42,1,65,2|10,2:3|1:0,2:0:0:0:
237,92,115427,1,2,1:0:0:0:
307,66,115677,1,4,2:3:0:0:
372,102,115927,2,2,P|378:185|396:236,1,130,10|2,1:0|2:1,2:1:0:0:
467,218,116677,1,4,2:3:0:0:
511,278,116927,1,4,1:0:0:0:
256,192,117052,12,2,120927,1:0:0:0:
480,192,124927,6,0,P|434:195|405:190,1,65,6|2,1:0|2:0,2:0:0:0:
359,242,125427,1,8,1:0:0:0:
293,205,125677,2,2,P|229:211|160:205,1,130,2|2,1:0|2:0,2:1:0:0:
104,160,126427,1,8,1:0:0:0:
42,202,126677,1,2,1:0:0:0:
122,306,127177,1,2,1:0:0:0:
244,266,127677,1,2,1:0:0:0:
309,301,127927,2,0,P|309:352|312:371,1,65,2|2,1:0|2:0,2:0:0:0:
385,374,128427,1,10,1:0:0:0:
433,317,128677,1,2,2:0:0:0:
387,257,128927,6,0,P|390:223|387:190,1,65,2|2,1:0|2:0,2:0:0:0:
439,138,129427,1,8,1:0:0:0:
382,88,129677,2,0,P|321:83|256:58,1,130,2|2,1:0|2:0,2:0:0:0:
197,103,130427,1,8,1:0:0:0:
133,64,130677,1,2,2:0:0:0:
85,147,130927,5,12,2:3:0:0:
20,184,131177,1,4,2:3:0:0:
0,256,131427,1,4,2:3:0:0:
37,321,131677,1,8,2:3:0:0:
127,347,131927,5,12,2:3:0:0:
208,299,132177,1,4,2:3:0:0:
224,206,132427,1,8,1:0:0:0:
169,128,132677,1,8,2:3:0:0:
73,132,132927,6,0,P|11:132|-18:128,1,65,6|2,1:0|1:0,2:0:0:0:
30,223,133427,2,0,P|92:223|121:227,1,65,12|2,1:0|1:0,2:0:0:0:
180,183,133927,1,6,1:0:0:0:
260,231,134177,1,4,2:3:0:0:
347,196,134427,2,2,P|407:185|470:139,1,130,14|6,1:0|1:0,2:1:0:0:
421,62,135177,1,2,1:0:0:0:
331,90,135427,2,0,P|295:94|249:88,1,65,12|2,1:0|1:0,2:0:0:0:
196,36,135927,1,6,1:0:0:0:
196,36,136177,1,4,2:3:0:0:
121,91,136427,1,12,1:0:0:0:
121,91,136677,1,4,2:3:0:0:
170,170,136927,6,2,P|171:216|167:258,1,65,6|0,1:0|2:0,2:1:0:0:
266,262,137427,2,0,P|264:215|269:174,1,65,12|2,1:0|1:0,2:0:0:0:
356,176,137927,1,6,1:0:0:0:
392,262,138177,1,4,2:3:0:0:
347,345,138427,1,14,1:0:0:0:
347,345,138677,1,4,2:3:0:0:
271,289,138927,5,6,1:0:0:0:
201,351,139177,2,0,P|168:348|123:353,1,65,2|12,1:0|1:0,2:0:0:0:
63,291,139677,1,2,1:0:0:0:
96,203,139927,2,0,P|100:168|98:118,1,65,6|4,1:0|2:3,2:0:0:0:
57,60,140427,1,14,1:0:0:0:
57,60,140677,1,4,2:3:0:0:
138,13,140927,5,6,1:0:0:0:
190,90,141177,1,0,2:0:0:0:
276,53,141427,2,0,P|332:54|361:49,1,65,12|2,1:0|1:0,2:0:0:0:
418,105,141927,1,6,1:0:0:0:
488,43,142177,1,4,2:3:0:0:
508,134,142427,2,0,P|507:181|512:220,1,65,14|4,1:0|2:3,2:0:0:0:
441,263,142927,5,6,1:0:0:0:
359,217,143177,1,0,2:0:0:0:
337,308,143427,2,0,P|303:304|266:309,1,65,12|2,1:0|1:0,2:0:0:0:
195,254,143927,1,6,1:0:0:0:
155,338,144177,1,4,2:3:0:0:
74,289,144427,2,0,P|40:292|3:288,1,65,14|4,1:0|2:3,2:0:0:0:
9,195,144927,6,2,P|92:182|136:149,1,130,6|12,1:0|1:0,2:1:0:0:
193,89,145677,1,2,1:0:0:0:
272,138,145927,2,0,P|327:140|354:133,1,65,6|4,1:0|2:3,2:0:0:0:
417,90,146427,1,14,1:0:0:0:
359,16,146677,1,4,2:3:0:0:
274,55,146927,1,14,1:0:0:0:
274,55,148927,6,2,P|276:135|269:192,1,130,6|2,1:0|1:3,2:1:0:0:
197,167,149677,1,4,2:3:0:0:
141,217,149927,2,0,P|142:266|136:298,1,65,10|0,1:0|2:0,2:0:0:0:
202,322,150427,1,10,1:0:0:0:
267,286,150677,1,4,2:3:0:0:
375,355,151177,1,8,1:0:0:0:
435,311,151427,1,4,2:3:0:0:
432,236,151677,1,4,2:3:0:0:
365,202,151927,1,10,1:0:0:0:
455,109,152427,1,2,2:3:0:0:
351,29,152927,5,6,1:0:0:0:
296,79,153177,1,4,2:3:0:0:
227,50,153427,2,0,P|193:55|156:50,1,65,2|4,1:0|2:3,2:0:0:0:
130,119,153927,1,10,1:0:0:0:
18,59,154427,1,10,1:0:0:0:
0,131,154677,1,4,2:3:0:0:
26,200,154927,2,0,P|26:246|32:273,1,65,2|8,2:3|1:0,2:0:0:0:
103,253,155427,1,2,1:0:0:0:
161,300,155677,1,2,1:0:0:0:
161,374,155927,1,12,1:0:0:0:
270,304,156427,1,12,1:0:0:0:
382,362,156927,6,2,P|449:360|515:333,1,130,4|4,1:0|2:3,2:1:0:0:
465,275,157677,1,0,2:0:0:0:
492,205,157927,2,0,P|496:174|492:129,1,65,10|0,1:0|2:0,2:0:0:0:
436,92,158427,1,10,1:0:0:0:
378,140,158677,1,2,1:0:0:0:
271,71,159177,1,10,1:0:0:0:
206,108,159427,2,0,P|207:153|205:188,1,65,2|4,1:0|2:3,2:0:0:0:
253,231,159927,1,10,1:0:0:0:
201,285,160177,1,4,2:3:0:0:
126,284,160427,1,8,2:3:0:0:
74,230,160677,1,12,2:3:0:0:
11,158,160927,6,0,P|13:116|10:77,1,65,6|4,1:0|2:3,2:0:0:0:
81,27,161427,2,2,P|162:72|209:73,1,130,2|10,1:0|1:0,2:1:0:0:
266,44,162177,1,0,2:0:0:0:
343,103,162427,2,0,P|341:154|345:184,1,65,10|4,1:0|2:3,2:0:0:0:
408,203,162927,1,2,1:0:0:0:
472,164,163177,1,8,1:0:0:0:
512,256,163427,1,2,1:0:0:0:
479,323,163677,2,0,P|444:319|405:322,1,65,2|8,1:0|1:0,2:0:0:0:
350,359,164177,2,2,P|293:359|199:322,1,130,2|0,2:3|2:0,2:1:0:0:
190,248,164927,5,6,1:0:0:0:
233,164,165177,1,4,2:3:0:0:
216,68,165427,2,2,P|154:47|89:45,2,130,6|10|10,1:0|1:0|1:0,2:1:0:0:
302,27,166677,1,4,2:3:0:0:
360,73,166927,1,2,2:3:0:0:
428,42,167177,2,0,P|465:45|500:42,1,65,8|4,1:0|2:3,2:0:0:0:
504,117,167677,1,2,1:0:0:0:
441,188,167927,1,14,1:0:0:0:
373,156,168177,1,4,2:3:0:0:
307,192,168427,1,14,1:0:0:0:
186,234,168927,6,2,P|185:323|174:383,1,130,6|2,1:0|1:0,2:1:0:0:
106,343,169677,1,4,2:3:0:0:
32,358,169927,2,0,P|29:330|31:285,1,65,10|0,1:0|2:3,2:0:0:0:
69,229,170427,1,14,1:0:0:0:
40,159,170677,1,4,2:3:0:0:
91,78,170927,2,0,P|134:80|165:77,1,65,2|8,2:3|1:0,2:0:0:0:
211,128,171427,1,4,2:3:0:0:
279,97,171677,1,4,2:3:0:0:
347,126,171927,2,0,P|379:123|411:126,1,65,10|4,1:0|2:3,2:0:0:0:
442,155,172302,1,4,2:3:0:0:
442,155,172427,1,12,2:3:0:0:
489,212,172677,1,4,2:3:0:0:
410,267,172927,6,0,P|357:263|336:267,1,65,6|4,1:0|2:3,2:0:0:0:
313,333,173427,2,2,P|238:339|179:366,1,130,2|10,1:3|1:0,2:1:0:0:
142,300,174177,1,4,2:3:0:0:
75,333,174427,2,0,P|37:329|3:333,2,65,10|4|2,1:0|2:3|2:3,2:0:0:0:
79,258,175177,1,8,1:0:0:0:
50,188,175427,1,4,2:3:0:0:
78,118,175677,1,4,2:3:0:0:
76,43,175927,2,0,P|118:45|146:43,1,65,8|0,1:0|2:0,2:0:0:0:
204,82,176427,1,2,2:3:0:0:
241,17,176677,1,0,2:0:0:0:
322,70,176927,6,2,P|386:80|475:63,1,130,6|6,1:0|1:0,2:1:0:0:
486,136,177677,1,4,2:3:0:0:
441,195,177927,2,0,P|442:237|438:267,1,65,10|0,1:0|2:0,2:0:0:0:
367,283,178427,1,10,1:0:0:0:
284,184,178927,1,2,1:0:0:0:
219,222,179177,1,8,1:0:0:0:
150,191,179427,2,0,P|115:194|77:188,1,65,2|4,1:3|2:3,2:0:0:0:
42,251,179927,1,14,1:0:0:0:
116,357,180427,1,14,1:0:0:0:
237,317,180927,6,2,P|287:323|339:316,1,90.9999999999999,6|6,1:0|1:0,2:1:0:0:
408,369,181677,1,0,2:0:0:0:
482,308,181927,2,0,P|480:287|483:260,1,45.5,14|0,1:0|2:0,2:0:0:0:
427,184,182427,1,6,1:0:0:0:
277,245,182927,1,6,1:0:0:0:
277,84,183427,2,0,P|278:57|276:30,1,45.5,6|0,1:0|2:0,2:0:0:0:
187,4,183927,1,14,1:0:0:0:
147,90,184177,1,4,2:3:0:0:
210,168,184427,1,6,1:0:0:0:
210,168,184677,1,8,2:3:0:0:
142,235,184927,6,0,P|115:232|81:240,1,45.5,6|0,1:0|2:0,2:0:0:0:
50,318,185427,1,6,1:0:0:0:
124,377,185677,1,0,2:0:0:0:
203,323,185927,2,0,P|230:326|264:318,1,45.5,14|0,1:0|2:0,2:0:0:0:
336,361,186427,2,2,P|388:360|431:345,2,90.9999999999999,6|6|6,1:0|1:0|1:0,2:1:0:0:
249,323,187677,1,0,2:0:0:0:
286,235,187927,1,14,1:0:0:0:
374,271,188177,1,0,2:0:0:0:
454,218,188427,2,0,P|451:195|452:165,1,45.5,6|0,1:0|2:0,2:0:0:0:
428,84,188927,5,6,1:0:0:0:
428,84,189177,1,0,2:0:0:0:
344,127,189427,1,6,1:0:0:0:
344,127,189677,1,0,2:0:0:0:
346,35,189927,1,14,1:0:0:0:
346,35,190177,1,0,2:0:0:0:
428,84,190427,1,6,1:0:0:0:
260,170,190927,5,6,1:0:0:0:
260,170,191177,1,0,2:0:0:0:
176,213,191427,1,6,1:0:0:0:
176,213,191677,1,0,2:0:0:0:
178,121,191927,1,14,1:0:0:0:
178,121,192177,1,0,2:0:0:0:
260,170,192427,1,6,1:0:0:0:
92,256,192927,5,6,1:0:0:0:
92,256,193177,1,0,2:0:0:0:
9,299,193427,1,6,1:0:0:0:
9,299,193677,1,0,2:0:0:0:
10,207,193927,1,14,1:0:0:0:
10,207,194177,1,0,2:0:0:0:
92,256,194427,1,6,1:0:0:0:
272,332,194927,5,6,1:0:0:0:
272,332,195177,1,0,2:0:0:0:
359,381,195427,1,6,1:0:0:0:
359,381,195677,1,0,2:0:0:0:
361,285,195927,1,14,1:0:0:0:
356,189,196177,1,12,2:3:0:0:
361,93,196427,1,12,1:3:0:0:
187,12,196927,5,6,1:0:0:0:
187,12,197177,1,0,2:0:0:0:
104,60,197427,1,6,1:0:0:0:
104,60,197677,1,0,2:0:0:0:
187,107,197927,1,14,1:0:0:0:
187,12,198177,1,0,2:0:0:0:
104,60,198427,1,14,1:0:0:0:
298,64,198927,5,6,1:0:0:0:
298,64,199177,1,0,2:0:0:0:
381,112,199427,1,6,1:0:0:0:
381,112,199677,1,0,2:0:0:0:
298,159,199927,1,14,1:0:0:0:
298,64,200177,1,0,2:0:0:0:
381,112,200427,2,0,P|381:154|386:177,1,45.4999986114502,14|0,1:0|0:0,0:0:0:0:
333,241,200927,5,6,1:0:0:0:
333,241,201177,1,0,2:0:0:0:
250,289,201427,1,6,1:0:0:0:
250,289,201677,1,0,2:0:0:0:
333,336,201927,1,14,1:0:0:0:
333,241,202177,1,0,2:0:0:0:
250,289,202427,2,0,P|250:331|245:354,1,45.4999986114502,14|0,1:0|0:0,0:0:0:0:
163,371,202927,5,6,1:0:0:0:
163,371,203177,1,0,2:0:0:0:
85,323,203427,1,6,1:0:0:0:
85,323,203677,1,0,2:0:0:0:
168,275,203927,1,14,1:0:0:0:
163,371,204177,1,0,2:0:0:0:
85,323,204427,2,0,P|85:281|80:258,1,45.4999986114502,14|0,1:0|0:0,0:0:0:0:
27,207,204927,5,6,1:0:0:0:
27,207,205177,1,0,2:0:0:0:
109,156,205427,1,6,1:0:0:0:
109,156,205677,1,0,2:0:0:0:
24,112,205927,1,14,1:0:0:0:
27,207,206177,1,0,2:0:0:0:
109,156,206427,2,0,P|109:114|114:91,1,45.4999986114502,14|0,1:0|0:0,0:0:0:0:
169,36,206927,5,6,1:0:0:0:
169,36,207177,1,0,2:0:0:0:
256,85,207427,1,6,1:0:0:0:
256,85,207677,1,0,2:0:0:0:
334,29,207927,1,14,1:0:0:0:
334,29,208177,1,0,2:0:0:0:
383,111,208427,1,14,1:0:0:0:
303,163,208677,1,0,2:0:0:0:
341,250,208927,6,0,P|369:246|392:249,1,45.5,6|0,1:0|2:0,2:0:0:0:
317,333,209427,2,0,P|288:329|266:332,1,45.5,6|0,1:0|2:0,2:0:0:0:
190,295,209927,1,14,1:0:0:0:
190,295,210427,1,14,1:0:0:0:
251,222,210677,1,4,2:3:0:0:
178,161,210927,1,14,1:0:0:0:
112,231,211177,1,4,2:3:0:0:
27,185,211427,2,0,P|29:148|27:126,1,45.5,4|10,1:0|1:0,2:0:0:0:
103,87,211927,2,0,P|100:50|102:31,1,45.4999986114502,4|10,1:0|1:0,2:0:0:0:
190,10,212453,1,10,1:0:0:0:
242,89,212716,1,4,2:3:0:0:
178,161,212979,1,6,1:0:0:0:
256,192,213111,12,2,217420,2:0:0:0:
