osu file format v14

[General]
AudioFilename: audio.mp3
AudioLeadIn: 0
PreviewTime: 148927
Countdown: 0
SampleSet: Soft
StackLeniency: 0.7
Mode: 0
LetterboxInBreaks: 0
WidescreenStoryboard: 1

[Editor]
DistanceSpacing: 1.11
BeatDivisor: 4
GridSize: 32
TimelineZoom: 0.7999998

[Metadata]
Title:Here We Go Again
TitleUnicode:Here We Go Again
Artist:Paramore
ArtistUnicode:Paramore
Creator:Ruiz Duchamp
Version:Easy
Source:
Tags:all we know is falling english punk rock alternative
BeatmapID:4091616
BeatmapSetID:1897276

[Difficulty]
HPDrainRate:4
CircleSize:3
OverallDifficulty:4
ApproachRate:4
SliderMultiplier:1
SliderTickRate:1

[Events]
//Background and Video events
0,0,"34.jpeg",0,0
//Break Periods
2,57127,59607
2,121127,123607
//Storyboard Layer 0 (Background)
//Storyboard Layer 1 (Fail)
//Storyboard Layer 2 (Pass)
//Storyboard Layer 3 (Foreground)
//Storyboard Layer 4 (Overlay)
//Storyboard Sound Samples

[TimingPoints]
927,500,4,2,1,50,1,0
180927,-111.111111111111,4,2,1,60,0,1
211927,526.315789473684,4,2,1,60,1,1
212979,-100,4,2,1,60,0,0
217420,-100,4,2,1,10,0,0

[Colours]
Combo1 : 17,254,176
Combo2 : 173,255,95
Combo3 : 255,88,100
Combo4 : 255,94,55

[HitObjects]
100,87,927,5,2,1:0:0:0:
193,53,1427,1,8,1:0:0:0:
193,53,1677,1,2,1:0:0:0:
280,94,2177,1,2,0:1:0:0:
376,82,2677,2,0,P|373:154|376:184,1,100,2|2,1:0|1:0,0:0:0:0:
320,261,3677,2,0,P|321:294|319:320,2,50,2|2|2,1:0|1:0|0:1,0:0:0:0:
286,225,4427,1,10,1:0:0:0:
209,283,4927,6,0,P|144:292|95:282,1,100,2|8,1:0|1:0,0:0:0:0:
65,268,5677,1,2,1:0:0:0:
24,179,6177,1,2,0:1:0:0:
56,87,6677,1,2,1:0:0:0:
148,56,7177,2,0,P|203:62|268:53,1,100,2|2,1:0|0:0,0:0:0:0:
280,94,7927,2,0,L|356:99,1,50,2|2,1:0|0:0,0:0:0:0:
374,77,8427,1,8,1:0:0:0:
461,118,8927,5,2,1:0:0:0:
457,214,9427,2,0,P|458:251|454:285,1,50,10|0,1:0|0:0,0:0:0:0:
457,312,9927,1,2,1:0:0:0:
372,358,10427,2,2,P|330:358|256:324,1,100,10|2,1:0|1:0,0:1:0:0:
192,289,11427,2,0,P|161:291|128:288,1,50,10|2,1:0|0:0,0:0:0:0:
100,315,11927,1,2,1:0:0:0:
31,246,12427,1,8,1:0:0:0:
85,165,12927,5,2,1:0:0:0:
176,198,13427,2,0,P|207:200|240:197,1,50,10|2,1:0|0:0,0:0:0:0:
270,179,13927,1,2,1:0:0:0:
358,217,14427,2,2,P|434:211|493:221,1,100,10|2,1:0|1:0,0:1:0:0:
504,128,15427,2,0,P|502:107|504:71,1,50,10|2,1:0|0:0,0:0:0:0:
472,40,15927,2,0,P|451:42|415:40,1,50,2|2,1:0|0:0,0:0:0:0:
388,76,16427,1,10,1:0:0:0:
298,39,16927,5,2,1:0:0:0:
223,101,17427,2,0,P|224:141|221:164,1,50,10|2,1:0|0:0,0:0:0:0:
234,198,17927,1,2,1:0:0:0:
319,243,18427,2,2,P|317:319|325:356,1,100,10|2,1:0|1:0,0:1:0:0:
410,380,19427,1,10,1:0:0:0:
493,330,19927,6,0,P|491:304|492:268,1,50,2|2,1:0|0:0,0:0:0:0:
462,241,20427,1,10,1:0:0:0:
495,150,20927,2,2,P|497:74|489:37,1,100,2|8,1:0|1:0,0:1:0:0:
450,27,21677,1,2,0:0:0:0:
406,49,21927,2,2,P|404:125|412:162,1,100,2|8,1:0|1:0,0:1:0:0:
343,220,22927,5,2,1:0:0:0:
261,167,23427,1,10,1:0:0:0:
176,214,23927,2,0,P|177:253|173:278,1,50,2|8,1:0|0:1,0:0:0:0:
202,304,24427,1,10,0:1:0:0:
131,370,24927,5,6,1:0:0:0:
46,321,25427,2,2,P|54:198|54:18,1,300,2|2,1:0|0:3,0:1:0:0:
99,38,27177,2,0,P|130:40|174:37,2,50,8|4|4,1:0|0:3|0:3,0:0:0:0:
99,86,27927,1,10,1:0:0:0:
141,173,28427,1,2,0:3:0:0:
232,141,28927,1,6,1:0:0:0:
277,157,29177,1,4,0:3:0:0:
324,146,29427,6,0,P|323:219|329:274,2,100,2|10|10,1:0|1:0|1:0,0:0:0:0:
405,93,30927,2,0,P|430:96|462:92,1,50,2|8,0:3|0:1,0:0:0:0:
494,130,31427,1,4,0:3:0:0:
494,130,31677,1,6,1:0:0:0:
471,227,32177,1,2,1:0:0:0:
494,324,32677,6,2,P|364:319|134:332,1,350,6|8,1:0|1:0,0:1:0:0:
94,333,34677,1,4,0:3:0:0:
44,245,35177,1,10,1:0:0:0:
44,245,35427,2,0,P|48:191|45:127,1,100,2|10,1:0|1:0,0:0:0:0:
113,70,36427,1,4,0:3:0:0:
198,121,36927,1,6,1:0:0:0:
278,62,37427,6,0,L|383:72,1,100,2|14,1:0|1:0,0:0:0:0:
434,153,38427,1,14,1:0:0:0:
380,237,38927,2,0,L|275:247,1,100,2|2,1:0|1:0,0:0:0:0:
242,279,39677,1,2,1:0:0:0:
147,245,40177,2,2,L|-3:227,1,150,2|4,1:0|1:0,0:1:0:0:
45,138,41427,6,2,L|349:114,1,300,2|2,1:0|0:3,0:1:0:0:
387,89,43177,1,8,1:0:0:0:
334,10,43677,1,4,0:3:0:0:
334,10,43927,2,0,L|217:1,1,100,10|2,1:0|0:3,0:0:0:0:
141,40,44927,5,6,1:0:0:0:
95,129,45427,1,6,1:0:0:0:
169,196,45927,1,10,1:0:0:0:
112,278,46427,2,0,P|114:334|111:379,2,100,8|2|2,1:0|1:0|1:0,0:0:0:0:
83,243,47677,1,4,0:3:0:0:
83,243,47927,1,10,1:0:0:0:
169,196,48427,1,2,0:3:0:0:
255,245,48927,6,2,P|335:238|453:150,1,200,6|10,1:0|1:0,0:1:0:0:
479,87,50427,1,8,1:0:0:0:
479,87,50677,1,2,1:0:0:0:
397,39,51177,1,8,1:0:0:0:
397,39,51427,2,0,P|346:43|275:35,1,100,4|8,0:3|1:0,0:0:0:0:
241,108,52427,1,2,0:0:0:0:
147,73,52927,6,0,P|149:126|145:188,1,100,6|6,1:0|1:0,0:0:0:0:
93,257,53927,1,10,1:0:0:0:
155,335,54427,1,8,1:0:0:0:
244,289,54927,2,0,P|298:289|372:266,1,100,2|2,1:0|1:0,0:0:0:0:
390,257,55677,1,4,0:3:0:0:
390,257,55927,1,10,1:0:0:0:
344,168,56427,2,0,P|315:170|278:166,1,50,8|4,0:3|0:3,0:0:0:0:
252,196,56927,1,6,1:0:0:0:
252,196,60927,5,2,1:0:0:0:
200,283,61427,1,10,1:0:0:0:
200,283,61677,1,2,1:0:0:0:
252,367,62177,1,2,0:1:0:0:
348,342,62677,2,0,P|398:347|461:341,1,100,2|2,1:0|1:0,0:0:0:0:
479,248,63677,2,0,L|531:254,2,50,2|2|2,0:0|1:0|0:0,0:0:0:0:
448,209,64427,1,10,1:0:0:0:
489,118,64927,6,2,P|485:78|487:19,1,100,2|10,1:0|1:0,0:1:0:0:
439,4,65677,1,2,1:0:0:0:
363,69,66177,1,2,1:0:0:0:
270,31,66677,2,0,P|223:36|159:29,1,100,2|2,1:0|1:0,0:0:0:0:
110,112,67677,1,2,1:0:0:0:
110,112,67927,2,0,P|113:174|107:231,1,100,2|8,1:0|1:0,0:0:0:0:
167,293,68927,5,2,1:0:0:0:
263,266,69427,2,0,P|303:270|334:262,1,50,10|2,1:0|0:0,0:0:0:0:
355,294,69927,1,2,1:0:0:0:
434,233,70427,2,2,P|440:190|438:116,1,100,10|2,1:0|1:0,0:1:0:0:
348,92,71427,2,0,P|308:96|277:88,1,50,10|2,1:0|0:0,0:0:0:0:
264,131,71927,2,0,P|224:127|193:135,1,50,2|2,1:0|0:0,0:0:0:0:
169,106,72427,1,10,1:0:0:0:
73,76,72927,5,2,1:0:0:0:
24,163,73427,2,0,P|27:227|20:280,1,100,10|2,1:0|1:0,0:0:0:0:
55,308,74177,1,2,0:0:0:0:
55,308,74427,2,0,P|105:303|168:310,1,100,10|2,1:0|1:0,0:0:0:0:
248,273,75427,2,0,P|275:276|307:273,1,50,10|2,1:0|0:0,0:0:0:0:
327,314,75927,2,0,P|354:311|386:314,1,50,2|2,1:0|0:0,0:0:0:0:
423,295,76427,1,10,1:0:0:0:
477,211,76927,6,0,P|475:189|478:158,1,50,2|2,1:0|0:0,0:0:0:0:
437,130,77427,2,0,P|439:108|436:77,1,50,10|2,1:0|0:0,0:0:0:0:
460,35,77927,1,2,1:0:0:0:
362,14,78427,2,2,P|305:18|242:5,1,100,10|2,1:0|1:0,0:1:0:0:
199,89,79427,1,10,1:0:0:0:
199,89,79677,2,0,P|201:130|198:165,2,50,2|2|2,0:0|1:0|0:0,0:0:0:0:
156,62,80427,1,10,1:0:0:0:
93,140,80927,6,2,P|95:201|85:269,1,100,2|10,1:0|1:0,0:1:0:0:
121,279,81677,1,0,0:0:0:0:
169,267,81927,1,2,1:0:0:0:
258,311,82427,2,0,P|296:311|311:314,1,50,10|2,1:0|0:0,0:0:0:0:
348,283,82927,2,2,P|392:289|467:282,1,100,2|10,1:0|1:0,0:1:0:0:
501,201,83927,1,2,1:0:0:0:
432,127,84427,1,10,0:1:0:0:
347,180,84927,5,6,1:0:0:0:
251,151,85427,2,2,P|186:149|-5:12,1,300,2|2,1:0|0:0,0:1:0:0:
47,4,87177,2,0,P|80:8|116:6,1,50,8|4,1:0|0:3,0:0:0:0:
139,43,87677,1,4,0:3:0:0:
139,43,87927,1,10,1:0:0:0:
235,67,88427,1,2,0:3:0:0:
317,10,88927,5,6,1:0:0:0:
409,47,89427,1,2,1:0:0:0:
506,25,89927,2,0,P|504:86|509:172,1,100,10|10,1:0|1:0,0:0:0:0:
443,203,90927,2,0,P|445:221|440:270,2,50,2|8|2,0:0|1:0|1:0,0:0:0:0:
407,168,91677,1,2,1:0:0:0:
322,220,92177,1,2,1:0:0:0:
230,180,92677,6,2,P|229:269|215:369,1,150,6|4,1:0|0:3,0:1:0:0:
126,300,93927,1,10,1:0:0:0:
31,322,94427,1,10,1:0:0:0:
31,322,94677,2,0,P|25:242|35:185,1,100,4|10,0:3|1:0,0:0:0:0:
39,173,95427,1,2,1:0:0:0:
132,207,95927,1,14,1:0:0:0:
219,158,96427,2,0,P|217:133|218:98,1,50,14|0,1:0|0:0,0:0:0:0:
194,63,96927,5,6,1:0:0:0:
286,24,97427,1,2,1:0:0:0:
344,105,97927,2,2,P|344:174|339:219,1,100,14|10,1:0|1:0,0:1:0:0:
387,235,98677,1,4,0:3:0:0:
387,235,98927,2,0,P|385:295|389:341,1,100,2|4,1:0|0:3,0:0:0:0:
351,368,99677,1,2,1:0:0:0:
256,335,100177,2,2,P|204:340|106:320,1,150,2|4,1:0|1:0,0:1:0:0:
12,349,101427,6,2,P|17:219|8:41,1,300,2|2,1:0|0:3,0:1:0:0:
52,25,103177,2,0,L|114:26,2,50,8|4|2,1:0|0:3|1:0,0:0:0:0:
49,74,103927,1,14,1:0:0:0:
117,146,104427,1,14,1:0:0:0:
209,106,104927,6,0,P|265:111|334:102,1,100,6|2,1:0|1:0,0:0:0:0:
353,141,105677,1,4,0:3:0:0:
353,141,105927,1,10,1:0:0:0:
321,235,106427,1,8,1:0:0:0:
351,330,106927,2,0,P|400:326|450:331,1,100,2|4,0:3|0:3,0:0:0:0:
497,309,107677,1,2,1:0:0:0:
497,309,107927,1,14,1:0:0:0:
454,218,108427,1,14,1:0:0:0:
487,123,108927,6,2,P|406:109|325:18,1,200,6|10,1:0|1:0,0:1:0:0:
233,60,110427,2,0,P|183:63|133:58,1,100,10|2,1:0|0:3,0:0:0:0:
84,145,111427,1,2,1:0:0:0:
140,227,111927,1,10,1:0:0:0:
99,318,112427,1,2,0:3:0:0:
188,363,112927,6,2,P|254:361|294:367,1,100,6|2,1:0|1:0,0:1:0:0:
368,307,113927,1,10,1:0:0:0:
303,230,114427,1,10,1:0:0:0:
367,153,114927,2,2,P|433:155|473:149,1,100,2|2,0:3|1:0,0:1:0:0:
504,117,115677,1,4,0:3:0:0:
504,117,115927,1,10,1:0:0:0:
442,38,116427,1,2,0:1:0:0:
347,70,116927,1,4,1:0:0:0:
256,192,117177,12,2,120927,1:0:0:0:
256,192,124927,5,6,1:0:0:0:
168,155,125427,1,8,1:0:0:0:
168,155,125677,1,2,1:0:0:0:
79,202,126177,1,2,0:0:0:0:
12,127,126677,2,0,P|14:68|11:24,2,100,2|2|2,1:0|1:0|1:0,0:0:0:0:
1,176,127927,1,2,1:0:0:0:
30,271,128427,1,10,1:0:0:0:
9,368,128927,6,0,P|67:366|130:375,1,100,2|8,1:0|1:0,0:0:0:0:
151,345,129677,1,2,1:0:0:0:
246,373,130177,1,2,0:0:0:0:
341,342,130677,1,2,0:0:0:0:
341,342,130927,2,2,P|450:333|527:251,1,200,12|12,0:3|0:3,0:1:0:0:
454,195,132427,1,8,1:0:0:0:
361,234,132927,6,0,L|278:236,1,50,6|2,1:0|1:0,0:0:0:0:
269,263,133427,1,12,1:0:0:0:
198,191,133927,2,0,L|116:194,2,50,6|4|14,1:0|0:3|1:0,0:0:0:0:
284,140,134927,2,0,P|295:104|298:35,1,100,6|12,1:0|1:0,0:0:0:0:
343,17,135677,1,2,1:0:0:0:
343,17,135927,1,6,1:0:0:0:
408,92,136427,1,12,1:0:0:0:
481,160,136927,6,2,P|470:196|467:265,1,100,6|12,1:0|1:0,0:1:0:0:
443,304,137677,1,2,1:0:0:0:
443,304,137927,1,6,1:0:0:0:
356,253,138427,1,14,1:0:0:0:
288,326,138927,1,6,1:0:0:0:
288,326,139177,2,0,P|231:319|170:330,1,100,2|2,1:0|1:0,0:0:0:0:
139,329,139927,1,6,1:0:0:0:
74,252,140427,1,14,1:0:0:0:
144,181,140927,6,2,L|151:110,1,50,6|0,1:0|0:0,0:1:0:0:
126,86,141427,1,12,1:0:0:0:
215,41,141927,1,6,1:0:0:0:
283,114,142427,1,14,1:0:0:0:
380,92,142927,2,2,P|382:198|374:226,1,100,6|12,1:0|1:0,0:1:0:0:
366,240,143677,1,2,1:0:0:0:
366,240,143927,1,6,1:0:0:0:
269,212,144427,1,14,1:0:0:0:
228,303,144927,6,2,P|156:302|31:362,1,200,6|6,1:0|1:0,0:1:0:0:
9,258,146427,1,14,1:0:0:0:
21,158,146927,1,14,1:0:0:0:
21,158,148927,6,2,P|102:149|211:82,1,200,6|10,1:0|1:0,0:1:0:0:
293,145,150427,1,10,1:0:0:0:
293,145,150677,1,4,0:3:0:0:
382,96,151177,1,8,1:0:0:0:
382,96,151427,1,4,0:3:0:0:
460,157,151927,2,2,P|457:244|464:278,1,100,10|2,1:0|0:3,0:1:0:0:
393,331,152927,6,0,P|341:323|290:329,1,100,6|2,1:0|1:0,0:0:0:0:
236,246,153927,1,10,1:0:0:0:
299,168,154427,1,10,1:0:0:0:
179,15,155427,1,2,1:0:0:0:
179,15,155677,2,0,P|120:26|51:23,1,100,2|2,1:0|1:0,0:0:0:0:
20,106,156677,6,2,P|21:271|12:361,1,250,6|10,1:0|1:0,0:1:0:0:
112,366,158427,1,10,1:0:0:0:
112,366,158677,2,0,P|183:364|251:378,1,100,2|10,1:0|1:0,0:0:0:0:
261,368,159427,1,2,1:0:0:0:
348,319,159927,1,10,1:0:0:0:
298,232,160427,1,8,0:3:0:0:
379,174,160927,6,0,P|454:180|503:171,1,100,6|2,1:0|1:0,0:0:0:0:
507,80,161927,1,10,1:0:0:0:
425,21,162427,1,10,1:0:0:0:
336,67,162927,2,0,P|261:73|212:64,1,100,2|2,1:0|1:0,0:0:0:0:
189,52,163677,1,2,1:0:0:0:
111,114,164177,1,2,1:0:0:0:
118,263,164927,5,6,1:0:0:0:
201,317,165427,2,2,P|306:314|507:371,1,300,6|2,1:0|0:3,0:1:0:0:
508,265,167427,2,0,L|510:210,1,50,4|2,0:3|1:0,0:0:0:0:
477,177,167927,1,14,1:0:0:0:
393,231,168427,1,14,1:0:0:0:
304,183,168927,6,0,P|235:197|170:192,2,100,6|2|10,1:0|1:0|1:0,0:0:0:0:
337,88,170427,1,14,1:0:0:0:
251,36,170927,1,2,0:3:0:0:
175,101,171427,2,0,L|121:99,1,50,4|4,0:3|0:3,0:0:0:0:
88,132,171927,1,10,1:0:0:0:
35,217,172427,1,12,0:3:0:0:
82,304,172927,6,2,P|191:314|273:359,1,200,6|10,1:0|1:0,0:1:0:0:
347,293,174427,1,10,1:0:0:0:
441,326,174927,2,0,P|456:279|456:226,1,100,2|4,0:3|0:3,0:0:0:0:
430,192,175677,1,4,0:3:0:0:
430,192,175927,1,8,1:0:0:0:
472,101,176427,1,2,0:3:0:0:
378,66,176927,6,2,P|269:56|187:11,1,200,6|10,1:0|1:0,0:1:0:0:
136,98,178427,1,10,1:0:0:0:
194,179,178927,2,0,P|191:247|197:288,1,100,2|2,1:0|1:3,0:0:0:0:
174,325,179677,1,4,0:3:0:0:
174,325,179927,1,14,1:0:0:0:
95,263,180427,1,14,1:0:0:0:
0,295,180927,6,2,P|5:189|2:84,1,179.999994506836,6|14,1:0|1:0,0:1:0:0:
90,66,182427,1,6,1:0:0:0:
169,125,182927,2,2,P|167:185|173:227,1,89.9999972534181,6|6,1:0|1:0,0:1:0:0:
216,247,183677,1,0,0:0:0:0:
216,247,183927,1,14,1:0:0:0:
302,197,184427,1,6,1:0:0:0:
384,253,184927,6,2,P|386:313|380:355,2,89.9999972534181,6|6|14,1:0|1:0|1:0,0:1:0:0:
461,189,186427,2,2,P|461:121|424:6,1,179.999994506836,6|6,1:0|1:0,0:1:0:0:
383,26,187677,1,0,0:0:0:0:
383,26,187927,1,14,1:0:0:0:
306,89,188427,1,6,1:0:0:0:
223,33,188927,6,2,P|176:37|113:27,1,89.9999972534181,6|6,1:0|1:0,0:1:0:0:
57,97,189927,1,14,1:0:0:0:
122,172,190427,1,6,1:0:0:0:
212,129,190927,2,2,P|259:133|322:123,1,89.9999972534181,6|6,1:0|1:0,0:1:0:0:
378,193,191927,1,14,1:0:0:0:
313,268,192427,1,6,1:0:0:0:
222,225,192927,6,2,P|175:229|112:219,1,89.9999972534181,6|6,1:0|1:0,0:1:0:0:
56,289,193927,1,14,1:0:0:0:
121,364,194427,1,6,1:0:0:0:
210,319,194927,2,2,P|257:323|320:313,1,89.9999972534181,6|6,1:0|1:0,0:1:0:0:
386,367,195927,1,14,1:0:0:0:
474,320,196427,1,12,1:3:0:0:
424,232,196927,6,2,P|420:179|427:127,1,89.9999972534181,6|6,1:0|1:0,0:1:0:0:
341,86,197927,1,14,1:0:0:0:
257,140,198427,1,14,1:0:0:0:
163,105,198927,2,2,P|167:52|160:0,1,89.9999972534181,6|6,1:0|1:0,0:1:0:0:
63,9,199927,1,14,1:0:0:0:
17,97,200427,1,14,1:0:0:0:
84,170,200927,6,2,P|88:223|81:275,1,89.9999972534181,6|6,1:0|1:0,0:1:0:0:
167,313,201927,1,14,1:0:0:0:
240,245,202427,1,14,1:0:0:0:
332,282,202927,2,2,P|328:335|335:387,2,89.9999972534181,6|6|14,1:0|1:0|1:0,0:1:0:0:
413,224,204427,1,14,1:0:0:0:
509,249,204927,6,2,P|513:196|506:144,1,89.9999972534181,6|6,1:0|1:0,0:1:0:0:
428,101,205927,1,14,1:0:0:0:
341,151,206427,1,14,1:0:0:0:
269,80,206927,2,2,P|220:85|176:80,1,89.9999972534181,6|6,1:0|1:0,0:1:0:0:
125,164,207927,1,14,1:0:0:0:
199,230,208427,1,14,1:0:0:0:
145,314,208927,6,2,P|103:315|41:337,2,89.9999972534181,6|6|14,1:0|1:0|1:0,0:1:0:0:
232,362,210427,1,14,1:0:0:0:
330,342,210927,2,2,P|385:348|452:336,1,89.9999972534181,14|4,1:0|1:0,0:1:0:0:
486,263,211927,1,4,1:0:0:0:
429,167,212453,1,10,1:0:0:0:
322,197,212979,1,6,1:0:0:0:
256,192,213242,12,2,217420,0:0:0:0:
