osu file format v14

[General]
AudioFilename: audio.mp3
AudioLeadIn: 0
PreviewTime: 148927
Countdown: 0
SampleSet: Soft
StackLeniency: 0.7
Mode: 0
LetterboxInBreaks: 0
WidescreenStoryboard: 0

[Editor]
DistanceSpacing: 1.11
BeatDivisor: 4
GridSize: 32
TimelineZoom: 1.4

[Metadata]
Title:Here We Go Again
TitleUnicode:Here We Go Again
Artist:Paramore
ArtistUnicode:Paramore
Creator:Ruiz Duchamp
Version:Another
Source:
Tags:all we know is falling english punk rock alternative
BeatmapID:3910301
BeatmapSetID:1897276

[Difficulty]
HPDrainRate:7
CircleSize:4
OverallDifficulty:7
ApproachRate:7
SliderMultiplier:1.5
SliderTickRate:1

[Events]
//Background and Video events
0,0,"34.jpeg",0,0
//Break Periods
2,57127,59277
2,121127,123027
//Storyboard Layer 0 (Background)
//Storyboard Layer 1 (Fail)
//Storyboard Layer 2 (Pass)
//Storyboard Layer 3 (Foreground)
//Storyboard Layer 4 (Overlay)
//Storyboard Sound Samples

[TimingPoints]
927,500,4,2,1,50,1,0
180927,-200,4,2,1,60,0,1
211927,526.315789473684,4,2,1,60,1,1
212979,-100,4,2,1,60,0,0
217420,-100,4,2,1,10,0,0

[Colours]
Combo1 : 17,254,176
Combo2 : 173,255,95
Combo3 : 255,88,100
Combo4 : 255,94,55

[HitObjects]
426,47,927,6,0,P|388:44|337:50,1,75,2|2,1:0|0:0,0:0:0:0:
505,75,1427,1,8,1:0:0:0:
275,73,1677,2,0,P|218:78|116:137,1,150,2|2,1:0|0:1,0:0:0:0:
91,186,2427,1,8,1:0:0:0:
2,94,2677,2,0,P|5:56|2:19,1,75,2|4,1:0|0:3,0:0:0:0:
148,248,3177,5,2,1:0:0:0:
46,325,3427,1,8,1:0:0:0:
122,383,3677,1,2,1:0:0:0:
238,316,3927,5,2,1:0:0:0:
323,361,4177,1,2,0:1:0:0:
394,331,4427,1,10,1:0:0:0:
490,368,4677,5,4,0:3:0:0:
490,368,4802,1,8,0:3:0:0:
490,368,4927,2,0,P|486:321|490:274,1,75,2|0,1:0|0:0,0:0:0:0:
419,220,5427,1,8,1:0:0:0:
496,66,5677,2,0,P|494:170|501:216,1,150,2|2,1:0|0:1,0:0:0:0:
488,293,6427,1,8,1:0:0:0:
347,190,6677,6,0,P|349:153|346:106,1,75,2|4,1:0|0:3,0:0:0:0:
277,46,7177,1,2,1:0:0:0:
168,117,7427,1,8,1:0:0:0:
84,84,7677,1,2,0:0:0:0:
84,84,7802,1,2,0:0:0:0:
84,84,7927,2,0,P|44:89|-1:84,1,75,2|2,1:0|0:0,0:0:0:0:
70,237,8427,1,8,1:0:0:0:
191,196,8677,1,2,0:0:0:0:
263,247,8927,6,0,P|259:284|261:321,1,75,2|2,1:0|0:0,0:0:0:0:
173,369,9427,1,10,1:0:0:0:
102,336,9677,1,0,0:0:0:0:
340,336,9927,2,0,P|377:338|424:335,1,75,2|0,1:0|0:0,0:0:0:0:
494,172,10427,6,2,P|435:189|341:189,1,150,10|2,1:0|1:0,0:1:0:0:
425,75,11177,1,2,0:0:0:0:
372,21,11427,2,0,P|335:24|287:20,1,75,10|2,1:0|0:0,0:0:0:0:
133,116,11927,2,0,P|170:113|218:117,1,75,2|2,1:0|0:0,0:0:0:0:
246,184,12427,1,8,1:0:0:0:
26,77,12677,5,2,0:0:0:0:
26,77,12802,1,2,0:0:0:0:
26,77,12927,2,0,P|28:40|27:-2,1,75,2|2,1:0|0:0,0:0:0:0:
110,142,13427,1,10,1:0:0:0:
24,237,13677,1,2,0:0:0:0:
74,300,13927,2,0,P|116:297|178:309,1,75,2|0,1:0|0:0,0:0:0:0:
256,377,14427,6,2,P|346:348|421:351,1,150,10|2,1:0|1:0,0:1:0:0:
474,241,15177,1,2,0:0:0:0:
416,188,15427,2,0,P|384:182|340:162,1,75,10|2,1:0|0:0,0:0:0:0:
345,165,15802,1,2,0:0:0:0:
345,165,15927,1,2,1:0:0:0:
494,99,16177,1,2,0:0:0:0:
357,22,16427,2,0,P|393:14|427:0,1,75,10|2,1:0|0:0,0:0:0:0:
246,75,16927,5,2,1:0:0:0:
246,75,17177,1,2,0:0:0:0:
100,12,17427,1,10,1:0:0:0:
100,12,17677,1,2,0:0:0:0:
5,143,17927,2,0,P|5:190|0:237,1,75,2|2,1:0|0:0,0:0:0:0:
134,357,18427,6,2,P|136:307|174:201,1,150,10|2,1:0|1:0,0:1:0:0:
276,279,19177,1,2,0:0:0:0:
350,252,19427,2,0,P|396:255|438:251,1,75,10|2,1:0|0:0,0:0:0:0:
301,356,19927,1,2,1:0:0:0:
252,199,20177,1,2,0:0:0:0:
151,285,20427,2,0,P|113:282|76:285,1,75,10|2,1:0|0:0,0:0:0:0:
196,136,20927,6,2,P|128:131|43:78,1,150,2|8,1:0|1:0,0:1:0:0:
245,47,21677,1,2,0:0:0:0:
318,77,21927,2,2,P|386:72|471:19,1,150,2|8,1:0|1:0,0:1:0:0:
331,176,22677,1,2,0:0:0:0:
396,223,22927,6,0,P|455:221|481:226,1,75,2|0,1:0|0:0,0:0:0:0:
116,223,23427,2,0,P|57:221|31:226,1,75,10|0,1:0|0:0,0:0:0:0:
351,291,23927,5,2,1:0:0:0:
161,292,24177,1,8,0:1:0:0:
129,366,24427,1,10,0:1:0:0:
383,366,24677,1,4,0:3:0:0:
186,174,24927,6,0,P|245:176|271:171,1,75,6|4,1:0|0:3,0:0:0:0:
59,72,25427,2,2,P|135:59|200:7,1,150,2|8,1:0|1:0,0:1:0:0:
262,57,26177,1,0,0:0:0:0:
385,9,26427,2,0,P|383:61|387:102,1,75,8|4,1:0|0:3,0:0:0:0:
468,184,26927,5,2,0:3:0:0:
411,261,27177,1,8,1:0:0:0:
456,328,27427,1,4,0:3:0:0:
456,328,27677,1,4,0:3:0:0:
280,257,27927,2,0,P|282:205|278:164,1,75,10|2,1:0|0:0,0:0:0:0:
181,346,28427,2,2,P|134:319|53:310,1,112.5,2|0,0:3|0:0,0:1:0:0:
0,308,28927,5,6,1:0:0:0:
0,308,29177,1,4,0:3:0:0:
0,308,29427,2,0,P|2:276|0:228,1,75,2|4,1:0|0:3,0:0:0:0:
256,384,29927,1,10,1:0:0:0:
256,384,30427,1,10,1:0:0:0:
256,384,30677,1,4,0:3:0:0:
436,292,30927,6,0,P|395:288|345:297,1,75,2|8,0:3|0:1,0:0:0:0:
512,236,31427,1,4,0:3:0:0:
323,201,31677,1,4,0:3:0:0:
256,384,31927,1,14,1:0:0:0:
256,384,32427,1,14,1:0:0:0:
74,185,32677,5,2,0:0:0:0:
74,185,32802,1,2,0:0:0:0:
74,185,32927,2,2,P|154:172|218:120,1,150,6|4,1:0|0:3,0:1:0:0:
86,27,33677,1,4,0:3:0:0:
159,0,33927,2,0,P|204:3|245:-3,1,75,10|2,1:0|0:0,0:0:0:0:
317,51,34427,1,8,1:0:0:0:
388,18,34677,1,4,0:3:0:0:
388,18,34927,1,2,0:3:0:0:
488,103,35177,5,10,1:0:0:0:
362,204,35427,1,2,1:0:0:0:
465,281,35677,1,4,0:3:0:0:
288,141,35927,5,10,1:0:0:0:
288,334,36177,1,4,1:0:0:0:
469,253,36427,1,4,0:3:0:0:
469,253,36927,6,0,P|468:212|470:168,1,75,6|4,1:0|0:3,0:0:0:0:
288,66,37427,2,0,P|289:107|287:151,1,75,2|4,1:0|0:3,0:0:0:0:
288,334,37927,1,14,1:0:0:0:
288,334,38427,1,14,1:0:0:0:
288,254,38677,1,4,0:3:0:0:
167,297,38927,5,2,1:0:0:0:
166,375,39177,1,8,1:0:0:0:
384,301,39427,5,2,1:0:0:0:
387,174,39677,1,2,1:0:0:0:
387,174,39927,2,0,P|435:176|482:171,1,75,8|0,1:0|0:0,0:0:0:0:
288,141,40427,2,0,P|240:143|193:138,1,75,2|0,0:0|0:0,0:0:0:0:
61,252,40927,5,4,1:0:0:0:
0,72,41177,1,4,0:3:0:0:
139,158,41427,2,0,P|138:199|140:243,1,75,2|4,1:0|0:3,0:0:0:0:
0,377,41927,2,0,P|1:336|-1:292,1,75,10|0,1:0|0:0,0:0:0:0:
61,174,42427,5,8,1:0:0:0:
218,297,42677,2,0,P|217:256|219:212,1,75,2|2,1:0|0:3,0:0:0:0:
145,81,43177,1,8,1:0:0:0:
61,174,43427,1,4,0:3:0:0:
115,232,43677,1,4,0:3:0:0:
239,123,43927,6,0,P|281:126|327:120,1,75,10|0,1:0|0:0,0:0:0:0:
439,263,44427,2,2,P|376:278|329:320,1,112.5,2|0,0:3|0:0,0:1:0:0:
317,384,44927,5,6,1:0:0:0:
473,263,45177,1,4,0:3:0:0:
340,123,45427,1,6,1:0:0:0:
340,123,45927,2,0,P|342:169|336:208,1,75,10|0,1:0|0:0,0:0:0:0:
505,100,46427,1,8,1:0:0:0:
389,44,46677,1,4,0:3:0:0:
472,188,46927,6,0,P|470:234|476:273,1,75,2|8,1:0|1:0,0:0:0:0:
372,347,47427,1,2,1:0:0:0:
294,292,47677,1,4,0:3:0:0:
217,311,47927,2,0,P|219:265|213:226,1,75,10|4,1:0|0:0,0:0:0:0:
74,322,48427,1,2,0:3:0:0:
153,375,48677,1,4,0:3:0:0:
21,192,48927,6,2,P|75:189|178:123,1,150,6|2,1:0|1:3,0:1:0:0:
61,62,49677,1,4,0:3:0:0:
122,16,49927,2,0,P|167:21|223:8,1,75,10|0,1:0|0:0,0:0:0:0:
299,94,50427,1,8,1:0:0:0:
370,59,50677,6,2,P|458:65|525:57,1,150,2|8,1:0|1:0,0:1:0:0:
400,166,51427,1,4,0:3:0:0:
456,243,51677,1,4,0:3:0:0:
412,309,51927,2,0,P|374:304|324:310,1,75,8|0,1:0|0:0,0:0:0:0:
251,267,52427,1,2,0:0:0:0:
183,296,52677,1,4,0:3:0:0:
0,192,52927,5,6,1:0:0:0:
0,192,53177,1,4,0:3:0:0:
178,101,53427,1,6,1:0:0:0:
178,101,53677,1,4,0:3:0:0:
183,296,53927,2,2,P|127:290|33:298,1,150,10|8,1:0|1:0,0:1:0:0:
36,376,54677,1,4,0:3:0:0:
251,236,54927,6,0,P|297:240|345:229,1,75,2|8,1:0|1:0,0:0:0:0:
412,277,55427,1,2,1:0:0:0:
481,243,55677,1,4,0:3:0:0:
365,353,55927,2,2,P|316:351|241:371,1,112.5,10|4,1:0|0:3,0:1:0:0:
254,365,56427,1,8,0:3:0:0:
187,332,56677,1,4,0:3:0:0:
118,353,56927,1,6,1:0:0:0:
163,333,60177,5,4,0:3:0:0:
163,333,60302,1,4,0:3:0:0:
163,333,60427,1,10,1:0:0:0:
256,242,60677,1,4,0:3:0:0:
35,293,60927,6,0,P|37:253|33:202,1,75,2|2,1:0|0:0,0:0:0:0:
84,371,61427,1,10,1:0:0:0:
110,183,61677,2,0,P|105:126|46:24,1,150,2|2,1:0|0:1,0:0:0:0:
7,97,62427,1,8,1:0:0:0:
146,18,62677,2,0,P|192:23|237:16,1,75,2|4,1:0|0:3,0:0:0:0:
353,104,63177,2,0,P|307:99|262:106,1,75,2|8,1:0|1:0,0:0:0:0:
215,214,63677,1,2,0:0:0:0:
264,297,63927,1,2,1:0:0:0:
229,372,64177,1,2,0:0:0:0:
229,372,64302,1,2,0:0:0:0:
229,372,64427,2,0,P|183:367|138:374,1,75,10|2,1:0|0:0,0:0:0:0:
331,250,64927,6,2,P|391:251|485:212,1,150,2|10,1:0|1:0,0:1:0:0:
512,291,65677,2,0,P|510:346|512:369,1,75,2|4,1:0|0:3,0:0:0:0:
388,171,66177,2,0,P|390:116|388:93,1,75,2|8,1:0|1:0,0:0:0:0:
317,33,66677,1,2,1:0:0:0:
246,69,66927,1,4,0:3:0:0:
154,26,67177,2,0,P|156:63|153:100,1,75,2|8,1:0|1:0,0:0:0:0:
61,194,67677,5,2,1:0:0:0:
166,273,67927,1,2,1:0:0:0:
253,230,68177,1,2,0:1:0:0:
62,337,68427,5,8,1:0:0:0:
185,366,68677,1,2,1:0:0:0:
272,331,68927,6,0,P|269:285|275:235,1,75,2|2,1:0|0:0,0:0:0:0:
153,101,69427,2,0,P|156:147|150:197,1,75,10|2,1:0|0:0,0:0:0:0:
283,81,69927,1,2,1:0:0:0:
365,121,70177,1,2,0:0:0:0:
442,97,70427,6,2,P|445:198|437:267,1,150,10|2,1:0|1:0,0:1:0:0:
428,325,71177,1,2,0:0:0:0:
271,256,71427,2,0,P|274:210|268:160,1,75,10|2,1:0|0:0,0:0:0:0:
360,40,71927,1,2,1:0:0:0:
364,199,72177,1,2,0:0:0:0:
249,82,72427,2,0,P|212:86|165:80,1,75,10|2,1:0|0:0,0:0:0:0:
15,194,72927,6,0,P|56:200|138:277,1,150,2|10,1:0|1:0,0:0:0:0:
70,316,73677,1,0,0:0:0:0:
10,118,73927,2,0,P|12:81|9:32,1,75,2|2,1:0|0:0,0:0:0:0:
249,7,74427,2,0,P|247:44|250:93,1,75,10|2,1:0|0:0,0:0:0:0:
129,191,74927,5,2,1:0:0:0:
129,33,75177,1,2,0:0:0:0:
270,166,75427,2,0,P|258:206|255:252,1,75,10|2,1:0|0:0,0:0:0:0:
36,321,75927,2,0,P|48:281|51:235,1,75,2|2,1:0|0:0,0:0:0:0:
14,122,76427,1,10,1:0:0:0:
14,122,76677,1,2,0:0:0:0:
184,270,76927,6,0,P|172:310|169:356,1,75,2|2,1:0|0:0,0:0:0:0:
382,281,77427,1,10,1:0:0:0:
270,166,77677,1,2,0:0:0:0:
308,361,77927,2,0,P|351:360|398:364,1,75,2|2,1:0|0:0,0:0:0:0:
495,246,78427,6,2,P|492:176|497:94,1,150,10|2,1:0|1:0,0:1:0:0:
440,44,79177,1,2,0:0:0:0:
300,136,79427,2,0,P|303:94|302:49,1,75,10|2,1:0|0:0,0:0:0:0:
218,19,79927,1,2,1:0:0:0:
148,47,80177,1,2,0:0:0:0:
58,10,80427,2,0,P|54:51|56:97,1,75,10|2,1:0|0:0,0:0:0:0:
13,300,80927,6,0,P|16:230|11:148,1,150,2|10,1:0|1:0,0:0:0:0:
151,236,81677,1,0,0:0:0:0:
245,196,81927,2,0,P|241:237|243:283,1,75,2|2,1:0|0:0,0:0:0:0:
378,369,82427,2,0,P|381:327|380:282,1,75,10|2,1:0|0:0,0:0:0:0:
427,142,82927,5,2,1:0:0:0:
487,290,83177,1,2,0:0:0:0:
356,197,83427,2,0,P|314:201|261:191,1,75,10|2,1:0|0:0,0:0:0:0:
161,93,83927,5,2,1:0:0:0:
351,92,84177,1,8,0:1:0:0:
383,18,84427,1,10,0:1:0:0:
129,18,84677,1,4,0:3:0:0:
282,197,84927,6,0,P|281:245|287:300,1,75,6|4,1:0|0:3,0:0:0:0:
156,374,85427,2,2,P|104:371|11:315,1,150,2|8,1:0|1:0,0:1:0:0:
121,241,86177,1,2,0:0:0:0:
68,182,86427,2,0,P|34:187|-11:180,1,75,8|4,1:0|0:3,0:0:0:0:
178,124,86927,1,2,0:0:0:0:
282,197,87177,1,8,1:0:0:0:
372,159,87427,2,0,P|405:164|451:157,1,75,4|4,0:3|0:3,0:0:0:0:
502,298,87927,6,2,P|439:338|365:347,2,150,10|2|6,1:0|0:3|1:0,0:1:0:0:
502,298,89177,1,4,0:3:0:0:
502,298,89427,1,2,1:0:0:0:
512,384,89677,1,4,0:3:0:0:
308,289,89927,2,0,P|311:246|305:192,1,75,10|0,1:0|0:0,0:0:0:0:
507,149,90427,2,0,P|504:192|510:246,1,75,10|4,1:0|0:3,0:0:0:0:
347,111,90927,5,2,0:0:0:0:
228,162,91177,1,8,1:0:0:0:
141,122,91427,1,2,1:0:0:0:
129,199,91677,2,0,P|130:251|125:290,1,75,2|8,1:0|1:0,0:0:0:0:
10,342,92177,1,2,1:0:0:0:
11,116,92427,1,12,1:0:0:0:
11,116,92677,1,2,0:0:0:0:
245,343,92927,6,2,P|255:284|329:201,1,150,6|4,1:0|0:3,0:1:0:0:
374,326,93677,1,4,0:3:0:0:
442,288,93927,2,0,P|492:292|530:285,1,75,10|0,1:0|0:0,0:0:0:0:
309,214,94427,1,10,1:0:0:0:
374,360,94677,1,4,0:3:0:0:
442,254,94927,1,2,0:3:0:0:
245,343,95177,5,10,1:0:0:0:
123,297,95427,1,2,1:0:0:0:
33,330,95677,1,4,0:3:0:0:
227,202,95927,5,14,1:0:0:0:
3,214,96177,1,12,1:0:0:0:
231,230,96427,1,14,1:0:0:0:
231,230,96927,6,0,P|230:279|232:331,1,75,6|4,1:0|0:3,0:0:0:0:
434,159,97427,2,0,P|435:110|433:58,1,75,2|4,1:0|0:3,0:0:0:0:
262,0,97927,2,2,P|265:59|305:163,1,150,14|10,1:0|1:0,0:1:0:0:
444,8,98677,1,4,0:3:0:0:
512,43,98927,6,0,P|511:92|513:144,1,75,2|8,1:0|1:0,0:0:0:0:
408,242,99427,1,4,0:3:0:0:
478,357,99677,2,0,P|445:354|381:358,1,75,2|8,1:0|1:0,0:0:0:0:
252,298,100177,2,2,P|193:301|89:341,1,150,2|0,1:0|0:3,0:1:0:0:
39,295,100927,5,4,1:0:0:0:
39,295,101177,1,4,0:3:0:0:
39,295,101427,2,0,P|41:249|39:205,1,75,2|4,1:0|0:3,0:0:0:0:
186,67,101927,2,2,P|179:169|158:236,1,150,10|10,1:0|1:0,0:1:0:0:
8,97,102677,1,0,0:0:0:0:
42,26,102927,6,0,P|85:29|133:25,1,75,2|8,0:3|1:0,0:0:0:0:
264,93,103427,1,4,0:3:0:0:
380,39,103677,1,2,1:0:0:0:
166,214,103927,5,14,1:0:0:0:
390,202,104177,1,12,1:0:0:0:
170,194,104427,1,14,1:0:0:0:
170,194,104927,6,0,P|171:240|169:275,1,75,6|4,1:0|0:3,0:0:0:0:
349,355,105427,2,0,P|348:309|350:274,1,75,2|4,1:0|0:3,0:0:0:0:
486,191,105927,2,2,P|485:122|458:39,1,150,10|8,1:0|1:0,0:1:0:0:
347,112,106677,1,4,0:3:0:0:
277,74,106927,2,0,P|234:77|189:71,1,75,2|8,0:3|1:0,0:0:0:0:
361,24,107427,1,4,0:3:0:0:
296,177,107677,1,2,1:0:0:0:
86,16,107927,5,14,1:0:0:0:
172,229,108177,1,12,1:0:0:0:
114,20,108427,1,14,1:0:0:0:
114,20,108927,6,0,P|76:17|27:24,1,75,6|4,1:0|0:3,0:0:0:0:
137,151,109427,2,2,P|62:177|3:236,1,150,6|10,1:0|1:0,0:1:0:0:
81,332,110177,1,0,0:0:0:0:
155,302,110427,1,10,1:0:0:0:
220,336,110677,1,4,0:3:0:0:
365,260,110927,5,2,0:3:0:0:
208,231,111177,1,8,1:0:0:0:
345,376,111427,1,2,1:0:0:0:
345,376,111677,1,4,0:3:0:0:
447,300,111927,2,0,P|445:257|449:209,1,75,10|4,1:0|0:0,0:0:0:0:
447,56,112427,2,0,P|445:99|449:147,1,75,2|4,0:3|0:3,0:0:0:0:
268,62,112927,6,2,P|284:149|283:221,1,150,6|2,1:0|1:0,0:1:0:0:
166,164,113677,1,4,0:3:0:0:
98,201,113927,2,0,P|99:259|95:315,1,75,10|0,1:0|0:0,0:0:0:0:
361,141,114427,2,0,P|360:83|364:27,1,75,10|4,1:0|0:3,0:0:0:0:
178,5,114927,5,2,0:3:0:0:
109,38,115177,1,10,1:0:0:0:
109,117,115427,1,2,1:0:0:0:
109,117,115677,1,4,0:3:0:0:
211,236,115927,2,2,P|195:323|196:395,1,150,10|2,1:0|0:1,0:1:0:0:
345,330,116677,1,4,0:3:0:0:
415,357,116927,1,4,1:0:0:0:
256,192,117052,12,2,120927,1:0:0:0:
448,192,123927,6,0,P|449:134|446:98,1,75,12|0,0:3|0:0,0:0:0:0:
362,79,124427,1,14,1:0:0:0:
292,113,124677,1,4,0:3:0:0:
392,250,124927,6,0,P|329:260|301:278,1,75,6|2,1:0|0:0,0:0:0:0:
471,315,125427,1,8,1:0:0:0:
247,315,125677,2,2,P|200:312|95:358,1,150,2|2,1:0|0:0,0:1:0:0:
38,308,126427,1,8,1:0:0:0:
215,232,126677,6,0,P|211:198|215:141,1,75,2|4,1:0|0:3,0:0:0:0:
26,82,127177,2,0,P|30:116|26:173,1,75,2|8,1:0|1:0,0:0:0:0:
207,65,127677,1,2,1:0:0:0:
322,124,127927,1,2,1:0:0:0:
408,82,128177,1,2,0:0:0:0:
321,230,128427,1,10,1:0:0:0:
213,157,128677,1,2,0:0:0:0:
320,322,128927,6,0,P|282:322|239:333,1,75,2|2,1:0|0:0,0:0:0:0:
403,360,129427,1,8,1:0:0:0:
168,359,129677,2,0,P|105:359|19:382,1,150,2|2,1:0|0:0,0:0:0:0:
136,260,130427,1,8,1:0:0:0:
8,260,130677,1,2,0:0:0:0:
141,82,130927,5,12,0:3:0:0:
48,169,131177,1,4,0:3:0:0:
136,260,131427,1,4,0:3:0:0:
229,173,131677,1,8,0:3:0:0:
13,17,131927,5,12,0:3:0:0:
48,89,132177,1,4,0:3:0:0:
48,169,132427,1,8,1:0:0:0:
13,241,132677,1,8,0:3:0:0:
229,173,132927,6,0,P|226:136|229:82,2,75,6|2|12,1:0|1:0|1:0,0:0:0:0:
306,67,133677,1,2,1:0:0:0:
262,254,133927,1,6,1:0:0:0:
126,167,134177,1,4,0:3:0:0:
343,292,134427,5,14,1:0:0:0:
183,292,134677,1,4,0:3:0:0:
425,138,134927,5,6,1:0:0:0:
400,232,135177,1,2,1:0:0:0:
421,306,135427,1,12,1:0:0:0:
311,187,135677,5,2,1:0:0:0:
478,379,135927,1,6,1:0:0:0:
512,125,136177,1,4,0:3:0:0:
347,305,136427,2,0,P|394:302|424:307,1,75,12|4,1:0|0:3,0:0:0:0:
194,212,136927,6,2,P|142:214|56:266,1,150,6|12,1:0|1:0,0:1:0:0:
124,373,137677,1,2,1:0:0:0:
190,331,137927,2,0,P|237:328|267:333,1,75,6|4,1:0|0:3,0:0:0:0:
74,154,138427,2,0,P|27:151|-3:156,1,75,14|4,1:0|0:3,0:0:0:0:
246,62,138927,5,6,1:0:0:0:
357,127,139177,2,0,P|404:124|434:129,1,75,2|12,1:0|1:0,0:0:0:0:
255,155,139677,5,2,1:0:0:0:
414,37,139927,1,6,1:0:0:0:
349,251,140177,1,4,0:3:0:0:
214,74,140427,2,0,P|167:77|137:72,1,75,14|4,1:0|0:3,0:0:0:0:
260,239,140927,6,2,P|213:281|181:368,1,150,6|12,1:0|1:0,0:1:0:0:
80,281,141677,1,2,1:0:0:0:
2,301,141927,2,0,P|3:260|0:215,1,75,6|4,1:0|0:3,0:0:0:0:
140,73,142427,2,0,P|139:114|142:159,1,75,14|4,1:0|0:3,0:0:0:0:
260,239,142927,6,2,P|307:197|339:110,1,150,6|12,1:0|1:0,0:1:0:0:
179,5,143677,1,2,1:0:0:0:
140,73,143927,2,0,P|99:74|54:71,1,75,6|4,1:0|0:3,0:0:0:0:
338,118,144427,2,0,P|379:119|424:116,1,75,14|4,1:0|0:3,0:0:0:0:
205,188,144927,6,0,P|209:241|203:290,2,75,6|2|12,1:0|1:0|1:0,0:0:0:0:
257,128,145677,1,2,1:0:0:0:
128,305,145927,1,6,1:0:0:0:
336,238,146177,1,4,0:3:0:0:
128,170,146427,1,14,1:0:0:0:
257,347,146677,1,4,0:3:0:0:
421,238,146927,5,14,1:0:0:0:
421,238,148927,5,6,1:0:0:0:
275,167,149177,1,4,0:3:0:0:
350,310,149427,1,2,1:3:0:0:
374,147,149677,1,4,0:3:0:0:
262,265,149927,1,10,1:0:0:0:
262,265,150427,5,10,1:0:0:0:
141,217,150677,1,4,0:3:0:0:
55,261,150927,1,2,0:3:0:0:
182,351,151177,1,8,1:0:0:0:
112,384,151427,2,0,P|76:380|21:386,1,75,4|4,0:3|0:3,0:0:0:0:
141,181,151927,6,2,P|90:175|2:116,1,150,10|2,1:0|0:3,0:1:0:0:
9,47,152677,1,0,0:0:0:0:
212,136,152927,5,6,1:0:0:0:
336,88,153177,1,4,0:3:0:0:
431,135,153427,2,0,P|429:186|433:236,1,75,2|4,1:0|0:3,0:0:0:0:
273,260,153927,2,0,P|275:209|271:159,1,75,10|0,1:0|0:0,0:0:0:0:
473,323,154427,1,10,1:0:0:0:
360,384,154677,1,4,0:3:0:0:
276,342,154927,1,2,0:3:0:0:
276,342,155177,1,8,1:0:0:0:
122,384,155427,5,2,1:0:0:0:
10,322,155677,2,0,P|11:290|9:229,1,75,2|12,1:0|1:0,0:0:0:0:
187,162,156177,2,0,P|185:193|188:255,1,75,2|12,1:0|1:0,0:0:0:0:
14,142,156677,1,2,1:0:0:0:
285,69,156927,6,2,P|360:64|430:28,2,150,4|4|10,1:0|0:3|1:0,0:1:0:0:
285,69,158427,1,10,1:0:0:0:
377,170,158677,2,0,P|423:166|462:173,1,75,2|2,1:0|0:3,0:0:0:0:
273,260,159177,1,10,1:0:0:0:
377,140,159427,1,2,1:0:0:0:
377,334,159677,1,4,0:3:0:0:
219,178,159927,5,10,1:0:0:0:
102,241,160177,1,4,0:3:0:0:
13,203,160427,1,8,0:3:0:0:
13,203,160677,1,12,0:3:0:0:
98,342,160927,5,6,1:0:0:0:
187,304,161177,1,4,0:3:0:0:
258,336,161427,2,0,P|304:332|343:339,1,75,2|4,1:0|0:3,0:0:0:0:
187,160,161927,2,0,P|141:164|102:157,1,75,10|0,1:0|0:0,0:0:0:0:
340,57,162427,1,10,1:0:0:0:
250,233,162677,1,4,0:3:0:0:
132,79,162927,2,0,P|86:83|47:76,1,75,2|8,1:0|1:0,0:0:0:0:
243,6,163427,5,2,1:0:0:0:
187,160,163677,1,2,1:0:0:0:
267,263,163927,2,0,P|313:259|352:266,1,75,8|0,1:0|0:0,0:0:0:0:
187,313,164427,2,2,P|116:316|52:350,1,112.5,2|0,0:3|0:0,0:1:0:0:
14,383,164927,5,6,1:0:0:0:
14,383,165177,1,4,0:3:0:0:
14,383,165427,1,6,1:0:0:0:
10,304,165677,1,4,0:3:0:0:
260,372,165927,1,10,1:0:0:0:
260,372,166427,1,10,1:0:0:0:
260,242,166677,1,4,0:3:0:0:
179,189,166927,1,2,0:3:0:0:
108,226,167177,1,8,1:0:0:0:
344,327,167427,5,4,0:3:0:0:
344,166,167677,1,2,1:0:0:0:
459,100,167927,1,14,1:0:0:0:
459,100,168177,1,4,0:3:0:0:
512,157,168427,2,2,P|509:231|513:291,1,112.5,14|0,1:0|0:0,0:1:0:0:
468,336,168927,5,6,1:0:0:0:
468,336,169177,1,4,0:3:0:0:
328,156,169427,2,0,P|330:123|327:56,1,75,2|4,1:0|0:3,0:0:0:0:
512,0,169927,2,0,P|510:33|513:100,1,75,10|0,1:0|0:3,0:0:0:0:
295,0,170427,1,14,1:0:0:0:
231,149,170677,1,4,0:3:0:0:
146,111,170927,6,0,P|145:168|149:209,1,75,2|8,0:3|1:0,0:0:0:0:
32,77,171427,1,4,0:3:0:0:
108,260,171677,1,4,0:3:0:0:
231,149,171927,2,0,P|288:150|329:146,1,75,10|4,1:0|0:3,0:0:0:0:
305,148,172302,1,4,0:3:0:0:
305,148,172427,1,12,0:3:0:0:
275,282,172677,1,4,0:3:0:0:
111,36,172927,6,0,P|154:39|213:29,1,75,6|4,1:0|0:3,0:0:0:0:
275,282,173427,2,0,P|231:278|173:289,1,75,2|4,1:3|0:3,0:0:0:0:
38,384,173927,1,10,1:0:0:0:
38,384,174427,1,10,1:0:0:0:
75,263,174677,1,4,0:3:0:0:
165,364,174927,2,0,P|208:360|267:371,1,75,2|8,0:3|1:0,0:0:0:0:
333,331,175427,1,4,0:3:0:0:
407,357,175677,1,4,0:3:0:0:
491,306,175927,2,0,P|494:262|484:204,1,75,8|0,1:0|0:0,0:0:0:0:
378,79,176427,2,2,P|375:164|382:209,1,112.5,2|0,0:3|0:0,0:1:0:0:
496,144,176927,5,6,1:0:0:0:
496,144,177177,1,4,0:3:0:0:
496,144,177427,1,6,1:0:0:0:
489,49,177677,1,4,0:3:0:0:
288,160,177927,2,0,P|291:197|287:234,1,75,10|0,1:0|0:0,0:0:0:0:
131,120,178427,1,10,1:0:0:0:
249,54,178677,1,4,0:3:0:0:
186,8,178927,6,0,P|154:12|107:7,1,75,2|8,1:0|1:0,0:0:0:0:
19,105,179427,1,2,1:3:0:0:
19,105,179677,1,4,0:3:0:0:
129,224,179927,1,14,1:0:0:0:
26,304,180177,1,4,0:3:0:0:
91,352,180427,2,2,P|148:353|222:381,1,112.5,14|0,1:0|0:0,0:1:0:0:
279,344,180927,5,6,1:0:0:0:
279,344,181427,1,6,1:0:0:0:
279,344,181927,2,0,P|287:323|291:299,1,37.5,14|0,1:0|0:0,0:0:0:0:
277,148,182427,2,2,P|260:194|257:220,2,75,6|6|6,1:0|1:0|1:0,0:1:0:0:
329,90,183677,1,0,0:0:0:0:
101,272,183927,5,14,1:0:0:0:
257,219,184177,1,4,0:3:0:0:
101,172,184427,1,6,1:0:0:0:
201,307,184677,1,8,0:3:0:0:
201,141,184927,2,0,P|199:122|202:94,1,37.5,6|0,1:0|0:0,0:0:0:0:
128,0,185427,2,2,P|129:49|127:76,2,75,6|14|6,1:0|1:0|1:0,0:1:0:0:
0,225,186927,5,6,1:0:0:0:
132,369,187427,2,0,P|158:369|181:371,1,37.5,6|0,1:0|0:0,0:0:0:0:
349,299,187927,2,2,P|313:304|273:299,1,75,14|6,1:0|1:0,0:1:0:0:
199,298,188677,1,0,0:0:0:0:
415,254,188927,6,0,P|420:238|432:220,1,37.5,6|0,1:0|0:0,0:0:0:0:
408,6,189427,1,6,1:0:0:0:
323,103,189677,1,0,0:0:0:0:
447,74,189927,1,14,1:0:0:0:
331,25,190177,1,0,0:0:0:0:
396,134,190427,2,0,P|390:149|378:167,1,37.5,6|0,1:0|0:0,0:0:0:0:
149,275,190927,6,0,P|143:259|131:241,1,37.5,6|0,1:0|0:0,0:0:0:0:
156,27,191427,1,6,1:0:0:0:
241,124,191677,1,0,0:0:0:0:
117,95,191927,1,14,1:0:0:0:
233,46,192177,1,0,0:0:0:0:
168,155,192427,2,0,P|173:170|185:188,1,37.5,6|0,1:0|0:0,0:0:0:0:
480,363,192927,6,0,P|485:347|497:329,1,37.5,6|0,1:0|0:0,0:0:0:0:
473,115,193427,1,6,1:0:0:0:
388,212,193677,1,0,0:0:0:0:
512,183,193927,1,14,1:0:0:0:
396,134,194177,1,0,0:0:0:0:
461,243,194427,2,0,P|455:258|443:276,1,37.5,6|0,1:0|0:0,0:0:0:0:
32,363,194927,6,0,P|27:347|15:329,1,37.5,6|0,1:0|0:0,0:0:0:0:
39,115,195427,1,6,1:0:0:0:
124,212,195677,1,0,0:0:0:0:
0,183,195927,1,14,1:0:0:0:
116,134,196177,1,12,0:3:0:0:
51,243,196427,2,0,P|57:258|69:276,1,37.5,12|0,1:3|0:0,0:0:0:0:
315,384,196927,6,0,P|315:365|313:346,1,37.5,6|0,1:0|0:0,0:0:0:0:
425,167,197427,1,6,1:0:0:0:
322,262,197677,1,0,0:0:0:0:
461,243,197927,1,14,1:0:0:0:
338,177,198177,1,0,0:0:0:0:
400,303,198427,2,0,P|398:333|402:359,1,37.5,14|0,1:0|0:0,0:0:0:0:
175,270,198927,6,0,P|174:251|176:232,1,37.5,6|0,1:0|0:0,0:0:0:0:
64,53,199427,1,6,1:0:0:0:
167,148,199677,1,0,0:0:0:0:
28,129,199927,1,14,1:0:0:0:
151,63,200177,1,0,0:0:0:0:
89,189,200427,2,0,P|91:219|87:245,1,37.5,14|0,1:0|0:0,0:0:0:0:
322,262,200927,6,0,P|322:243|320:224,1,37.5,6|0,1:0|0:0,0:0:0:0:
432,45,201427,1,6,1:0:0:0:
329,140,201677,1,0,0:0:0:0:
468,121,201927,1,14,1:0:0:0:
345,55,202177,1,0,0:0:0:0:
407,181,202427,2,0,P|405:211|409:237,1,37.5,14|0,1:0|0:0,0:0:0:0:
183,354,202927,6,0,P|182:335|184:316,1,37.5,6|0,1:0|0:0,0:0:0:0:
73,137,203427,1,6,1:0:0:0:
176,232,203677,1,0,0:0:0:0:
37,213,203927,1,14,1:0:0:0:
160,147,204177,1,0,0:0:0:0:
98,273,204427,2,0,P|100:303|96:329,1,37.5,14|0,1:0|0:0,0:0:0:0:
407,181,204927,5,6,1:0:0:0:
407,181,205427,1,6,1:0:0:0:
317,53,205677,1,0,0:0:0:0:
463,103,205927,1,14,1:0:0:0:
318,154,206177,1,0,0:0:0:0:
415,26,206427,1,14,1:0:0:0:
415,26,206677,1,0,0:0:0:0:
107,201,206927,5,6,1:0:0:0:
107,201,207427,1,6,1:0:0:0:
183,92,207677,1,0,0:0:0:0:
57,135,207927,1,14,1:0:0:0:
185,172,208177,1,0,0:0:0:0:
105,65,208427,1,14,1:0:0:0:
105,65,208677,1,0,0:0:0:0:
474,254,208927,6,0,P|443:252|425:256,1,37.5,6|0,1:0|0:0,0:0:0:0:
113,303,209427,2,0,P|144:301|162:305,1,37.5,6|0,1:0|0:0,0:0:0:0:
367,352,209927,1,14,1:0:0:0:
367,352,210427,1,14,1:0:0:0:
208,384,210677,1,4,0:3:0:0:
360,205,210927,5,14,1:0:0:0:
277,33,211177,1,4,0:3:0:0:
276,223,211427,1,4,1:0:0:0:
360,52,211677,1,10,1:0:0:0:
211,170,211927,1,4,1:0:0:0:
396,128,212190,5,10,1:0:0:0:
211,86,212453,1,10,1:0:0:0:
360,205,212716,5,4,0:3:0:0:
479,140,212979,1,6,1:0:0:0:
256,192,213111,12,2,217420,0:0:0:0:
