osu file format v14

[General]
AudioFilename: audio.mp3
AudioLeadIn: 0
PreviewTime: 225498
Countdown: 0
SampleSet: Soft
StackLeniency: 0.4
Mode: 0
LetterboxInBreaks: 0
WidescreenStoryboard: 1

[Editor]
DistanceSpacing: 1.05
BeatDivisor: 2
GridSize: 32
TimelineZoom: 1.000001

[Metadata]
Title:Decode
TitleUnicode:Decode
Artist:Paramore
ArtistUnicode:Paramore
Creator:attendant
Version:Hyper
Source:Twilight
Tags:english punk rock alternative
BeatmapID:4031560
BeatmapSetID:1888967

[Difficulty]
HPDrainRate:4
CircleSize:4
OverallDifficulty:6
ApproachRate:6
SliderMultiplier:1
SliderTickRate:0.5

[Events]
//Background and Video events
0,0,"OQ8Jc7kBmA.jpg",0,0
Video,1974,"video.mp4"
//Break Periods
2,40607,42284
2,104998,106674
2,160607,171066
2,181829,182541
//Storyboard Layer 0 (Background)
//Storyboard Layer 1 (Fail)
//Storyboard Layer 2 (Pass)
//Storyboard Layer 3 (Foreground)
//Storyboard Layer 4 (Overlay)
//Storyboard Sound Samples

[TimingPoints]
2359,365.853658536585,4,2,1,50,1,0
46261,-100,4,2,1,55,0,0
46444,-100,4,2,1,40,0,0
46627,-100,4,2,1,60,0,0
46810,-100,4,2,1,40,0,0
46993,-100,4,2,1,65,0,0
47176,-100,4,2,1,40,0,0
47358,-100,4,2,1,70,0,0
47541,-100,4,2,1,40,0,0
47724,-100,4,2,1,60,0,0
48456,-100,4,2,1,50,0,0
49188,-90.9090909090909,4,2,1,60,0,0
72602,-90.9090909090909,4,2,1,50,0,0
72785,-100,4,2,1,50,0,0
76993,-100,4,2,1,30,0,0
77358,-100,4,2,1,40,0,0
77541,-100,4,2,1,45,0,0
77724,-100,4,2,1,50,0,0
77907,-100,4,2,1,70,0,0
78456,-100,4,2,1,50,0,0
110651,-100,4,2,1,55,0,0
111017,-100,4,2,1,60,0,0
111383,-100,4,2,1,65,0,0
111749,-100,4,2,1,70,0,0
112115,-100,4,2,1,60,0,0
113578,-83.3333333333333,4,2,1,60,0,0
136993,-83.3333333333333,4,2,1,65,0,0
160407,361.990950226244,4,2,1,40,1,0
161854,369.230769230769,4,2,1,40,1,0
163330,364.741641337386,4,2,1,40,1,0
164788,369.230769230769,4,2,1,40,1,0
166264,363.636363636364,4,2,1,40,1,0
167718,367.309458218549,4,2,1,40,1,0
169187,368.098159509202,4,2,1,40,1,0
170659,363.636363636364,4,2,1,40,1,0
171568,361.44578313253,4,2,1,40,1,0
171748,368.098159509202,4,2,1,40,1,0
172116,365.853658536585,4,2,1,40,1,0
172116,-142.857142857143,4,2,1,40,0,0
173579,364.741641337386,4,2,1,40,1,0
173579,-142.857142857143,4,2,1,40,0,0
175037,367.534456355283,4,2,1,40,1,0
175037,-142.857142857143,4,2,1,40,0,0
177977,362.537764350453,4,2,1,40,1,0
177977,-142.857142857143,4,2,1,40,0,0
179427,368.098159509202,4,2,1,40,1,0
179427,-142.857142857143,4,2,1,40,0,0
180899,365.408038976858,4,2,1,40,1,0
180899,-142.857142857143,4,2,1,40,0,0
183822,365.853658536585,4,2,1,70,1,0
183822,-76.9230769230769,4,2,1,70,0,0
195529,-83.3333333333333,4,2,1,60,0,0
218943,-83.3333333333333,4,2,1,75,0,1
219126,-71.4285714285714,4,2,1,75,0,1
220041,-83.3333333333333,4,2,1,75,0,1
220407,-100,4,2,1,75,0,1
221139,-71.4285714285714,4,2,1,75,0,1
221870,-100,4,2,1,75,0,1
222968,-83.3333333333333,4,2,1,75,0,1
223334,-71.4285714285714,4,2,1,75,0,1
224797,-100,4,2,1,75,0,1
225529,-83.3333333333333,4,2,1,75,0,1
226261,-71.4285714285714,4,2,1,75,0,1
227724,-100,4,2,1,75,0,1
228456,-83.3333333333333,4,2,1,75,0,1
229187,-83.3333333333333,4,2,1,65,0,0
229553,-71.4285714285714,4,2,1,65,0,0
229919,-66.6666666666667,4,2,1,65,0,0
230285,-62.5,4,2,1,65,0,0
230651,-71.4285714285714,4,2,1,75,0,1
231748,-83.3333333333333,4,2,1,75,0,1
232114,-100,4,2,1,75,0,1
232846,-71.4285714285714,4,2,1,75,0,1
233578,-100,4,2,1,75,0,1
236139,-71.4285714285714,4,2,1,75,0,1
236504,-100,4,2,1,75,0,1
237236,-83.3333333333333,4,2,1,75,0,1
237602,-71.4285714285714,4,2,1,75,0,1
237968,-100,4,2,1,75,0,1
238700,-66.6666666666667,4,2,1,75,0,1
239614,-100,4,2,1,75,0,1
240712,355.029585798817,4,2,1,75,1,1
240889,389.61038961039,4,2,1,75,1,0
240986,350.877192982456,4,2,1,65,1,0
241102,355.029585798817,4,2,1,55,1,0
241220,352.941176470588,4,2,1,75,1,0
241337,338.983050847458,4,2,1,65,1,0
241562,331.491712707182,4,2,1,75,1,0
241782,346.820809248555,4,2,1,65,1,0
241926,346.820809248555,4,2,1,55,1,0
242272,359.281437125748,4,2,1,100,1,1
242272,-66.6666666666667,4,2,1,100,0,1
242631,-66.6666666666667,4,2,1,75,0,1
242810,389.61038961039,4,2,1,100,1,1
242810,-80,4,2,1,100,0,1
243199,-80,4,2,1,75,0,1
243394,-200,4,2,1,100,0,1
245147,-200,4,2,1,35,0,1
262680,-200,4,2,1,35,0,0

[Colours]
Combo1 : 90,150,150
Combo2 : 150,202,170
Combo3 : 32,160,160

[HitObjects]
466,96,14066,6,0,L|377:10,1,100,6|4,1:0|2:3,2:0:0:0:
321,34,14615,1,0,2:0:0:0:
300,79,14798,2,0,L|317:147,1,50,10|0,1:0|2:0,2:0:0:0:
330,202,15163,1,2,1:0:0:0:
330,202,15346,1,0,2:0:0:0:
283,257,15529,2,0,L|261:308,1,50,2|4,1:0|2:3,2:0:0:0:
197,274,15895,2,0,L|199:204,1,50,2|8,1:0|2:3,2:0:0:0:
167,162,16261,1,10,1:0:0:0:
93,229,16627,2,2,L|123:338,2,100,14|6|2,1:0|1:0|1:0,2:1:0:0:
12,169,17724,1,10,1:0:0:0:
67,85,18090,2,0,L|116:104,1,50,2|2,2:0|2:0,2:0:0:0:
185,85,18456,2,2,L|291:57,1,100,2|2,1:0|2:0,2:1:0:0:
338,108,19005,1,8,2:3:0:0:
315,152,19188,2,0,L|369:166,1,50,10|0,1:0|2:0,2:0:0:0:
421,217,19554,1,2,2:0:0:0:
421,217,19737,1,0,2:0:0:0:
382,279,19919,6,2,L|267:304,2,100,6|4|10,1:0|2:3|1:0,2:1:0:0:
435,330,20834,1,2,2:0:0:0:
474,361,21017,2,0,L|511:324,1,50,2|0,1:0|2:0,2:0:0:0:
493,256,21383,1,4,2:3:0:0:
455,222,21566,2,0,L|477:167,1,50,4|2,2:3|1:0,2:0:0:0:
436,112,21932,1,4,2:3:0:0:
386,120,22115,1,10,1:0:0:0:
341,97,22298,2,0,L|335:163,2,50,0|14|0,2:0|1:0|2:0,2:0:0:0:
291,47,22846,1,2,1:0:0:0:
214,111,23212,1,2,1:0:0:0:
116,89,23578,2,0,L|43:176,1,100,10|2,1:0|2:0,2:0:0:0:
114,207,24127,1,8,2:3:0:0:
114,257,24310,2,0,L|61:295,1,50,2|0,1:0|2:0,2:0:0:0:
120,343,24676,1,2,2:0:0:0:
84,377,24858,2,0,L|47:370,2,25,10|4|8,1:0|2:3|2:3,2:0:0:0:
153,349,25224,1,4,2:3:0:0:
199,368,25407,2,0,L|245:350,1,50,10|4,1:0|2:3,2:0:0:0:
296,298,25773,6,2,L|412:326,1,100,6|0,1:0|1:0,2:1:0:0:
433,260,26322,1,0,2:0:0:0:
410,215,26505,2,0,L|459:208,1,50,10|0,1:0|2:0,2:0:0:0:
511,155,26871,1,2,2:0:0:0:
511,155,27054,1,8,2:3:0:0:
462,91,27237,2,0,L|515:73,1,50,4|4,2:3|2:3,2:0:0:0:
512,3,27602,1,2,2:0:0:0:
512,3,27785,1,4,2:3:0:0:
435,0,27968,2,0,L|353:62,1,100,10|14,1:0|1:0,2:0:0:0:
264,17,28700,2,0,L|196:109,1,100,4|4,2:3|2:3,2:0:0:0:
138,65,29249,1,4,2:3:0:0:
89,78,29432,2,0,L|83:132,1,50,10|0,1:0|2:0,2:0:0:0:
31,182,29798,2,0,L|39:244,1,50,2|8,2:0|2:3,2:0:0:0:
96,286,30163,1,2,1:0:0:0:
96,286,30346,1,4,2:3:0:0:
173,279,30529,2,0,L|160:330,1,50,2|8,2:0|2:3,2:0:0:0:
225,365,30895,1,10,1:0:0:0:
272,350,31078,2,2,L|317:253,1,100,2|8,2:0|2:3,2:1:0:0:
381,291,31627,6,0,L|424:240,1,50,2|0,1:0|2:0,2:0:0:0:
486,252,31993,1,4,2:3:0:0:
511,155,32358,1,10,1:0:0:0:
455,78,32724,1,2,1:0:0:0:
455,78,32907,1,0,2:0:0:0:
383,99,33090,2,0,L|361:146,1,50,4|4,2:3|2:3,2:0:0:0:
299,104,33456,1,2,1:0:0:0:
252,123,33639,2,0,L|239:179,1,50,4|8,2:3|1:0,2:0:0:0:
174,200,34005,2,0,L|169:259,1,50,2|12,1:0|1:0,2:0:0:0:
97,243,34371,1,2,2:0:0:0:
57,273,34554,2,0,L|41:156,2,100,4|4|10,2:3|2:3|1:0,2:0:0:0:
135,334,35651,1,2,2:0:0:0:
231,305,36017,2,0,L|251:237,1,50,4|8,2:3|2:3,2:0:0:0:
315,240,36383,1,2,2:0:0:0:
361,278,36566,1,10,1:0:0:0:
361,278,36657,1,4,2:3:0:0:
361,278,36749,2,0,L|394:231,1,50,8|8,2:3|2:3,2:0:0:0:
461,232,37115,1,10,1:0:0:0:
503,322,37480,1,6,1:0:0:0:
256,192,37572,12,6,40407,1:0:0:0:
39,220,43334,5,6,1:0:0:0:
91,134,43700,1,2,1:0:0:0:
137,153,43883,1,2,1:0:0:0:
174,119,44066,2,2,L|250:200,1,100,2|2,1:0|1:0,2:1:0:0:
310,162,44615,1,8,2:3:0:0:
358,173,44798,2,2,L|340:74,1,100,2|2,1:0|1:0,2:1:0:0:
396,25,45346,1,4,2:3:0:0:
439,49,45529,2,2,L|497:148,1,100,2|2,1:0|1:0,2:1:0:0:
448,228,46261,5,14,1:0:0:0:
448,228,46444,1,12,2:3:0:0:
432,302,46627,1,14,1:0:0:0:
432,302,46810,1,12,2:3:0:0:
353,286,46993,1,14,1:0:0:0:
353,286,47176,1,12,2:3:0:0:
341,371,47358,1,14,1:0:0:0:
341,371,47541,1,12,2:3:0:0:
265,348,47724,6,0,L|185:323,1,50,10|4,1:0|2:3,2:0:0:0:
146,309,48090,1,10,1:0:0:0:
68,369,48456,1,8,2:3:0:0:
68,369,48548,1,8,2:3:0:0:
68,369,48639,1,4,2:3:0:0:
2,320,48822,2,0,L|-1:262,1,50,10|4,1:0|2:3,2:0:0:0:
42,211,49188,6,2,L|54:95,1,110,6|6,1:0|1:0,2:1:0:0:
121,71,49737,1,0,2:0:0:0:
173,87,49919,2,0,L|192:22,1,55,10|0,1:0|2:0,2:0:0:0:
262,23,50285,2,0,L|269:91,1,55,4|4,2:0|2:3,2:0:0:0:
321,130,50651,2,2,L|391:20,1,110,6|4,1:0|2:0,2:1:0:0:
435,91,51200,2,2,L|415:217,1,110,10|10,1:0|1:0,2:1:0:0:
351,233,51749,1,4,2:0:0:0:
302,207,51932,1,4,2:3:0:0:
246,256,52115,6,0,L|272:333,1,55,6|0,1:0|2:0,2:0:0:0:
205,354,52480,2,0,L|162:297,1,55,6|0,1:0|2:0,2:0:0:0:
96,317,52846,2,2,L|81:196,1,110,10|2,1:0|1:0,2:1:0:0:
24,159,53395,1,4,2:0:0:0:
12,105,53578,2,0,L|44:36,1,55,6|0,1:0|2:0,2:0:0:0:
109,60,53944,1,4,2:0:0:0:
144,102,54127,2,0,L|196:50,1,55,10|4,1:0|2:0,2:0:0:0:
256,80,54493,1,4,2:3:0:0:
270,133,54676,1,10,1:0:0:0:
224,164,54858,1,4,2:3:0:0:
236,237,55041,6,2,L|353:222,2,110,6|6|10,1:0|1:0|1:0,2:1:0:0:
165,322,56139,1,4,2:3:0:0:
262,372,56505,2,0,L|329:348,1,55,6|0,1:0|2:0,2:0:0:0:
362,298,56871,1,2,2:0:0:0:
411,321,57054,2,0,L|456:282,1,55,10|4,1:0|2:0,2:0:0:0:
446,210,57419,1,10,1:0:0:0:
393,196,57602,2,0,L|336:228,1,55,4|4,2:0|2:3,2:0:0:0:
283,184,57968,6,2,L|346:87,1,110,6|6,1:0|1:0,2:1:0:0:
309,25,58517,1,0,2:0:0:0:
254,32,58700,2,0,L|237:99,1,55,10|0,1:0|2:0,2:0:0:0:
173,121,59066,2,0,L|180:201,1,55,6|2,1:0|2:0,2:0:0:0:
136,239,59432,1,4,2:0:0:0:
169,282,59615,1,4,2:3:0:0:
131,347,59798,2,0,L|67:309,1,55,10|4,1:0|2:3,2:0:0:0:
59,320,60072,1,8,2:3:0:0:
59,320,60163,1,4,2:3:0:0:
50,244,60346,1,4,2:3:0:0:
3,214,60529,1,10,1:0:0:0:
58,119,60895,5,6,1:0:0:0:
163,150,61261,2,0,L|213:128,1,55,6|0,1:0|2:0,2:0:0:0:
229,57,61627,2,2,L|355:86,1,110,10|4,1:0|2:0,2:1:0:0:
378,143,62176,1,4,2:3:0:0:
344,186,62358,2,0,L|404:221,1,55,6|0,1:0|2:0,2:0:0:0:
380,288,62724,1,4,2:0:0:0:
325,280,62907,2,2,L|361:392,1,110,10|10,1:0|1:0,2:1:0:0:
436,373,63456,2,0,L|454:300,1,55,4|4,2:0|2:3,2:0:0:0:
506,273,63822,6,2,L|472:168,1,110,6|6,1:0|1:0,2:1:0:0:
505,99,64371,1,0,2:0:0:0:
484,47,64554,2,0,L|407:19,1,55,10|2,1:0|2:0,2:0:0:0:
362,53,64919,2,0,L|300:50,1,55,2|4,1:0|2:0,2:0:0:0:
241,84,65285,2,2,L|130:32,1,110,6|4,1:0|2:0,2:1:0:0:
78,81,65834,2,0,L|114:122,1,55,10|4,1:0|2:0,2:0:0:0:
53,171,66200,1,4,2:3:0:0:
35,223,66383,2,0,L|104:250,1,55,10|4,1:0|2:3,2:0:0:0:
123,310,66749,6,2,L|254:287,1,110,6|6,1:0|1:0,2:1:0:0:
286,238,67298,1,0,2:0:0:0:
334,263,67480,2,0,L|407:270,1,55,10|0,1:0|2:0,2:0:0:0:
426,204,67846,2,0,L|361:175,1,55,4|8,2:3|2:3,2:0:0:0:
316,141,68212,2,2,L|207:160,1,110,6|4,1:0|2:0,2:1:0:0:
185,91,68761,2,2,L|322:33,1,110,10|10,1:0|1:0,2:1:0:0:
358,76,69310,2,0,L|431:74,1,55,4|4,2:0|2:3,2:0:0:0:
479,107,69676,5,6,1:0:0:0:
426,204,70041,1,6,1:0:0:0:
329,150,70407,1,10,1:0:0:0:
306,257,70773,1,6,1:0:0:0:
203,218,71139,2,0,L|187:152,1,55,2|4,1:0|2:3,2:0:0:0:
128,124,71505,1,2,1:0:0:0:
86,160,71688,1,4,2:3:0:0:
24,125,71871,1,10,1:0:0:0:
210,8,72602,5,6,1:0:0:0:
250,37,72785,2,0,L|364:13,1,100,4|4,2:3|2:3,2:0:0:0:
396,71,73334,2,0,L|450:81,1,50,10|4,1:0|2:3,2:0:0:0:
472,151,73700,2,0,L|414:177,1,50,0|8,1:0|1:0,2:0:0:0:
352,151,74066,1,2,1:0:0:0:
317,186,74249,2,0,L|215:169,1,100,2|4,1:0|2:3,2:0:0:0:
187,239,74798,2,0,L|131:243,1,50,10|0,1:0|2:0,2:0:0:0:
114,313,75163,2,0,L|60:336,1,50,4|10,2:3|1:0,2:0:0:0:
6,289,75529,1,2,1:0:0:0:
20,235,75712,2,0,L|-1:134,1,100,4|4,2:3|2:3,2:0:0:0:
69,113,76261,2,0,L|82:47,1,50,10|0,1:0|2:0,2:0:0:0:
148,84,76627,2,0,L|184:37,1,50,0|10,2:0|1:0,2:0:0:0:
247,68,76993,2,2,L|346:24,1,100,0|0,3:0|3:0,2:1:0:0:
387,52,77541,1,0,3:0:0:0:
388,129,77724,1,4,2:3:0:0:
315,122,77907,1,10,1:0:0:0:
258,292,78456,6,0,L|148:319,1,100,6|4,1:0|2:3,2:0:0:0:
101,272,79005,1,0,2:0:0:0:
119,225,79188,2,0,L|177:199,1,50,10|0,1:0|2:0,2:0:0:0:
191,137,79554,1,2,1:0:0:0:
191,137,79737,1,0,2:0:0:0:
128,91,79919,2,0,L|176:45,1,50,2|4,1:0|2:3,2:0:0:0:
237,62,80285,2,0,L|300:33,1,50,2|8,1:0|2:3,2:0:0:0:
353,55,80651,1,10,1:0:0:0:
313,146,81017,1,14,1:0:0:0:
407,177,81383,2,0,L|514:167,1,100,6|2,1:0|1:0,2:0:0:0:
491,246,81932,1,0,2:0:0:0:
508,292,82115,2,0,L|457:316,1,50,10|0,1:0|2:0,2:0:0:0:
422,373,82480,1,2,2:0:0:0:
343,311,82846,2,2,L|228:281,1,100,2|2,1:0|2:0,2:1:0:0:
190,234,83395,1,8,2:3:0:0:
141,243,83578,1,10,1:0:0:0:
114,200,83761,1,10,1:0:0:0:
44,228,83944,2,0,L|28:167,1,50,4|0,2:0|2:0,2:0:0:0:
64,113,84310,6,2,L|76:-2,2,100,6|4|10,1:0|2:3|1:0,2:1:0:0:
114,200,85407,1,2,1:0:0:0:
191,136,85773,2,0,L|207:83,1,50,4|4,2:3|2:3,2:0:0:0:
280,73,86139,1,2,1:0:0:0:
301,118,86322,2,0,L|276:161,1,50,4|10,2:3|1:0,2:0:0:0:
281,237,86688,2,0,L|230:267,1,50,0|14,2:0|1:0,2:0:0:0:
164,267,87054,1,8,2:3:0:0:
143,312,87237,2,2,L|40:300,1,100,2|2,1:0|1:0,2:1:0:0:
10,233,87785,1,0,2:0:0:0:
23,184,87968,2,2,L|124:160,1,100,10|2,1:0|2:0,2:1:0:0:
160,99,88517,1,8,2:3:0:0:
203,124,88700,2,0,L|260:132,1,50,4|4,2:3|2:3,2:0:0:0:
322,110,89066,1,10,1:0:0:0:
349,151,89249,2,0,L|375:165,2,25,4|4|8,2:3|2:3|2:3,2:0:0:0:
297,204,89615,1,4,2:3:0:0:
307,257,89798,1,10,1:0:0:0:
265,285,89980,1,4,2:3:0:0:
298,350,90163,6,0,L|333:343,4,25,6|0|0|0|2,1:0|3:0|3:0|3:0|1:0,2:0:0:0:
199,366,90895,2,2,L|84:346,1,100,10|2,1:0|2:0,2:1:0:0:
65,282,91444,1,8,2:3:0:0:
99,246,91627,2,0,L|164:273,1,50,4|4,2:3|2:3,2:0:0:0:
208,225,91993,1,2,2:0:0:0:
227,178,92176,2,0,L|196:124,1,50,4|10,2:3|1:0,2:0:0:0:
201,58,92541,1,4,2:3:0:0:
248,41,92724,2,2,L|346:103,2,100,14|4|4,1:0|2:3|2:3,2:1:0:0:
155,2,93822,1,10,1:0:0:0:
138,100,94188,1,2,2:0:0:0:
38,112,94554,1,2,1:0:0:0:
23,159,94737,2,2,L|57:265,1,100,4|8,2:3|2:3,2:1:0:0:
127,238,95285,2,0,L|124:308,1,50,12|8,2:3|1:0,2:0:0:0:
197,296,95651,2,0,L|180:355,1,50,4|8,2:0|2:3,2:0:0:0:
249,376,96017,6,2,L|303:290,1,100,6|4,1:0|2:3,2:1:0:0:
374,270,96566,1,8,2:3:0:0:
408,306,96749,2,0,L|449:267,1,50,10|0,1:0|2:0,2:0:0:0:
439,199,97115,2,0,L|469:142,1,50,2|0,1:0|2:0,2:0:0:0:
431,87,97480,1,4,2:3:0:0:
381,94,97663,1,4,2:3:0:0:
354,51,97846,1,2,1:0:0:0:
284,74,98029,2,0,L|241:119,1,50,4|10,2:3|1:0,2:0:0:0:
176,98,98395,2,0,L|154:163,1,50,0|14,2:0|1:0,2:0:0:0:
90,176,98761,1,0,2:0:0:0:
57,214,98944,2,2,L|64:317,2,100,4|4|10,2:3|2:3|1:0,2:1:0:0:
9,125,100041,1,2,2:0:0:0:
88,64,100407,2,2,L|193:57,1,100,4|10,2:3|1:0,2:1:0:0:
255,22,100956,2,2,L|359:49,1,100,4|12,2:3|2:3,2:1:0:0:
380,117,101505,2,0,L|436:123,1,50,10|12,1:0|2:3,2:0:0:0:
501,104,101871,1,6,1:0:0:0:
256,192,101962,12,6,104798,1:0:0:0:
501,104,107724,6,0,L|478:203,1,100,6|2,1:0|1:0,2:0:0:0:
408,172,108273,1,2,1:0:0:0:
369,203,108456,2,0,L|391:313,1,100,2|2,1:0|1:0,2:0:0:0:
300,349,109188,2,0,L|239:269,1,100,2|2,1:0|1:0,2:0:0:0:
165,261,109737,1,4,2:3:0:0:
150,308,109919,2,0,L|50:268,1,100,2|2,1:0|1:0,2:0:0:0:
26,175,110651,5,14,1:0:0:0:
49,152,110834,1,4,1:2:0:0:
115,183,111017,1,14,1:0:0:0:
152,172,111200,1,4,1:2:0:0:
152,93,111383,1,14,1:0:0:0:
182,61,111566,1,4,1:2:0:0:
257,91,111749,1,14,1:0:0:0:
303,73,111932,1,4,1:2:0:0:
338,8,112115,6,0,L|358:-16,6,25,6|8|8|8|10|8|8,1:0|1:0|1:0|1:0|1:0|1:0|1:0,2:0:0:0:
385,79,112846,1,6,1:0:0:0:
385,79,112938,1,8,1:0:0:0:
385,79,113029,2,0,L|414:75,4,25,8|8|8|8|8,1:0|1:0|1:0|1:0|1:0,2:0:0:0:
351,149,113578,6,0,L|421:190,1,60,6|0,1:0|2:0,2:0:0:0:
391,253,113944,2,0,L|314:234,1,60,6|0,1:0|2:0,2:0:0:0:
296,304,114310,2,2,L|165:294,1,120,10|4,1:0|2:0,2:1:0:0:
114,337,114858,1,4,2:3:0:0:
68,297,115041,2,0,L|5:280,1,60,6|0,1:0|2:0,2:0:0:0:
37,211,115407,1,4,2:0:0:0:
18,153,115590,2,0,L|90:145,1,60,10|4,1:0|2:0,2:0:0:0:
128,91,115956,1,10,1:0:0:0:
161,141,116139,2,0,L|239:156,1,60,4|8,2:0|2:3,2:0:0:0:
287,118,116505,6,0,L|422:104,2,120,6|6|10,1:0|1:0|1:0,2:0:0:0:
190,47,117602,1,2,1:0:0:0:
118,143,117968,2,2,L|-5:123,1,120,6|4,1:0|2:0,2:1:0:0:
6,202,118517,2,2,L|121:253,1,120,10|8,1:0|1:0,2:1:0:0:
95,325,119066,2,0,L|164:329,1,60,2|4,1:0|2:3,2:0:0:0:
225,303,119432,6,2,L|347:331,2,120,6|6|10,1:0|1:0|1:0,2:1:0:0:
280,196,120529,1,4,2:3:0:0:
378,264,120895,2,0,L|408:205,1,60,6|0,1:0|2:0,2:0:0:0:
392,136,121261,1,2,2:0:0:0:
332,139,121444,2,0,L|347:72,1,60,10|4,1:0|2:0,2:0:0:0:
307,16,121810,1,10,1:0:0:0:
248,27,121993,2,0,L|216:106,1,60,4|4,2:0|2:3,2:0:0:0:
158,51,122358,6,2,L|129:187,1,120,6|6,1:0|1:0,2:1:0:0:
61,170,122907,1,0,2:0:0:0:
16,210,123090,2,0,L|34:274,1,60,10|0,1:0|2:0,2:0:0:0:
106,261,123456,2,0,L|103:326,1,60,6|8,1:0|2:3,2:0:0:0:
132,340,123730,1,4,2:3:0:0:
132,340,123822,2,0,L|123:376,3,30,10|8|4|8,1:0|2:3|2:3|1:0,2:0:0:0:
160,344,124188,2,0,L|177:310,5,30,10|8|8|8|8|8,1:0|1:0|1:0|1:0|1:0|1:0,2:0:0:0:
203,314,124737,1,4,2:3:0:0:
277,331,124919,1,10,1:0:0:0:
342,290,125102,1,4,2:3:0:0:
412,323,125285,6,2,L|494:230,1,120,6|6,1:0|1:0,2:1:0:0:
475,157,125834,1,0,2:0:0:0:
417,140,126017,2,0,L|451:83,1,60,10|0,1:0|2:0,2:0:0:0:
379,59,126383,2,0,L|325:105,1,60,4|4,2:0|2:3,2:0:0:0:
279,47,126749,2,2,L|209:163,1,120,6|4,1:0|2:0,2:1:0:0:
152,113,127298,2,2,L|105:240,1,120,10|10,1:0|1:0,2:1:0:0:
39,209,127846,2,0,L|26:283,1,60,4|4,2:0|2:3,2:0:0:0:
58,335,128212,5,6,1:0:0:0:
164,278,128578,1,6,1:0:0:0:
243,367,128944,2,0,L|282:322,1,60,10|2,1:0|2:0,2:0:0:0:
351,345,129310,2,0,L|376:282,1,60,2|4,1:0|2:0,2:0:0:0:
337,225,129676,2,2,L|425:127,1,120,6|4,1:0|2:0,2:1:0:0:
376,71,130224,2,2,L|252:148,1,120,10|4,1:0|2:3,2:1:0:0:
201,119,130773,1,10,1:0:0:0:
211,59,130956,1,4,2:3:0:0:
138,49,131139,6,0,L|79:101,1,60,6|0,1:0|2:0,2:0:0:0:
120,157,131505,2,0,L|185:135,1,60,6|0,1:0|2:0,2:0:0:0:
195,210,131871,2,2,L|81:293,2,120,10|4|6,1:0|2:3|1:0,2:1:0:0:
308,249,132968,1,4,2:0:0:0:
335,302,133151,2,0,L|405:261,1,60,10|4,1:0|2:0,2:0:0:0:
421,204,133517,1,10,1:0:0:0:
369,172,133700,2,0,L|422:125,1,60,4|4,2:0|2:3,2:0:0:0:
385,64,134066,6,0,L|319:85,1,60,6|0,1:0|2:0,2:0:0:0:
263,48,134432,2,0,L|212:82,1,60,6|0,1:0|2:0,2:0:0:0:
140,84,134798,2,0,L|102:141,1,60,10|0,1:0|2:0,2:0:0:0:
117,206,135163,1,6,1:0:0:0:
99,324,135529,1,2,1:0:0:0:
176,352,135712,1,10,1:0:0:0:
176,352,135804,1,8,1:0:0:0:
176,352,135895,2,0,L|211:319,3,30,8|8|8|4,1:0|1:0|2:3|2:3,2:0:0:0:
237,335,136261,2,0,L|279:316,6,30,10|8|8|8|8|4|8,1:0|1:0|1:0|1:0|2:3|2:3|2:3,2:0:0:0:
326,279,136993,6,2,L|438:232,1,120,6|2,1:0|1:0,2:1:0:0:
445,155,137541,1,2,1:0:0:0:
386,143,137724,2,0,L|334:190,1,60,14|0,1:0|2:0,2:0:0:0:
270,167,138090,1,2,1:0:0:0:
272,107,138273,1,2,1:0:0:0:
212,97,138456,1,6,1:0:0:0:
141,120,138639,2,2,L|111:237,1,120,2|2,1:0|1:0,2:1:0:0:
43,207,139188,2,0,L|44:147,1,60,14|0,1:0|2:0,2:0:0:0:
17,78,139554,2,0,L|68:20,1,60,14|0,1:0|2:0,2:0:0:0:
131,45,139919,5,6,1:0:0:0:
215,130,140285,1,2,1:0:0:0:
274,135,140468,1,2,1:0:0:0:
301,188,140651,2,2,L|385:103,1,120,14|2,1:0|1:0,2:1:0:0:
456,121,141200,1,2,1:0:0:0:
456,181,141383,1,6,1:0:0:0:
502,219,141566,2,0,L|440:259,1,60,2|0,1:0|2:0,2:0:0:0:
390,291,141932,1,2,1:0:0:0:
399,350,142115,2,0,L|325:343,1,60,8|4,2:3|2:3,2:0:0:0:
266,339,142480,1,10,1:0:0:0:
266,339,142663,1,0,2:0:0:0:
200,376,142846,5,6,1:0:0:0:
71,249,143395,1,0,1:0:0:0:
103,198,143578,2,2,L|91:76,1,120,14|2,1:0|1:0,2:1:0:0:
136,39,144127,1,2,1:0:0:0:
185,96,144310,1,6,1:0:0:0:
239,69,144493,2,0,L|270:13,1,60,2|0,1:0|2:0,2:0:0:0:
330,64,144858,1,2,1:0:0:0:
370,108,145041,2,2,L|486:57,1,120,14|4,1:0|2:0,2:1:0:0:
459,186,145773,6,0,L|418:241,1,60,6|4,1:0|2:3,2:0:0:0:
472,291,146139,1,4,1:2:0:0:
442,342,146322,2,0,L|380:362,1,60,14|0,1:0|2:0,2:0:0:0:
320,323,146688,1,4,2:3:0:0:
267,352,146871,2,2,L|135:304,1,120,14|4,1:0|1:2,2:1:0:0:
86,346,147419,1,10,1:0:0:0:
86,346,147511,1,8,1:0:0:0:
86,346,147602,1,8,2:3:0:0:
9,325,147785,2,0,L|-8:275,3,30,10|8|8|4,1:0|1:0|2:3|2:3,2:0:0:0:
12,269,148151,2,0,L|21:225,4,30,8|4|8|4|8,2:3|2:3|2:3|2:3|2:3,2:0:0:0:
5,167,148700,5,6,1:0:0:0:
57,137,148883,1,2,1:0:0:0:
104,173,149066,1,2,1:0:0:0:
171,141,149249,1,2,1:0:0:0:
209,204,149432,2,2,L|147:327,1,120,14|2,1:0|1:0,2:1:0:0:
260,367,150163,1,6,1:0:0:0:
317,350,150346,2,2,L|346:226,1,120,2|2,1:0|1:0,2:1:0:0:
422,253,150895,2,0,L|422:180,1,60,14|0,1:0|2:0,2:0:0:0:
500,192,151261,2,0,L|486:123,1,60,14|0,1:0|2:0,2:0:0:0:
410,119,151627,6,2,L|403:-3,1,120,6|2,1:0|1:0,2:1:0:0:
327,18,152176,1,2,1:0:0:0:
281,56,152358,2,0,L|298:135,1,60,14|0,1:0|2:0,2:0:0:0:
213,110,152724,1,2,1:0:0:0:
184,162,152907,1,2,1:0:0:0:
114,137,153090,1,6,1:0:0:0:
78,185,153273,2,2,L|116:307,1,120,2|4,1:0|2:3,2:1:0:0:
185,322,153822,1,4,2:3:0:0:
236,268,154005,1,10,1:0:0:0:
292,288,154188,2,0,L|328:344,1,60,4|4,2:0|2:3,2:0:0:0:
394,312,154554,6,2,L|361:178,1,120,6|0,1:0|2:0,2:1:0:0:
443,188,155102,1,4,2:3:0:0:
496,216,155285,2,0,L|516:141,1,60,14|0,1:0|2:0,2:0:0:0:
452,113,155651,2,0,L|460:46,1,60,2|2,1:0|1:0,2:0:0:0:
381,69,156017,2,0,L|379:5,1,60,6|2,1:0|1:0,2:0:0:0:
305,1,156383,1,2,1:0:0:0:
266,47,156566,1,2,1:0:0:0:
194,24,156749,2,2,L|176:148,1,120,10|4,1:0|2:0,2:1:0:0:
102,139,157298,5,8,1:0:0:0:
102,139,157389,1,8,1:0:0:0:
102,139,157480,2,0,L|112:214,1,60,6|0,1:0|2:0,2:0:0:0:
36,202,157846,1,4,1:2:0:0:
19,259,158029,2,0,L|47:319,1,60,14|0,1:0|2:0,2:0:0:0:
118,302,158395,1,4,1:2:0:0:
177,311,158578,2,0,L|242:351,1,60,6|0,1:0|2:0,2:0:0:0:
301,313,158944,1,4,1:2:0:0:
344,354,159127,1,8,1:0:0:0:
415,333,159310,2,0,L|481:344,1,60,4|4,2:0|2:3,2:0:0:0:
500,274,159676,1,8,2:3:0:0:
450,241,159858,1,4,2:3:0:0:
423,172,160041,1,8,1:0:0:0:
492,147,160224,1,8,1:0:0:0:
435,93,160407,5,4,1:0:0:0:
470,184,172116,6,2,L|404:317,1,140,4|0,1:0|2:0,2:1:0:0:
408,310,173579,2,0,L|433:234,2,69.9999999999999,12|0|0,1:0|2:0|2:0,2:0:0:0:
319,361,174855,1,8,2:1:0:0:
319,361,174946,1,8,2:1:0:0:
319,361,175037,2,2,L|261:232,1,140,4|0,1:0|2:0,2:1:0:0:
351,182,176507,1,12,1:0:0:0:
351,182,177242,2,0,L|352:109,1,69.9999999999999,4|0,2:0|2:0,2:0:0:0:
266,134,177977,6,2,L|190:10,1,140,4|0,1:0|2:0,2:1:0:0:
193,15,179427,2,0,L|219:97,1,69.9999999999999,12|0,1:0|2:0,2:0:0:0:
193,112,179979,1,8,2:3:0:0:
122,91,180347,1,8,2:3:0:0:
89,114,180531,2,0,L|81:159,1,35,4|4,2:3|2:3,2:0:0:0:
51,173,180899,2,2,L|51:281,1,105,4|0,1:0|2:0,2:1:0:0:
81,304,181629,1,0,2:0:0:0:
81,304,183822,6,2,L|126:197,1,97.5,6|0,1:0|2:0,2:1:0:0:
149,225,184187,2,2,L|152:335,1,97.5,2|0,1:0|2:0,2:1:0:0:
183,332,184553,1,14,1:0:0:0:
285,221,184919,2,0,L|298:148,1,65,2|4,1:0|1:2,2:0:0:0:
371,158,185285,2,0,L|371:87,1,65,6|0,1:0|2:0,2:0:0:0:
438,59,185651,1,2,1:0:0:0:
483,118,185834,2,0,L|463:183,1,65,14|2,1:0|1:0,2:0:0:0:
500,245,186200,1,10,1:0:0:0:
464,310,186382,2,0,L|400:359,1,65,6|0,1:0|2:0,2:0:0:0:
340,326,186748,5,6,1:0:0:0:
191,337,187114,1,2,1:0:0:0:
123,204,187480,2,0,L|98:137,1,65,14|4,1:0|1:2,2:0:0:0:
173,126,187846,2,0,L|185:37,1,65,2|0,1:0|2:0,2:0:0:0:
253,84,188212,2,2,L|319:5,1,97.5,6|0,1:0|2:0,2:1:0:0:
345,23,188578,1,2,1:0:0:0:
382,89,188761,2,0,L|341:174,1,65,14|0,1:0|2:0,2:0:0:0:
409,197,189126,1,10,1:0:0:0:
353,247,189309,2,0,L|301:296,1,65,6|0,1:0|2:0,2:0:0:0:
237,260,189675,6,0,L|174:291,1,65,6|4,1:0|1:2,2:0:0:0:
136,223,190041,2,0,L|181:171,1,65,2|0,1:0|2:0,2:0:0:0:
129,104,190407,2,0,L|56:117,1,65,14|4,1:0|1:2,2:0:0:0:
18,35,190773,2,0,L|72:-21,1,65,2|0,1:0|2:0,2:0:0:0:
137,17,191139,1,6,1:0:0:0:
68,150,191504,1,2,1:0:0:0:
36,217,191687,2,0,L|2:289,2,65,10|6|10,1:0|1:0|1:0,2:0:0:0:
111,213,192236,1,6,1:0:0:0:
205,328,192602,6,0,L|259:263,1,65,6|2,1:0|1:0,2:0:0:0:
309,319,192968,2,0,L|345:235,1,65,2|0,1:0|2:0,2:0:0:0:
404,287,193334,2,0,L|419:206,1,65,14|0,1:0|2:0,2:0:0:0:
488,242,193700,2,0,L|489:159,1,65,2|0,1:0|2:0,2:0:0:0:
440,119,194065,1,14,1:0:0:0:
440,119,194157,1,8,1:0:0:0:
440,119,194248,2,0,L|453:82,4,32.5,8|8|10|8|8,1:0|1:0|1:0|1:0|1:0,2:0:0:0:
368,147,194797,1,10,1:0:0:0:
368,147,194889,1,8,1:0:0:0:
368,147,194980,2,0,L|355:184,4,32.5,8|4|8|4|8,2:3|2:3|2:3|2:3|2:3,2:0:0:0:
308,88,195529,6,2,L|227:182,1,120,6|14,1:0|1:0,2:1:0:0:
185,113,196078,1,0,2:0:0:0:
125,118,196261,2,0,L|95:185,1,60,14|0,1:0|2:0,2:0:0:0:
46,226,196626,2,0,L|32:307,1,60,4|2,1:2|1:0,2:0:0:0:
99,328,196992,2,2,L|180:234,1,120,6|4,1:0|1:2,2:1:0:0:
252,255,197541,1,10,1:0:0:0:
267,312,197724,1,4,1:2:0:0:
340,299,197907,1,10,1:0:0:0:
386,336,198090,2,0,L|421:274,1,60,4|4,1:2|2:3,2:0:0:0:
487,300,198456,6,0,L|504:236,1,60,6|0,1:0|2:0,2:0:0:0:
451,187,198821,2,0,L|454:111,1,60,14|0,1:0|2:0,2:0:0:0:
378,131,199187,2,0,L|366:57,1,60,10|4,1:0|2:0,2:0:0:0:
299,47,199553,1,10,1:0:0:0:
196,109,199919,2,2,L|120:14,1,120,6|4,1:0|1:2,2:1:0:0:
71,75,200468,2,2,L|118:202,1,120,10|8,1:0|1:0,2:1:0:0:
74,251,201017,1,6,1:0:0:0:
167,326,201382,5,6,1:0:0:0:
227,222,201748,2,0,L|289:279,1,60,14|0,1:0|2:0,2:0:0:0:
339,228,202114,2,0,L|309:164,1,60,10|0,1:0|2:0,2:0:0:0:
385,149,202480,2,0,L|440:216,1,60,4|8,1:2|2:3,2:0:0:0:
492,166,202846,1,6,1:0:0:0:
464,49,203212,2,0,L|400:33,1,60,4|10,1:2|1:0,2:0:0:0:
348,80,203578,1,6,1:0:0:0:
308,35,203761,1,8,1:0:0:0:
242,68,203943,1,6,1:0:0:0:
234,187,204309,5,6,1:0:0:0:
118,153,204675,2,0,L|71:96,1,60,12|0,1:0|2:0,2:0:0:0:
33,167,205041,2,0,L|59:231,1,60,14|0,1:0|2:0,2:0:0:0:
127,241,205407,2,0,L|192:297,1,60,6|4,1:0|1:3,2:0:0:0:
201,349,205773,1,4,1:2:0:0:
276,339,205956,1,4,1:3:0:0:
287,262,206139,2,0,L|350:200,2,60,10|4|8,1:0|2:3|2:3,2:0:0:0:
276,339,206687,1,4,2:3:0:0:
347,358,206870,1,10,1:0:0:0:
398,249,207236,5,6,1:0:0:0:
449,140,207602,1,14,1:0:0:0:
332,110,207968,2,2,L|238:205,1,120,10|4,1:0|1:2,2:1:0:0:
200,139,208517,1,4,2:3:0:0:
140,142,208700,2,0,L|101:210,1,60,6|0,1:0|2:0,2:0:0:0:
37,188,209065,1,4,2:0:0:0:
0,251,209248,2,0,L|-1:334,1,60,10|4,1:0|1:2,2:0:0:0:
75,287,209614,1,10,1:0:0:0:
125,320,209797,2,0,L|112:390,1,60,4|4,1:2|2:3,2:0:0:0:
192,372,210163,6,0,L|221:304,1,60,6|0,1:0|2:0,2:0:0:0:
288,293,210529,1,14,1:0:0:0:
385,363,210895,2,0,L|427:310,1,60,14|2,1:0|2:0,2:0:0:0:
497,307,211261,1,2,1:0:0:0:
461,192,211626,2,2,L|509:74,1,120,6|4,1:0|2:0,2:1:0:0:
447,36,212175,2,0,L|403:97,1,60,10|4,1:0|1:2,2:0:0:0:
351,42,212541,1,10,1:0:0:0:
292,55,212724,2,0,L|272:123,1,60,4|4,1:2|2:3,2:0:0:0:
199,129,213090,6,2,L|180:2,1,120,6|14,1:0|1:0,2:1:0:0:
79,74,213821,2,2,L|69:200,1,120,10|4,1:0|2:3,2:1:0:0:
179,241,214553,2,0,L|168:312,1,60,6|0,1:0|2:0,2:0:0:0:
239,330,214919,1,4,1:2:0:0:
289,297,215102,2,0,L|315:227,1,60,10|4,1:0|1:2,2:0:0:0:
381,207,215468,1,10,1:0:0:0:
388,133,215651,6,2,L|289:83,1,90,4|0,1:2|2:0,2:1:0:0:
278,108,216017,2,2,L|178:101,1,90,6|0,1:0|2:0,2:1:0:0:
167,130,216382,2,2,L|72:165,1,90,4|0,1:0|2:0,2:1:0:0:
73,199,216748,2,2,L|-1:253,1,90,14|0,1:0|2:0,2:1:0:0:
5,294,217114,1,4,1:0:0:0:
121,266,217480,1,6,1:0:0:0:
236,303,217846,1,4,1:0:0:0:
328,384,218212,1,4,2:3:0:0:
328,384,218943,5,6,1:0:0:0:
391,346,219126,2,2,L|421:210,1,140,2|8,1:0|2:3,2:1:0:0:
358,170,219675,2,2,L|360:86,1,70,14|0,1:0|1:0,2:1:0:0:
286,93,220041,2,2,L|277:29,1,60,2|8,1:0|2:3,2:1:0:0:
180,60,220407,6,2,L|154:221,1,150,6|4,1:0|1:2,2:1:0:0:
79,209,221139,6,2,L|81:293,1,70,14|4,1:0|1:2,2:1:0:0:
10,303,221504,2,2,L|24:378,1,70,14|8,1:0|2:3,2:1:0:0:
165,384,221870,6,2,L|231:226,1,150,6|2,1:0|1:0,2:1:0:0:
296,245,222602,2,2,L|290:315,1,50,14|0,1:0|2:0,2:1:0:0:
366,293,222968,2,2,L|376:358,1,60,2|2,1:0|1:0,2:1:0:0:
460,378,223334,6,2,L|492:235,1,140,6|0,1:0|2:0,2:1:0:0:
445,182,223882,1,4,1:2:0:0:
380,217,224065,1,8,1:0:0:0:
380,217,224157,1,8,1:0:0:0:
380,217,224248,2,0,L|368:177,1,35,10|8,1:0|1:0,2:0:0:0:
359,147,224431,1,8,1:0:0:0:
285,174,224614,1,4,2:3:0:0:
234,122,224797,6,2,L|86:62,1,150,6|8,1:0|2:3,2:1:0:0:
70,136,225529,2,2,L|221:243,1,180,14|8,1:0|2:3,2:1:0:0:
213,318,226261,2,2,L|3:260,1,210,6|4,1:0|1:2,2:1:0:0:
7,185,226992,1,14,1:0:0:0:
95,66,227358,1,14,1:0:0:0:
234,122,227724,6,2,L|382:182,1,150,6|4,1:0|1:2,2:1:0:0:
347,251,228456,2,2,L|417:261,1,60,14|0,1:0|2:0,2:1:0:0:
391,337,228821,2,2,L|452:329,1,60,2|2,1:0|1:0,2:1:0:0:
494,269,229187,5,6,1:0:0:0:
463,201,229370,1,2,1:0:0:0:
489,130,229553,2,2,L|412:119,1,70,14|14,1:0|1:0,2:1:0:0:
418,44,229919,2,2,L|328:56,1,75,8|8,1:0|1:3,2:1:0:0:
291,2,230285,2,2,L|208:32,1,80,14|8,1:0|1:0,2:1:0:0:
150,110,230651,6,2,L|-15:78,1,140,6|0,1:0|2:0,2:1:0:0:
44,178,231200,1,4,1:2:0:0:
69,248,231382,2,2,L|-4:266,1,70,14|0,1:0|2:0,2:1:0:0:
12,337,231748,2,2,L|91:341,1,60,2|8,1:0|2:3,2:1:0:0:
144,367,232114,6,2,L|295:337,1,150,6|4,1:0|1:2,2:1:0:0:
257,266,232846,2,2,L|342:235,1,70,14|4,1:0|1:2,2:1:0:0:
274,179,233212,2,2,L|342:140,1,70,14|4,1:0|1:2,2:1:0:0:
225,121,233578,6,2,L|335:15,1,150,6|4,1:0|1:2,2:1:0:0:
394,64,234309,2,2,L|334:145,1,100,14|2,1:0|1:0,2:1:0:0:
422,265,235041,2,2,L|289:340,1,150,6|4,1:0|1:2,2:1:0:0:
228,299,235773,1,4,2:3:0:0:
158,321,235956,1,8,1:0:0:0:
114,261,236139,2,2,L|141:189,1,70,4|4,2:0|2:3,2:1:0:0:
55,194,236504,6,2,L|70:44,1,150,6|4,1:0|1:2,2:1:0:0:
161,118,237236,2,2,L|150:51,1,60,14|0,1:0|2:0,2:1:0:0:
273,98,237602,2,2,L|229:39,1,70,2|8,1:0|2:3,2:1:0:0:
419,35,237968,6,2,L|277:-21,1,150,6|4,1:0|1:2,2:1:0:0:
347,112,238700,2,2,L|264:96,1,75,14|0,1:0|2:0,2:1:0:0:
376,208,239065,2,2,L|288:237,1,75,14|0,1:0|2:0,2:1:0:0:
466,250,239431,5,6,1:0:0:0:
445,323,239614,2,2,L|366:388,1,100,2|2,1:0|1:0,2:1:0:0:
289,308,240163,1,12,1:0:0:0:
193,308,240346,2,2,L|117:402,1,100.273333333333,2|4,1:0|2:0,2:1:0:0:
78,289,240889,2,0,L|57:332,1,25,10|8,1:0|1:0,2:0:0:0:
32,307,241102,1,4,1:3:0:0:
32,307,241220,2,0,L|41:262,1,33.3333333333333,10|8,1:0|1:0,2:0:0:0:
22,248,241449,1,8,1:0:0:0:
22,248,241562,5,8,1:3:0:0:
87,200,241782,1,4,1:3:0:0:
136,226,241926,1,10,1:0:0:0:
193,156,242272,6,2,L|283:28,1,150,6|4,1:0|1:2,2:1:0:0:
336,88,242810,6,2,L|294:221,1,125,6|4,1:0|1:2,2:1:0:0:
345,275,243394,6,2,L|484:91,1,225,6|2,1:0|2:1,2:1:0:0:
