osu file format v14

[General]
AudioFilename: audio.mp3
AudioLeadIn: 0
PreviewTime: 225498
Countdown: 0
SampleSet: Soft
StackLeniency: 0.3
Mode: 0
LetterboxInBreaks: 0
WidescreenStoryboard: 1

[Editor]
DistanceSpacing: 1.1
BeatDivisor: 4
GridSize: 32
TimelineZoom: 2.000001

[Metadata]
Title:Decode
TitleUnicode:Decode
Artist:Paramore
ArtistUnicode:Paramore
Creator:attendant
Version:Extra
Source:Twilight
Tags:english punk rock alternative
BeatmapID:4036947
BeatmapSetID:1888967

[Difficulty]
HPDrainRate:6
CircleSize:5
OverallDifficulty:8
ApproachRate:8
SliderMultiplier:1.2
SliderTickRate:0.5

[Events]
//Background and Video events
0,0,"OQ8Jc7kBmA.jpg",0,0
Video,1974,"video.mp4"
//Break Periods
2,181099,182541
//Storyboard Layer 0 (Background)
//Storyboard Layer 1 (Fail)
//Storyboard Layer 2 (Pass)
//Storyboard Layer 3 (Foreground)
//Storyboard Layer 4 (Overlay)
//Storyboard Sound Samples

[TimingPoints]
2359,365.853658536585,4,2,1,50,1,0
43334,-200,4,2,1,50,0,0
43700,-133.333333333333,4,2,1,50,0,0
44066,-100,4,2,1,50,0,0
44432,-80,4,2,1,50,0,0
44798,-66.6666666666667,4,2,1,50,0,0
45163,-57.1428571428571,4,2,1,50,0,0
45529,-50,4,2,1,50,0,0
45895,-44.4444444444445,4,2,1,50,0,0
46261,-133.333333333333,4,2,1,55,0,0
46443,-133.333333333333,4,2,1,40,0,0
46627,-160,4,2,1,60,0,0
46809,-160,4,2,1,40,0,0
46993,-200,4,2,1,65,0,0
47175,-200,4,2,1,40,0,0
47358,-266.666666666667,4,2,1,70,0,0
47540,-266.666666666667,4,2,1,40,0,0
47724,-266.666666666667,4,2,1,60,0,0
48456,-266.666666666667,4,2,1,50,0,0
49188,-80,4,2,1,60,0,0
72602,-80,4,2,1,50,0,0
72785,-100,4,2,1,50,0,0
76993,-100,4,2,1,30,0,0
77175,-100,4,2,1,35,0,0
77358,-100,4,2,1,40,0,0
77540,-100,4,2,1,45,0,0
77724,-100,4,2,1,50,0,0
77907,-100,4,2,1,70,0,0
78456,-100,4,2,1,50,0,0
107724,-66.6666666666667,4,2,1,50,0,0
108090,-72.7272727272727,4,2,1,50,0,0
108456,-80,4,2,1,50,0,0
108822,-88.8888888888889,4,2,1,50,0,0
109188,-100,4,2,1,50,0,0
109554,-114.285714285714,4,2,1,50,0,0
109919,-133.333333333333,4,2,1,50,0,0
110285,-160,4,2,1,50,0,0
110651,-80,4,2,1,55,0,0
110742,-80,4,2,11,5,0,0
110834,-66.6666666666667,4,2,1,55,0,0
110925,-66.6666666666667,4,2,11,5,0,0
111017,-57.1428571428571,4,2,1,60,0,0
111108,-57.1428571428571,4,2,11,5,0,0
111200,-50,4,2,1,60,0,0
111291,-50,4,2,11,5,0,0
111383,-50,4,2,1,65,0,0
111474,-50,4,2,11,5,0,0
111566,-44.4444444444445,4,2,1,65,0,0
111657,-44.4444444444445,4,2,11,5,0,0
111749,-100,4,2,1,70,0,0
112023,-100,4,2,11,5,0,0
112115,-100,4,2,1,60,0,0
113578,-80,4,2,1,60,0,0
136993,-66.6666666666667,4,2,1,65,0,0
154554,-80,4,2,1,65,0,0
160407,361.990950226244,4,2,1,40,1,0
160407,-200,4,2,1,40,0,0
161854,369.230769230769,4,2,1,40,1,0
163330,364.741641337386,4,2,1,40,1,0
163330,-200,4,2,1,40,0,0
164788,369.230769230769,4,2,1,40,1,0
165526,-200,4,2,1,40,0,0
166264,363.636363636364,4,2,1,40,1,0
166264,-200,4,2,1,40,0,0
167718,367.309458218549,4,2,1,40,1,0
168819,-200,4,2,1,40,0,0
169187,368.098159509202,4,2,1,40,1,0
170659,363.636363636364,4,2,1,40,1,0
171568,361.44578313253,4,2,1,40,1,0
171748,368.098159509202,4,2,1,40,1,0
172116,365.853658536585,4,2,1,40,1,0
172116,-200,4,2,1,40,0,0
173579,364.741641337386,4,2,1,40,1,0
173943,-200,4,2,1,40,0,0
175037,367.534456355283,4,2,1,40,1,0
175037,-200,4,2,1,40,0,0
177977,362.537764350453,4,2,1,40,1,0
177977,-200,4,2,1,40,0,0
179427,368.098159509202,4,2,1,40,1,0
180531,-200,4,2,1,40,0,0
180899,365.408038976858,4,2,1,40,1,0
183822,365.853658536585,4,2,1,70,1,0
183822,-57.1428571428571,4,2,1,70,0,0
195529,-57.1428571428571,4,2,1,60,0,0
196261,-72.7272727272727,4,2,1,60,0,0
216017,-80,4,2,1,60,0,0
216382,-88.8888888888889,4,2,1,60,0,0
216748,-100,4,2,1,60,0,0
217114,-114.285714285714,4,2,1,60,0,0
217480,-133.333333333333,4,2,1,60,0,0
217846,-160,4,2,1,60,0,0
218212,-200,4,2,1,60,0,0
218852,-200,4,2,11,5,0,0
218943,-57.1428571428571,4,2,1,75,0,1
219675,-50,4,2,1,75,0,1
219858,-66.6666666666667,4,2,1,75,0,1
220041,-100,4,2,1,75,0,1
220224,-100,4,2,1,80,0,1
220315,-100,4,2,1,90,0,1
220407,-100,4,2,1,100,0,1
220956,-100,4,2,1,75,0,1
221139,-57.1428571428571,4,2,1,75,0,1
221686,-57.1428571428571,4,2,1,80,0,1
221779,-57.1428571428571,4,2,1,90,0,1
221870,-100,4,2,1,100,0,1
222419,-100,4,2,1,75,0,1
222602,-80,4,2,1,75,0,1
222968,-66.6666666666667,4,2,1,75,0,1
224797,-57.1428571428571,4,2,1,75,0,1
225529,-100,4,2,1,75,0,1
226077,-100,4,2,1,80,0,1
226261,-100,4,2,1,100,0,1
226809,-100,4,2,1,75,0,1
226992,-57.1428571428571,4,2,1,75,0,1
227540,-57.1428571428571,4,2,1,80,0,1
227632,-57.1428571428571,4,2,1,90,0,1
227724,-100,4,2,1,100,0,1
228272,-100,4,2,1,75,0,1
228456,-80,4,2,1,75,0,1
228821,-66.6666666666667,4,2,1,75,0,1
229187,-66.6666666666667,4,2,1,65,0,0
230651,-133.333333333333,4,2,1,75,0,1
231382,-80,4,2,1,75,0,1
231931,-80,4,2,1,80,0,1
232023,-80,4,2,1,90,0,1
232114,-80,4,2,1,100,0,1
232662,-80,4,2,1,75,0,1
232846,-57.1428571428571,4,2,1,75,0,1
233578,-80,4,2,1,75,0,1
234857,-80,4,2,1,80,0,1
235041,-80,4,2,1,100,0,1
235590,-80,4,2,1,75,0,1
237784,-80,4,2,1,80,0,1
237968,-80,4,2,1,100,0,1
238517,-80,4,2,1,75,0,1
238700,-44.4444444444445,4,2,1,75,0,1
239614,-80,4,2,1,75,0,1
240712,355.029585798817,4,2,1,75,1,1
240889,389.61038961039,4,2,1,65,1,0
240889,-57.1428571428571,4,2,1,65,0,0
240986,350.877192982456,4,2,1,65,1,0
241102,355.029585798817,4,2,1,55,1,0
241220,352.941176470588,4,2,1,75,1,0
241220,-57.1428571428571,4,2,1,75,0,0
241337,338.983050847458,4,2,1,65,1,0
241562,331.491712707182,4,2,1,75,1,0
241782,346.820809248555,4,2,1,65,1,0
241926,346.820809248555,4,2,1,55,1,0
242272,359.281437125748,4,2,1,100,1,1
242272,-50,4,2,1,100,0,1
242541,-50,4,2,11,5,0,1
242631,-50,4,2,1,75,0,1
242720,-50,4,2,11,5,0,1
242810,389.61038961039,4,2,1,100,1,1
242810,-44.4444444444445,4,2,1,100,0,1
243102,-44.4444444444445,4,2,11,5,0,1
243199,-44.4444444444445,4,2,1,75,0,1
243296,-44.4444444444445,4,2,11,5,0,1
243394,-266.666666666667,4,2,1,100,0,1
245147,-266.666666666667,4,2,1,35,0,1
262680,-266.666666666667,4,2,1,35,0,0

[Colours]
Combo1 : 90,150,150
Combo2 : 150,202,170
Combo3 : 32,160,160

[HitObjects]
29,74,14066,6,0,L|145:27,1,120,6|4,1:0|2:3,2:0:0:0:
247,95,14615,1,0,2:0:0:0:
206,186,14798,2,0,L|153:237,1,60,10|0,1:0|2:0,2:0:0:0:
322,181,15163,2,0,L|386:161,1,60,2|0,1:0|2:0,2:0:0:0:
493,226,15529,1,2,1:0:0:0:
460,311,15712,1,4,2:3:0:0:
384,305,15895,2,0,L|319:338,1,60,2|8,1:0|2:3,2:0:0:0:
211,299,16261,2,0,L|165:361,1,60,10|0,1:0|2:0,2:0:0:0:
19,379,16627,2,0,L|37:275,1,90,14|0,1:0|2:0,2:0:0:0:
93,247,16993,2,0,L|90:175,1,60,6|0,1:0|2:0,2:0:0:0:
177,101,17358,2,0,L|157:12,1,90,2|0,1:0|2:0,2:0:0:0:
87,11,17724,1,10,1:0:0:0:
17,120,17907,1,0,2:0:0:0:
78,189,18090,2,0,L|95:253,1,60,2|2,2:0|2:0,2:0:0:0:
179,343,18456,2,2,L|221:225,1,120,2|2,1:0|2:0,2:1:0:0:
282,343,19005,1,8,2:3:0:0:
374,316,19188,1,10,1:0:0:0:
380,241,19371,2,0,L|385:174,1,60,0|2,2:0|2:0,2:0:0:0:
464,130,19737,1,0,2:0:0:0:
280,182,19919,2,2,L|266:58,1,120,6|4,1:0|2:3,2:1:0:0:
151,21,20468,1,0,2:0:0:0:
89,95,20651,2,0,L|103:163,1,60,10|2,1:0|2:0,2:0:0:0:
56,272,21017,2,0,L|89:336,1,60,2|0,1:0|2:0,2:0:0:0:
237,352,21383,1,4,2:3:0:0:
240,259,21566,1,4,2:3:0:0:
365,277,21749,2,0,L|434:315,1,60,2|4,1:0|2:3,2:0:0:0:
511,176,22115,2,0,L|449:166,1,60,10|0,1:0|2:0,2:0:0:0:
398,48,22480,2,0,L|291:67,1,90,14|0,1:0|2:0,2:0:0:0:
250,25,22846,2,0,L|188:18,1,60,2|0,1:0|2:0,2:0:0:0:
457,94,23212,2,0,L|519:100,1,60,2|0,1:0|2:0,2:0:0:0:
323,167,23578,1,10,1:0:0:0:
429,236,23761,1,0,2:0:0:0:
365,277,23944,2,0,L|301:294,1,60,2|8,2:0|2:3,2:0:0:0:
219,257,24310,2,0,L|144:299,1,60,2|0,1:0|2:0,2:0:0:0:
74,283,24676,2,0,L|25:332,1,60,2|10,2:0|1:0,2:0:0:0:
31,325,24950,1,4,2:3:0:0:
31,325,25041,1,8,2:3:0:0:
219,257,25224,1,4,2:3:0:0:
72,201,25407,1,10,1:0:0:0:
8,241,25590,1,4,2:3:0:0:
195,190,25773,6,0,L|263:80,1,120,6|2,1:0|1:0,2:0:0:0:
156,16,26322,1,0,2:0:0:0:
62,30,26505,2,0,L|52:94,1,60,10|0,1:0|2:0,2:0:0:0:
8,241,26871,2,0,L|23:317,1,60,2|8,2:0|2:3,2:0:0:0:
129,360,27237,1,4,2:3:0:0:
183,278,27419,1,4,2:3:0:0:
297,344,27602,2,0,L|318:268,1,60,2|4,2:0|2:3,2:0:0:0:
150,146,27968,2,0,L|160:215,1,60,10|4,1:0|2:3,2:0:0:0:
231,384,28334,1,14,1:0:0:0:
311,212,28517,1,4,2:0:0:0:
436,359,28700,2,0,L|462:237,1,120,4|4,2:3|2:3,2:0:0:0:
341,137,29249,1,4,2:3:0:0:
235,216,29432,2,0,L|238:140,1,60,10|0,1:0|2:0,2:0:0:0:
368,67,29798,2,0,L|361:-8,1,60,2|8,2:0|2:3,2:0:0:0:
508,127,30163,1,2,1:0:0:0:
461,242,30346,1,4,2:3:0:0:
423,157,30529,1,2,2:0:0:0:
311,212,30712,1,8,2:3:0:0:
254,67,30895,1,10,1:0:0:0:
120,150,31078,2,0,L|146:87,1,60,0|2,2:0|2:0,2:0:0:0:
84,23,31444,1,8,2:3:0:0:
161,249,31627,2,2,L|242:150,1,120,2|4,1:0|2:3,2:1:0:0:
245,347,32176,1,8,2:3:0:0:
74,268,32358,2,0,L|15:239,1,60,10|0,1:0|2:0,2:0:0:0:
143,95,32724,1,2,1:0:0:0:
161,249,32907,1,0,2:0:0:0:
41,103,33090,1,4,2:3:0:0:
137,18,33273,1,4,2:3:0:0:
217,62,33456,1,2,1:0:0:0:
285,43,33639,2,0,L|301:110,1,60,4|10,2:3|1:0,2:0:0:0:
434,8,34005,2,0,L|431:73,1,60,0|14,2:0|1:0,2:0:0:0:
328,190,34371,1,0,2:0:0:0:
171,173,34554,2,2,L|241:281,1,120,4|4,2:3|2:3,2:1:0:0:
361,274,35102,1,0,2:0:0:0:
466,190,35285,2,0,L|473:261,1,60,10|0,1:0|2:0,2:0:0:0:
338,347,35651,2,0,L|391:384,1,60,2|8,2:0|2:3,2:0:0:0:
477,363,36017,1,4,2:3:0:0:
477,363,36383,1,2,2:0:0:0:
345,354,36566,1,10,1:0:0:0:
345,354,36657,1,4,2:3:0:0:
345,354,36749,1,8,2:3:0:0:
466,190,36932,1,8,2:3:0:0:
237,274,37115,2,0,L|261:228,1,30,10|0,1:0|2:0,2:0:0:0:
361,56,37298,1,4,2:3:0:0:
356,213,37480,1,6,1:0:0:0:
256,192,37526,12,0,39584,2:0:0:0:
24,28,39676,5,6,1:0:0:0:
156,171,39858,1,8,2:3:0:0:
137,194,39950,1,8,2:3:0:0:
126,221,40041,1,4,2:3:0:0:
107,244,40133,1,4,2:3:0:0:
93,270,40224,1,8,2:3:0:0:
73,292,40316,1,8,2:3:0:0:
67,333,40407,5,6,1:0:0:0:
67,333,41139,2,2,L|176:275,1,120,2|2,1:0|1:0,2:1:0:0:
172,183,41688,1,8,2:3:0:0:
102,160,41871,2,0,L|143:107,1,60,2|0,1:0|2:0,2:0:0:0:
278,185,42237,1,8,2:3:0:0:
289,256,42419,2,0,L|355:229,1,60,2|4,1:0|1:2,2:0:0:0:
337,46,42785,1,10,1:0:0:0:
337,46,42877,1,4,2:3:0:0:
337,46,42968,1,8,2:3:0:0:
309,59,43060,1,8,2:3:0:0:
288,80,43151,1,4,2:3:0:0:
260,92,43243,1,4,2:3:0:0:
239,125,43334,6,0,L|199:120,1,30,6|0,1:0|2:0,2:0:0:0:
199,112,43700,2,0,L|147:121,1,45.0000000000001,2|2,1:0|1:0,2:0:0:0:
82,139,44066,2,0,L|133:108,1,60,2|0,1:0|2:0,2:0:0:0:
22,208,44432,2,0,L|55:141,1,75,2|8,1:0|2:3,2:0:0:0:
0,238,44798,2,0,L|0:335,1,90,2|0,1:0|2:0,2:0:0:0:
33,38,45163,2,0,L|63:179,1,105,2|4,1:0|2:3,2:0:0:0:
187,231,45529,2,0,L|165:357,1,120,2|0,1:0|2:0,2:0:0:0:
341,125,45895,2,0,L|362:262,1,135,2|8,1:0|2:3,2:0:0:0:
448,366,46261,6,0,L|457:303,1,45.0000000000001,14|12,1:0|2:3,2:0:0:0:
274,267,46627,6,0,L|273:220,1,37.5,14|12,1:0|2:3,2:0:0:0:
512,186,46993,6,0,L|509:148,1,30,14|12,1:0|2:3,2:0:0:0:
337,375,47358,6,0,L|340:345,1,22.5,14|12,1:0|2:3,2:0:0:0:
229,159,47724,5,10,1:0:0:0:
229,159,47907,1,4,2:3:0:0:
464,252,48090,5,10,1:0:0:0:
464,252,48273,1,8,2:3:0:0:
259,358,48456,5,8,2:3:0:0:
259,358,48548,1,8,2:3:0:0:
259,358,48639,1,4,2:3:0:0:
259,358,48730,1,4,2:3:0:0:
259,358,48822,1,10,1:0:0:0:
344,251,49005,5,4,2:3:0:0:
75,371,49188,6,2,L|98:249,1,112.5,6|0,1:0|2:0,2:1:0:0:
172,201,49554,1,6,1:0:0:0:
285,286,49737,1,0,3:0:0:0:
285,286,49828,1,0,3:0:0:0:
285,286,49919,2,2,L|339:153,1,112.5,10|0,1:0|2:0,2:1:0:0:
293,113,50285,2,0,L|236:174,1,75,4|4,2:0|2:3,2:0:0:0:
391,306,50651,2,2,B|420:275|420:275|397:167,1,150,6|4,1:0|2:0,2:1:0:0:
227,30,51200,2,0,L|196:116,1,75,10|4,1:0|2:0,2:0:0:0:
35,9,51566,1,10,1:0:0:0:
101,116,51749,2,0,L|92:224,1,75,4|4,2:0|2:3,2:0:0:0:
28,359,52115,6,2,L|14:230,1,112.5,6|0,1:0|2:0,2:1:0:0:
95,191,52480,1,6,1:0:0:0:
158,309,52663,1,0,3:0:0:0:
158,309,52755,1,0,3:0:0:0:
158,309,52846,2,0,L|137:384,1,75,10|2,1:0|2:0,2:0:0:0:
264,283,53212,2,0,L|314:218,1,75,2|4,1:0|2:0,2:0:0:0:
341,8,53578,2,2,L|268:158,1,150,6|4,1:0|2:0,2:1:0:0:
426,88,54127,2,0,L|407:183,1,75,10|4,1:0|2:0,2:0:0:0:
238,0,54493,1,4,2:3:0:0:
238,0,54676,2,0,L|182:61,1,75,10|4,1:0|2:3,2:0:0:0:
7,169,55041,6,2,B|62:72|62:72|49:18,2,150,6|6|10,1:0|1:0|1:0,2:1:0:0:
7,169,56139,1,4,2:3:0:0:
7,169,56505,2,0,L|50:237,1,75,6|0,1:0|2:0,2:0:0:0:
136,142,56871,1,2,2:0:0:0:
192,183,57054,2,0,L|204:268,1,75,10|4,1:0|2:0,2:0:0:0:
52,309,57419,1,10,1:0:0:0:
274,290,57602,2,0,L|317:358,1,75,4|4,2:0|2:3,2:0:0:0:
507,379,57968,6,2,L|458:257,1,112.5,6|0,1:0|2:0,2:1:0:0:
494,210,58334,2,0,L|483:135,1,75,6|0,1:0|2:0,2:0:0:0:
395,274,58700,2,2,L|290:145,1,150,10|6,1:0|1:0,2:1:0:0:
419,106,59249,1,0,3:0:0:0:
419,106,59340,1,0,3:0:0:0:
419,106,59432,2,0,L|434:25,1,75,4|4,2:0|2:3,2:0:0:0:
220,173,59798,2,0,L|147:123,1,75,10|4,1:0|2:3,2:0:0:0:
92,144,60072,1,8,2:3:0:0:
92,144,60163,1,4,2:3:0:0:
150,261,60346,1,4,2:3:0:0:
255,98,60529,2,0,L|231:17,1,75,10|4,1:0|2:3,2:0:0:0:
22,168,60895,6,2,L|-5:312,1,112.5,6|0,1:0|2:0,2:1:0:0:
48,362,61261,1,6,1:0:0:0:
209,348,61444,1,0,3:0:0:0:
209,348,61535,1,0,3:0:0:0:
209,348,61627,2,0,L|257:270,1,75,10|0,1:0|2:0,2:0:0:0:
98,304,61993,2,0,L|123:225,1,75,4|4,2:0|2:3,2:0:0:0:
318,384,62358,2,2,L|436:333,1,112.5,6|0,1:0|2:0,2:1:0:0:
450,274,62724,1,4,2:0:0:0:
248,284,62907,2,0,L|296:206,1,75,10|4,1:0|2:0,2:0:0:0:
281,63,63273,1,10,1:0:0:0:
142,168,63456,2,0,L|167:89,1,75,4|4,2:0|2:3,2:0:0:0:
395,47,63822,6,2,L|359:212,1,150,6|6,1:0|1:0,2:1:0:0:
492,171,64371,1,0,2:0:0:0:
281,63,64554,2,0,L|274:152,1,75,10|2,1:0|2:0,2:0:0:0:
165,97,64919,2,0,L|190:183,1,75,2|4,1:0|2:0,2:0:0:0:
141,256,65285,2,2,L|33:137,1,150,6|4,1:0|2:0,2:1:0:0:
57,302,65834,2,0,L|86:390,1,75,10|4,1:0|2:0,2:0:0:0:
176,322,66200,1,4,2:3:0:0:
233,234,66383,2,0,L|295:279,1,75,10|4,1:0|2:3,2:0:0:0:
491,324,66749,6,2,L|352:274,1,112.5,6|0,1:0|2:0,2:1:0:0:
378,218,67115,2,0,L|470:221,1,75,6|0,1:0|2:0,2:0:0:0:
480,102,67480,2,2,B|436:90|436:90|341:158,1,150,10|4,1:0|2:3,2:1:0:0:
367,22,68029,1,8,2:3:0:0:
297,38,68212,2,0,L|254:119,1,75,6|0,1:0|2:0,2:0:0:0:
172,13,68578,1,4,2:0:0:0:
100,113,68761,2,0,L|101:203,1,75,10|4,1:0|2:0,2:0:0:0:
0,110,69127,1,10,1:0:0:0:
215,184,69310,2,0,L|172:265,1,75,4|4,2:0|2:3,2:0:0:0:
55,333,69676,6,2,L|-11:187,2,150,6|6|10,1:0|1:0|1:0,2:1:0:0:
55,333,70773,1,6,1:0:0:0:
55,333,71139,2,0,L|158:346,1,75,2|4,1:0|2:3,2:0:0:0:
248,293,71505,2,0,L|197:359,1,75,2|0,1:0|2:0,2:0:0:0:
343,277,71871,1,10,1:0:0:0:
343,277,72602,5,6,1:0:0:0:
259,82,72785,2,2,L|295:221,1,120,4|4,2:3|2:3,2:1:0:0:
383,100,73334,2,0,L|379:181,1,60,10|4,1:0|2:3,2:0:0:0:
484,144,73700,2,0,L|466:208,1,60,0|8,1:0|1:0,2:0:0:0:
212,245,74066,2,0,L|248:292,1,60,2|0,1:0|2:0,2:0:0:0:
164,364,74432,2,0,L|240:380,1,60,2|4,1:0|2:3,2:0:0:0:
392,346,74798,1,10,1:0:0:0:
248,293,74980,1,0,2:0:0:0:
336,252,75163,1,4,2:3:0:0:
402,275,75346,1,10,1:0:0:0:
189,225,75529,1,2,1:0:0:0:
189,225,75712,2,2,L|164:95,1,120,4|4,2:3|2:3,2:1:0:0:
61,192,76261,2,0,L|54:261,1,60,10|0,1:0|2:0,2:0:0:0:
164,364,76627,2,0,L|180:297,1,60,0|10,2:0|1:0,2:0:0:0:
267,203,76993,2,0,L|277:227,6,15,0|0|0|0|0|0|0,3:0|3:0|3:0|3:0|3:0|3:0|3:0,2:0:0:0:
317,150,77358,2,0,L|334:161,6,15,0|0|0|0|0|0|0,3:0|3:0|3:0|3:0|3:0|3:0|3:0,2:0:0:0:
197,182,77724,1,4,2:3:0:0:
318,79,77907,1,10,1:0:0:0:
318,79,78456,6,2,L|458:96,1,120,6|4,1:0|2:3,2:1:0:0:
490,207,79005,1,0,2:0:0:0:
414,263,79188,2,0,L|343:273,1,60,10|0,1:0|2:0,2:0:0:0:
178,306,79554,2,0,L|263:324,1,60,2|0,1:0|2:0,2:0:0:0:
392,349,79919,1,2,1:0:0:0:
308,212,80102,1,4,2:3:0:0:
237,318,80285,2,0,L|251:382,1,60,2|8,1:0|2:3,2:0:0:0:
109,249,80651,2,0,L|121:177,1,60,10|0,1:0|2:0,2:0:0:0:
0,331,81017,2,0,L|15:406,1,60,14|4,1:0|2:0,2:0:0:0:
203,227,81383,2,2,L|197:97,1,120,6|2,1:0|1:0,2:1:0:0:
53,33,81932,1,0,2:0:0:0:
76,127,82115,1,10,1:0:0:0:
259,66,82298,1,0,2:0:0:0:
259,66,82480,2,0,L|281:10,1,60,2|2,2:0|2:0,2:0:0:0:
308,212,82846,2,2,L|397:98,1,120,2|2,1:0|2:0,2:1:0:0:
417,243,83395,1,8,2:3:0:0:
511,228,83578,1,10,1:0:0:0:
512,159,83761,1,10,1:0:0:0:
341,300,83944,2,0,L|312:354,1,60,4|0,2:0|2:0,2:0:0:0:
149,371,84310,2,2,L|192:235,1,120,6|4,1:0|2:3,2:1:0:0:
134,175,84858,1,0,2:0:0:0:
6,300,85041,2,0,L|39:233,1,60,10|2,1:0|2:0,2:0:0:0:
261,260,85407,2,0,L|277:193,1,60,2|0,1:0|2:0,2:0:0:0:
137,73,85773,2,0,L|178:13,1,60,4|4,2:3|2:3,2:0:0:0:
330,25,86139,1,2,1:0:0:0:
389,77,86322,2,0,L|406:15,1,60,4|10,2:3|1:0,2:0:0:0:
444,172,86688,2,0,L|444:244,1,60,0|14,2:0|1:0,2:0:0:0:
338,167,87054,1,8,2:3:0:0:
261,260,87237,2,0,L|288:387,2,120,2|2|10,1:0|1:0|1:0,2:0:0:0:
176,211,88151,1,0,2:0:0:0:
126,263,88334,2,0,L|153:333,1,60,2|8,2:0|2:3,2:0:0:0:
268,171,88700,2,0,L|259:96,1,60,4|4,2:3|2:3,2:0:0:0:
137,73,89066,1,10,1:0:0:0:
100,160,89249,1,4,2:3:0:0:
100,160,89340,1,4,2:3:0:0:
100,160,89432,1,8,2:3:0:0:
176,211,89615,1,4,2:3:0:0:
332,93,89798,2,0,L|306:20,1,60,10|4,1:0|2:3,2:0:0:0:
481,147,90163,6,2,L|392:57,2,120,6|2|10,1:0|1:0|1:0,2:1:0:0:
481,147,91261,1,2,2:0:0:0:
388,232,91444,2,2,L|411:372,1,120,8|4,2:3|2:3,2:1:0:0:
293,285,91993,1,2,2:0:0:0:
209,324,92176,2,0,L|200:387,2,60,4|10|4,2:3|1:0|2:3,2:0:0:0:
151,270,92724,1,14,1:0:0:0:
89,299,92907,1,4,2:0:0:0:
264,219,93090,2,2,L|225:88,1,120,4|4,2:3|2:3,2:1:0:0:
298,41,93639,1,4,2:3:0:0:
387,76,93822,2,0,L|390:4,1,60,10|0,1:0|2:0,2:0:0:0:
467,126,94188,2,0,L|492:62,1,60,2|8,2:0|2:3,2:0:0:0:
230,104,94554,2,2,L|177:-10,1,120,2|2,1:0|2:0,2:1:0:0:
76,80,95102,1,8,2:3:0:0:
160,197,95285,1,12,2:3:0:0:
160,197,95468,2,0,L|166:127,1,60,8|4,1:0|2:0,2:0:0:0:
175,65,95834,1,8,2:3:0:0:
40,279,96017,2,0,L|87:163,2,120,6|4|10,1:0|2:3|1:0,2:0:0:0:
166,267,96932,1,0,2:0:0:0:
233,331,97115,2,0,L|191:397,1,60,2|0,1:0|2:0,2:0:0:0:
354,351,97480,2,0,L|409:309,1,60,4|4,2:3|2:3,2:0:0:0:
406,183,97846,1,2,1:0:0:0:
333,188,98029,2,0,L|307:248,1,60,4|10,2:3|1:0,2:0:0:0:
230,104,98395,2,0,L|226:190,1,60,0|14,2:0|1:0,2:0:0:0:
25,16,98761,1,0,2:0:0:0:
93,58,98944,2,2,L|127:179,2,120,4|4|10,2:3|2:3|1:0,2:1:0:0:
93,58,100041,1,2,2:0:0:0:
93,58,100407,1,4,2:3:0:0:
37,170,100590,1,8,2:3:0:0:
150,109,100773,1,10,1:0:0:0:
135,268,100956,1,4,2:3:0:0:
12,243,101139,1,12,2:3:0:0:
99,333,101322,1,12,2:3:0:0:
220,303,101505,1,10,1:0:0:0:
283,198,101688,1,12,2:3:0:0:
290,321,101871,1,6,1:0:0:0:
256,192,101916,12,0,103974,2:0:0:0:
488,356,104066,5,6,1:0:0:0:
351,279,104249,1,8,2:3:0:0:
351,279,104340,1,8,2:3:0:0:
351,279,104432,1,4,2:3:0:0:
505,286,104615,1,8,2:3:0:0:
298,384,104798,6,2,L|267:253,1,120,6|2,1:0|1:0,2:1:0:0:
183,237,105346,1,8,2:3:0:0:
107,346,105529,2,0,L|75:282,1,60,2|0,1:0|2:0,2:0:0:0:
118,120,105895,2,0,L|146:197,1,60,2|8,1:0|2:3,2:0:0:0:
351,279,106261,2,2,L|362:152,1,120,10|8,1:0|2:3,2:1:0:0:
505,286,106810,2,0,L|526:219,1,60,2|8,1:0|2:3,2:0:0:0:
420,111,107176,1,4,2:3:0:0:
275,184,107358,2,0,L|264:116,1,60,2|0,1:0|2:0,2:0:0:0:
3,30,107724,6,0,L|52:110,1,90,6|0,1:0|2:0,2:0:0:0:
266,125,108090,2,0,L|199:76,1,82.5,2|2,1:0|1:0,2:0:0:0:
49,300,108456,2,0,L|11:223,1,75,2|0,1:0|2:0,2:0:0:0:
113,73,108822,2,0,L|158:148,1,67.5,2|8,1:0|2:3,2:0:0:0:
336,218,109188,2,0,L|261:188,1,60,2|0,1:0|2:0,2:0:0:0:
57,177,109554,2,0,L|114:221,1,52.5000000000001,2|4,1:0|2:3,2:0:0:0:
128,378,109919,2,0,L|103:325,1,45.0000000000001,2|0,1:0|2:0,2:0:0:0:
180,203,110285,2,0,L|202:246,1,37.5,2|8,1:0|2:3,2:0:0:0:
488,339,110651,6,0,L|479:299,1,37.5,14|0,1:0|2:0,2:0:0:0:
414,292,110834,2,0,L|415:231,1,45,4|0,1:2|2:0,2:0:0:0:
346,242,111017,2,0,L|357:183,1,52.5,14|0,1:0|2:0,2:0:0:0:
281,195,111200,2,0,L|299:134,1,60,4|0,1:2|2:0,2:0:0:0:
221,131,111383,2,0,L|254:69,1,60,14|0,1:0|2:0,2:0:0:0:
157,74,111566,2,0,L|212:12,1,67.4999999999999,4|0,1:2|2:0,2:0:0:0:
510,239,111749,6,2,L|477:153,1,90,14|0,1:0|2:0,2:1:0:0:
410,147,112115,1,6,1:0:0:0:
390,177,112206,1,8,1:0:0:0:
356,190,112298,1,8,1:0:0:0:
334,218,112389,1,8,1:0:0:0:
300,230,112480,1,10,1:0:0:0:
277,257,112572,1,8,1:0:0:0:
244,273,112663,1,8,1:0:0:0:
222,302,112755,1,8,1:0:0:0:
186,306,112846,5,6,1:0:0:0:
174,269,112938,1,8,1:0:0:0:
182,234,113029,1,8,1:0:0:0:
167,200,113121,1,8,1:0:0:0:
183,168,113212,1,8,1:0:0:0:
176,131,113304,1,8,1:0:0:0:
187,106,113395,1,8,1:0:0:0:
182,88,113487,1,4,2:3:0:0:
185,80,113578,6,2,L|284:172,1,112.5,6|0,1:0|2:0,2:1:0:0:
356,190,113944,2,0,L|400:284,1,75,6|0,1:0|2:0,2:0:0:0:
404,8,114310,2,2,L|412:134,1,112.5,10|0,1:0|2:0,2:1:0:0:
454,177,114676,1,4,2:0:0:0:
512,33,114858,1,4,2:3:0:0:
315,87,115041,2,0,L|279:1,1,75,6|0,1:0|2:0,2:0:0:0:
236,236,115407,1,4,2:0:0:0:
371,331,115590,2,0,L|391:245,1,75,10|4,1:0|2:0,2:0:0:0:
512,33,115956,2,0,L|482:108,1,75,10|4,1:0|2:0,2:0:0:0:
486,265,116322,1,8,2:3:0:0:
326,199,116505,6,2,L|313:64,1,112.5,6|0,1:0|2:0,2:1:0:0:
383,28,116871,1,6,1:0:0:0:
214,107,117054,1,0,3:0:0:0:
214,107,117145,1,0,3:0:0:0:
214,107,117237,2,0,L|190:29,1,75,10|2,1:0|2:0,2:0:0:0:
140,191,117602,2,0,L|85:127,1,75,2|4,1:0|2:0,2:0:0:0:
145,329,117968,2,2,L|22:261,1,112.5,6|0,1:0|2:0,2:1:0:0:
16,185,118334,1,4,2:0:0:0:
308,219,118517,2,0,L|232:198,1,75,10|4,1:0|2:0,2:0:0:0:
2,329,118883,2,0,L|67:383,1,75,8|2,1:0|1:0,2:0:0:0:
239,309,119249,1,4,2:3:0:0:
123,196,119432,6,2,L|260:199,1,112.5,6|0,1:0|2:0,2:1:0:0:
246,131,119798,2,0,L|155:108,1,75,6|0,1:0|2:0,2:0:0:0:
315,87,120163,2,0,L|397:70,1,75,10|4,1:0|2:0,2:0:0:0:
488,152,120529,1,4,2:3:0:0:
436,228,120712,1,8,2:3:0:0:
379,177,120895,2,0,L|297:171,1,75,6|0,1:0|2:0,2:0:0:0:
210,46,121261,1,2,2:0:0:0:
100,131,121444,2,0,L|173:112,1,75,10|4,1:0|2:0,2:0:0:0:
303,17,121810,1,10,1:0:0:0:
463,85,121993,2,0,L|365:68,1,75,4|4,2:0|2:3,2:0:0:0:
168,190,122358,6,2,L|48:279,1,150,6|6,1:0|1:0,2:1:0:0:
167,346,122907,1,0,3:0:0:0:
167,346,122999,1,0,3:0:0:0:
167,346,123090,2,0,L|93:374,1,75,10|0,1:0|2:0,2:0:0:0:
275,296,123456,1,6,1:0:0:0:
372,328,123639,1,8,2:3:0:0:
372,328,123730,1,4,2:3:0:0:
372,328,123822,1,10,1:0:0:0:
398,302,123913,1,8,2:3:0:0:
414,267,124005,1,4,2:3:0:0:
442,242,124096,1,8,1:0:0:0:
458,208,124188,5,10,1:0:0:0:
414,218,124279,1,8,1:0:0:0:
368,218,124371,1,8,1:0:0:0:
326,233,124462,1,8,1:0:0:0:
281,228,124554,1,8,1:0:0:0:
237,238,124645,1,8,1:0:0:0:
192,232,124737,1,4,2:3:0:0:
220,207,124828,1,8,2:3:0:0:
238,174,124919,1,10,1:0:0:0:
372,328,125102,1,4,2:3:0:0:
458,208,125285,6,2,L|478:85,1,112.5,6|0,1:0|2:0,2:1:0:0:
441,35,125651,1,6,1:0:0:0:
293,113,125834,1,0,3:0:0:0:
293,113,125926,1,0,3:0:0:0:
293,113,126017,2,0,L|297:37,1,75,10|0,1:0|2:0,2:0:0:0:
132,192,126383,2,0,L|123:115,1,75,4|4,2:0|2:3,2:0:0:0:
372,328,126749,2,2,L|389:205,1,112.5,6|0,1:0|2:0,2:1:0:0:
458,208,127115,1,4,2:0:0:0:
248,355,127298,2,0,L|235:257,1,75,10|4,1:0|2:0,2:0:0:0:
349,158,127663,1,10,1:0:0:0:
153,264,127846,2,0,L|128:179,1,75,4|4,2:0|2:3,2:0:0:0:
0,47,128212,6,2,L|53:153,1,112.5,6|0,1:0|2:0,2:1:0:0:
40,222,128578,1,6,1:0:0:0:
208,108,128761,1,0,3:0:0:0:
208,108,128852,1,0,3:0:0:0:
208,108,128944,2,0,L|211:34,1,75,10|2,1:0|2:0,2:0:0:0:
349,158,129310,2,0,L|329:251,1,75,2|4,1:0|2:0,2:0:0:0:
506,132,129676,2,2,L|514:264,1,112.5,6|0,1:0|2:0,2:1:0:0:
471,304,130041,1,4,2:0:0:0:
333,231,130224,2,0,L|313:324,1,75,10|0,1:0|2:0,2:0:0:0:
226,176,130590,1,4,2:3:0:0:
153,194,130773,2,0,L|122:269,1,75,10|4,1:0|2:3,2:0:0:0:
2,14,131139,6,2,B|31:37|31:37|52:158,2,150,6|6|10,1:0|1:0|1:0,2:1:0:0:
2,14,132237,1,4,2:3:0:0:
2,14,132602,2,0,L|84:56,1,75,6|0,1:0|2:0,2:0:0:0:
190,13,132968,1,4,2:0:0:0:
50,149,133151,2,0,L|120:209,1,75,10|4,1:0|2:0,2:0:0:0:
159,318,133517,1,10,1:0:0:0:
226,176,133700,2,0,L|309:216,1,75,4|4,2:0|2:3,2:0:0:0:
493,368,134066,6,2,L|374:288,1,112.5,6|0,1:0|2:0,2:1:0:0:
336,333,134432,2,0,L|387:395,1,75,6|0,1:0|2:0,2:0:0:0:
368,191,134798,2,0,L|460:218,1,75,10|0,1:0|2:0,2:0:0:0:
355,41,135163,2,0,L|461:31,1,75,6|2,1:0|2:0,2:0:0:0:
503,141,135529,1,2,1:0:0:0:
272,43,135712,5,10,1:0:0:0:
239,74,135804,1,8,1:0:0:0:
197,90,135895,1,8,1:0:0:0:
165,122,135987,1,8,1:0:0:0:
125,142,136078,1,8,2:3:0:0:
160,152,136169,1,4,2:3:0:0:
193,168,136261,5,10,1:0:0:0:
171,207,136352,1,8,1:0:0:0:
160,251,136444,1,8,1:0:0:0:
137,289,136535,1,8,1:0:0:0:
125,332,136627,1,8,2:3:0:0:
159,318,136718,1,4,2:3:0:0:
196,319,136810,1,8,2:3:0:0:
230,304,136901,1,4,2:3:0:0:
271,320,136993,6,2,B|311:333|311:333|422:248,1,180,6|2,1:0|1:0,2:1:0:0:
397,124,137541,1,2,1:0:0:0:
258,238,137724,2,0,L|306:126,1,90,14|0,1:0|2:0,2:0:0:0:
266,68,138090,1,2,1:0:0:0:
180,270,138273,1,2,1:0:0:0:
119,156,138456,1,6,1:0:0:0:
91,227,138639,2,2,B|77:268|77:268|154:388,1,180,2|2,1:0|1:0,2:1:0:0:
61,113,139188,2,0,L|-24:184,1,90,14|0,1:0|2:0,2:0:0:0:
89,0,139554,2,0,L|-3:27,1,90,14|0,1:0|2:0,2:0:0:0:
315,275,139919,6,2,B|239:160|239:160|196:156,1,180,6|2,1:0|1:0,2:1:0:0:
151,383,140468,1,2,1:0:0:0:
228,282,140651,2,0,L|256:372,1,90,14|0,1:0|2:0,2:0:0:0:
386,228,141017,1,2,1:0:0:0:
271,179,141200,1,2,1:0:0:0:
184,226,141383,1,6,1:0:0:0:
386,228,141566,2,0,L|412:142,1,90,2|0,1:0|2:0,2:0:0:0:
285,51,141932,1,2,1:0:0:0:
163,96,142115,2,0,L|170:0,1,90,8|4,2:3|2:3,2:0:0:0:
46,151,142480,2,0,L|35:53,1,90,10|0,1:0|2:0,2:0:0:0:
417,351,142846,6,2,L|515:189,1,180,6|2,1:0|1:0,2:1:0:0:
429,62,143395,1,2,1:0:0:0:
338,150,143578,2,0,L|356:54,1,90,14|0,1:0|2:0,2:0:0:0:
241,0,143944,1,2,1:0:0:0:
163,96,144127,1,2,1:0:0:0:
258,176,144310,1,6,1:0:0:0:
201,248,144493,2,0,L|112:260,1,90,2|0,1:0|2:0,2:0:0:0:
294,333,144858,1,2,1:0:0:0:
177,375,145041,2,2,L|-3:352,1,180,14|0,1:0|2:0,2:1:0:0:
510,197,145773,5,6,1:0:0:0:
410,128,145956,1,4,2:3:0:0:
436,249,146139,1,4,1:2:0:0:
491,103,146322,2,0,L|483:12,1,90,14|0,1:0|2:0,2:0:0:0:
338,150,146688,1,4,2:3:0:0:
163,96,146871,2,0,L|183:-13,1,90,14|0,1:0|2:0,2:0:0:0:
17,158,147237,1,4,1:2:0:0:
119,268,147419,1,10,1:0:0:0:
119,268,147511,1,8,1:0:0:0:
119,268,147602,2,0,L|133:326,1,45,8|4,2:3|2:3,2:0:0:0:
279,369,147785,5,10,1:0:0:0:
315,329,147877,1,8,1:0:0:0:
324,275,147968,1,8,2:3:0:0:
361,237,148060,1,4,2:3:0:0:
368,192,148151,1,8,2:3:0:0:
394,167,148243,1,4,2:3:0:0:
407,143,148334,1,8,2:3:0:0:
418,133,148426,1,4,2:3:0:0:
404,133,148517,1,8,2:3:0:0:
416,141,148608,1,4,2:3:0:0:
410,128,148700,6,2,L|446:292,1,135,6|0,1:0|2:0,2:1:0:0:
391,316,149066,1,2,1:0:0:0:
261,172,149249,1,2,1:0:0:0:
374,9,149432,2,0,L|345:97,1,90,14|0,1:0|2:0,2:0:0:0:
279,273,149798,1,2,1:0:0:0:
167,163,149980,1,2,1:0:0:0:
273,90,150163,1,6,1:0:0:0:
172,2,150346,2,0,L|162:96,1,90,2|0,1:0|2:0,2:0:0:0:
126,247,150712,1,2,1:0:0:0:
0,85,150895,2,0,L|15:184,1,90,14|0,1:0|2:0,2:0:0:0:
374,9,151261,2,0,L|345:97,1,90,14|0,1:0|2:0,2:0:0:0:
135,340,151627,6,2,L|169:153,1,180,6|2,1:0|1:0,2:1:0:0:
279,273,152176,1,2,1:0:0:0:
404,218,152358,2,0,L|411:126,1,90,14|0,1:0|2:0,2:0:0:0:
266,192,152724,1,2,1:0:0:0:
289,347,152907,1,2,1:0:0:0:
449,328,153090,1,6,1:0:0:0:
449,328,153273,2,0,L|479:230,1,90,2|0,1:0|2:0,2:0:0:0:
168,163,153639,1,4,2:3:0:0:
62,226,153822,1,4,2:3:0:0:
110,342,154005,1,10,1:0:0:0:
197,312,154188,1,4,2:0:0:0:
201,242,154371,1,4,2:3:0:0:
18,377,154554,6,0,L|-3:257,1,112.5,6|0,1:0|2:0,2:0:0:0:
62,226,154919,1,2,2:0:0:0:
197,312,155102,1,4,2:3:0:0:
279,273,155285,2,0,L|300:153,1,112.5,14|0,1:0|2:0,2:0:0:0:
246,112,155651,1,2,1:0:0:0:
168,163,155834,1,2,1:0:0:0:
371,251,156017,1,6,1:0:0:0:
449,200,156200,1,2,1:0:0:0:
428,133,156383,1,2,1:0:0:0:
428,133,156566,1,2,1:0:0:0:
134,271,156749,2,2,L|75:122,1,150,10|4,1:0|2:0,2:1:0:0:
253,119,157298,1,8,1:0:0:0:
253,119,157389,1,8,1:0:0:0:
253,119,157480,6,0,L|169:73,1,75,6|0,1:0|2:0,2:0:0:0:
353,5,157846,1,4,1:2:0:0:
353,5,158029,2,0,L|267:-1,1,75,14|0,1:0|2:0,2:0:0:0:
123,30,158395,1,4,1:2:0:0:
134,271,158578,2,2,L|75:122,1,150,6|4,1:0|1:2,2:1:0:0:
50,9,159127,1,8,1:0:0:0:
187,83,159310,1,4,2:0:0:0:
91,207,159493,1,4,2:3:0:0:
302,253,159676,5,8,2:3:0:0:
265,345,159858,1,4,2:3:0:0:
170,342,160041,1,8,1:0:0:0:
420,183,160224,5,8,1:0:0:0:
479,329,160407,2,0,L|504:206,2,120,4|0|12,1:0|2:0|1:0,2:0:0:0:
479,329,162592,1,0,2:0:0:0:
412,369,163146,1,8,2:1:0:0:
412,369,163238,1,8,2:1:0:0:
412,369,163330,2,0,L|392:251,1,120,4|0,1:0|2:0,2:0:0:0:
274,243,164788,1,12,1:0:0:0:
274,243,165526,2,0,L|245:184,1,60,4|0,2:0|2:0,2:0:0:0:
180,210,166264,2,0,L|76:151,2,120,4|0|8,1:0|2:0|1:0,2:0:0:0:
180,210,168268,1,8,2:3:0:0:
182,281,168636,1,4,2:3:0:0:
182,281,168819,2,0,L|219:290,1,30,4|8,2:3|2:3,2:0:0:0:
246,349,169187,1,4,1:0:0:0:
246,349,170659,1,12,1:0:0:0:
319,329,171022,1,8,2:3:0:0:
319,329,171204,1,4,2:3:0:0:
382,368,171568,1,12,1:0:0:0:
382,368,171748,1,4,2:3:0:0:
457,337,172116,6,0,L|495:150,1,180,4|0,1:0|2:0,2:0:0:0:
442,108,173579,1,12,1:0:0:0:
387,147,173943,2,0,L|388:215,1,60,0|0,2:0|2:0,2:0:0:0:
274,155,174673,1,0,2:0:0:0:
234,218,174855,1,8,2:1:0:0:
234,218,174946,1,8,2:1:0:0:
234,218,175037,2,0,L|282:341,1,120,4|0,1:0|2:0,2:0:0:0:
156,347,176507,2,0,L|147:276,1,60,12|0,1:0|2:0,2:0:0:0:
83,273,177058,1,0,2:0:0:0:
83,273,177242,2,0,L|94:203,1,60,4|0,2:0|2:0,2:0:0:0:
33,180,177977,2,0,L|94:6,1,180,4|0,1:0|2:0,2:0:0:0:
164,5,179427,1,12,1:0:0:0:
164,5,179979,1,8,2:3:0:0:
207,68,180347,1,8,2:3:0:0:
207,68,180531,2,0,L|202:105,1,30,4|4,2:3|2:3,2:0:0:0:
234,159,180899,1,4,1:0:0:0:
234,159,183822,6,2,B|265:137|265:137|300:-14,1,157.5,6|0,1:0|2:0,2:1:0:0:
356,57,184187,2,2,B|362:176|362:176|389:203,1,157.5,2|0,1:0|2:0,2:1:0:0:
456,183,184553,2,0,L|481:53,1,105,14|0,1:0|2:0,2:0:0:0:
164,141,184919,2,0,L|167:15,1,105,2|4,1:0|1:2,2:0:0:0:
74,323,185285,6,2,B|101:289|101:289|87:103,1,210,6|2,1:0|1:0,2:1:0:0:
216,280,185834,2,0,L|226:202,1,52.5,14|0,1:0|2:0,2:0:0:0:
234,159,186017,1,2,1:0:0:0:
24,259,186200,2,0,L|14:181,1,52.5,10|0,1:0|2:0,2:0:0:0:
10,139,186382,1,6,1:0:0:0:
10,139,186565,1,0,2:0:0:0:
259,342,186748,6,2,B|294:319|294:319|330:201,1,157.5,6|0,1:0|2:0,2:1:0:0:
391,242,187114,2,2,B|394:357|394:357|423:388,1,157.5,2|0,1:0|2:0,2:1:0:0:
481,355,187480,2,2,B|510:325|510:325|521:202,1,157.5,14|0,1:0|2:0,2:1:0:0:
456,183,187846,2,0,L|431:53,1,105,2|0,1:0|2:0,2:0:0:0:
214,20,188212,2,2,B|288:109|288:109|289:151,1,157.5,6|0,1:0|2:0,2:1:0:0:
258,212,188578,1,2,1:0:0:0:
370,13,188761,2,0,L|359:128,1,105,14|0,1:0|2:0,2:0:0:0:
303,266,189126,1,10,1:0:0:0:
492,85,189309,2,0,L|450:201,1,105,6|0,1:0|2:0,2:0:0:0:
155,326,189675,6,2,B|165:260|165:260|252:308,1,157.5,6|0,1:0|2:0,2:1:0:0:
303,266,190041,2,0,L|355:313,1,52.5,2|0,1:0|2:0,2:0:0:0:
361,367,190224,1,0,2:0:0:0:
86,292,190407,2,0,L|-19:219,1,105,14|4,1:0|1:2,2:0:0:0:
214,20,190773,2,2,B|197:56|197:56|46:107,1,157.5,2|0,1:0|2:0,2:1:0:0:
23,123,191139,1,6,1:0:0:0:
23,123,191322,1,0,2:0:0:0:
164,179,191504,5,2,1:0:0:0:
289,151,191687,1,10,1:0:0:0:
162,165,191870,1,6,1:0:0:0:
290,163,192053,1,10,1:0:0:0:
360,189,192236,2,0,L|471:177,1,105,6|0,1:0|2:0,2:0:0:0:
104,221,192602,6,0,L|-7:233,1,105,6|2,1:0|1:0,2:0:0:0:
214,20,192968,2,2,B|205:60|205:60|85:126,1,157.5,2|0,1:0|2:0,2:1:0:0:
45,157,193334,1,14,1:0:0:0:
45,157,193517,1,0,2:0:0:0:
380,34,193700,2,0,L|263:82,1,105,2|0,1:0|2:0,2:0:0:0:
104,221,194065,5,14,1:0:0:0:
122,269,194157,1,8,1:0:0:0:
167,296,194248,1,8,1:0:0:0:
193,340,194340,1,8,1:0:0:0:
238,367,194431,5,10,1:0:0:0:
254,323,194523,1,8,1:0:0:0:
288,290,194614,1,8,1:0:0:0:
300,244,194706,1,8,1:0:0:0:
331,208,194797,1,10,1:0:0:0:
347,164,194889,1,8,1:0:0:0:
378,129,194980,5,8,2:3:0:0:
395,161,195072,1,4,2:3:0:0:
425,180,195163,1,8,2:3:0:0:
442,212,195254,1,4,2:3:0:0:
471,233,195346,5,8,2:3:0:0:
495,192,195437,1,4,2:3:0:0:
506,151,195529,1,6,1:0:0:0:
506,151,195895,1,14,1:0:0:0:
331,208,196078,1,0,2:0:0:0:
510,45,196261,2,0,L|437:116,1,82.5,14|0,1:0|2:0,2:0:0:0:
328,350,196626,2,0,L|374:251,1,82.5,4|2,1:2|1:0,2:0:0:0:
398,17,196992,2,2,B|296:81|296:81|287:125,1,165,6|4,1:0|1:2,2:1:0:0:
510,45,197541,1,10,1:0:0:0:
425,180,197724,1,4,1:2:0:0:
398,17,197907,1,10,1:0:0:0:
274,5,198090,2,0,L|210:72,1,82.5,4|4,1:2|2:3,2:0:0:0:
43,157,198456,6,2,L|125:32,1,123.75,6|0,1:0|2:0,2:1:0:0:
161,109,198821,2,0,L|130:213,1,82.5,14|0,1:0|2:0,2:0:0:0:
12,370,199187,2,0,L|26:269,1,82.5,10|4,1:0|2:0,2:0:0:0:
229,141,199553,2,0,L|223:248,1,82.5,10|4,1:0|2:0,2:0:0:0:
1,5,199919,2,2,B|29:32|29:32|45:176,1,165,6|4,1:0|1:2,2:1:0:0:
217,64,200468,1,10,1:0:0:0:
300,198,200651,1,4,1:2:0:0:
220,68,200834,1,8,1:0:0:0:
375,189,201017,2,2,L|422:57,1,123.75,6|0,1:0|2:0,2:1:0:0:
479,108,201382,2,0,L|479:207,1,82.5,6|0,1:0|2:0,2:0:0:0:
270,342,201748,6,2,B|242:317|242:317|224:174,2,165,14|10|4,1:0|1:0|1:2,2:1:0:0:
270,342,202663,1,8,2:3:0:0:
51,225,202846,2,0,L|100:318,1,82.5,6|0,1:0|2:0,2:0:0:0:
226,191,203212,1,4,1:2:0:0:
141,365,203395,1,10,1:0:0:0:
7,151,203578,2,0,L|40:57,1,82.5,6|8,1:0|1:0,2:0:0:0:
249,123,203943,2,0,L|263:16,1,82.5,6|0,1:0|2:0,2:0:0:0:
509,263,204309,6,2,B|483:235|483:235|477:91,3,165,6|12|14|6,1:0|1:0|1:0|1:0,2:1:0:0:
409,255,205590,1,4,1:3:0:0:
386,29,205773,2,0,L|364:123,1,82.5,4|4,1:2|1:3,2:0:0:0:
297,214,206139,1,10,1:0:0:0:
249,123,206321,1,4,2:3:0:0:
246,115,206382,1,8,2:3:0:0:
243,107,206443,1,4,2:3:0:0:
240,99,206504,2,0,L|248:13,1,82.5,8|4,2:3|2:3,2:0:0:0:
119,127,206870,2,0,L|112:31,1,82.5,10|4,1:0|2:3,2:0:0:0:
0,343,207236,6,2,B|28:318|28:318|46:174,1,165,6|14,1:0|1:0,2:1:0:0:
207,296,207785,1,0,2:0:0:0:
106,384,207968,2,0,L|97:282,1,82.5,10|0,1:0|2:0,2:0:0:0:
297,214,208334,2,0,L|332:321,1,82.5,4|4,1:2|2:3,2:0:0:0:
417,23,208700,2,2,L|515:160,1,165,6|4,1:0|2:0,2:1:0:0:
259,69,209248,2,0,L|357:121,1,82.5,10|4,1:0|1:2,2:0:0:0:
81,123,209614,1,10,1:0:0:0:
81,123,209797,2,0,L|166:136,1,82.5,4|4,1:2|2:3,2:0:0:0:
512,157,210163,6,2,L|417:23,1,165,6|14,1:0|1:0,2:1:0:0:
422,255,210712,1,0,3:0:0:0:
422,255,210803,1,0,3:0:0:0:
422,255,210895,2,0,L|393:163,1,82.5,14|2,1:0|2:0,2:0:0:0:
331,375,211261,2,0,L|321:271,1,82.5,2|4,1:0|2:3,2:0:0:0:
163,136,211626,2,2,L|136:300,1,165,6|4,1:0|2:0,2:1:0:0:
83,51,212175,1,10,1:0:0:0:
200,0,212358,1,4,1:2:0:0:
277,99,212541,1,10,1:0:0:0:
351,96,212724,2,0,L|396:4,1,82.5,4|4,1:2|2:3,2:0:0:0:
512,157,213090,6,2,L|474:300,1,123.75,6|0,1:0|2:0,2:1:0:0:
409,300,213456,2,2,L|394:140,1,123.75,14|0,1:0|2:0,2:1:0:0:
326,199,213821,2,0,L|299:293,1,82.5,10|0,1:0|2:0,2:0:0:0:
163,136,214187,2,0,L|165:249,1,82.5,4|8,2:3|2:3,2:0:0:0:
0,79,214553,2,0,L|18:185,1,82.5,6|0,1:0|2:0,2:0:0:0:
108,326,214919,1,4,1:2:0:0:
228,282,215102,1,10,1:0:0:0:
312,375,215285,1,4,1:2:0:0:
231,286,215468,1,10,1:0:0:0:
111,330,215651,2,2,L|76:195,1,123.75,4|0,1:2|2:0,2:1:0:0:
163,136,216017,6,0,L|102:39,1,112.5,6|0,1:0|2:0,2:0:0:0:
291,74,216382,2,0,L|196:2,1,101.25,4|0,1:0|2:0,2:0:0:0:
414,3,216748,2,0,L|316:-20,1,90,14|0,1:0|2:0,2:0:0:0:
163,136,217114,6,0,L|108:50,1,78.7500000000002,4|0,1:0|2:0,2:0:0:0:
291,74,217480,2,0,L|223:23,1,67.5000000000002,6|0,1:0|2:0,2:0:0:0:
414,3,217846,2,0,L|350:-12,1,56.25,4|0,1:0|2:0,2:0:0:0:
163,136,218212,6,2,L|226:235,1,105,4|0,2:3|2:0,2:1:0:0:
198,180,218943,6,0,L|218:236,1,52.5,6|0,1:0|2:0,2:0:0:0:
294,367,219126,2,2,B|326:351|326:351|358:212,1,157.5,2|0,1:0|2:0,2:1:0:0:
410,193,219492,2,0,L|440:244,1,52.5,8|0,2:3|0:0,2:0:0:0:
178,11,219675,6,0,L|211:100,1,60,14|0,1:0|2:0,2:0:0:0:
89,38,219858,2,0,L|135:85,1,45,0|0,1:0|2:0,2:0:0:0:
16,84,220041,2,0,L|54:102,1,30,2|0,1:0|2:0,2:0:0:0:
348,23,220224,5,8,2:3:0:0:
414,3,220315,1,4,2:3:0:0:
482,10,220407,2,2,L|437:146,1,120,6|0,1:0|2:0,2:1:0:0:
178,11,220956,5,4,1:2:0:0:
17,167,221139,2,0,L|80:272,1,105,14|4,1:0|1:2,2:0:0:0:
335,129,221504,2,0,L|356:248,1,105,14|8,1:0|2:3,2:0:0:0:
228,326,221779,1,4,2:3:0:0:
159,311,221870,2,2,L|124:173,1,120,6|0,1:0|2:0,2:1:0:0:
214,96,222419,1,2,1:0:0:0:
335,129,222602,2,0,L|331:30,1,75,14|4,1:0|2:0,2:0:0:0:
456,206,222968,2,0,L|473:115,1,90,2|2,1:0|1:0,2:0:0:0:
88,383,223334,6,2,L|0:280,1,135,6|0,1:0|2:0,2:1:0:0:
13,212,223700,1,8,2:3:0:0:
229,256,223882,1,4,1:2:0:0:
64,161,224065,1,8,1:0:0:0:
121,125,224157,1,8,1:0:0:0:
187,138,224248,1,10,1:0:0:0:
246,105,224340,1,8,1:0:0:0:
246,105,224431,2,0,L|291:203,1,90,8|4,1:0|2:3,2:0:0:0:
504,0,224797,6,0,L|511:72,1,52.5,6|0,1:0|2:0,2:0:0:0:
246,105,224980,2,2,L|336:256,1,157.5,2|0,1:0|2:0,2:1:0:0:
397,248,225346,1,8,2:3:0:0:
0,280,225529,2,2,L|176:385,1,180,10|8,1:0|2:3,2:1:0:0:
367,312,226261,1,6,1:0:0:0:
367,312,226809,1,4,1:2:0:0:
298,25,226992,6,0,L|392:113,1,105,14|2,1:0|1:0,2:0:0:0:
82,127,227358,2,0,L|133:229,1,105,14|8,1:0|2:3,2:0:0:0:
171,37,227632,1,4,2:3:0:0:
235,65,227724,2,2,L|311:243,1,180,6|4,1:0|1:2,2:1:0:0:
448,97,228456,2,0,L|472:200,1,75,14|8,1:0|2:3,2:0:0:0:
135,296,228821,2,0,L|186:377,1,90,2|2,1:0|1:0,2:0:0:0:
489,346,229187,5,6,1:0:0:0:
456,330,229279,1,8,2:3:0:0:
419,329,229370,1,2,1:0:0:0:
389,348,229462,1,4,2:3:0:0:
373,380,229553,5,14,1:0:0:0:
348,342,229645,1,8,1:0:0:0:
356,297,229736,1,14,1:0:0:0:
389,266,229828,1,8,1:0:0:0:
433,265,229919,5,8,1:0:0:0:
393,228,230011,1,8,1:0:0:0:
339,231,230102,1,8,1:3:0:0:
300,268,230193,1,4,1:3:0:0:
289,320,230285,5,14,1:0:0:0:
258,264,230376,1,8,1:0:0:0:
275,203,230468,1,8,1:0:0:0:
327,167,230559,1,8,1:0:0:0:
391,166,230651,6,2,L|445:77,1,90.0000000000002,6|0,1:0|2:0,2:1:0:0:
305,5,231200,1,4,1:2:0:0:
118,177,231382,2,2,L|176:25,1,150,14|2,1:0|1:0,2:1:0:0:
0,129,231931,1,8,2:3:0:0:
0,129,232023,1,4,2:3:0:0:
0,129,232114,1,6,1:0:0:0:
269,93,232297,2,2,L|170:226,1,150,2|4,1:0|1:2,2:1:0:0:
78,0,232846,6,0,L|63:111,1,105,14|4,1:0|1:2,2:0:0:0:
353,183,233212,2,0,L|238:253,1,105,14|4,1:0|2:0,2:0:0:0:
46,384,233578,6,2,L|124:235,1,150,6|0,1:0|2:0,2:1:0:0:
269,93,234126,1,4,1:2:0:0:
249,311,234309,2,0,L|269:212,1,75,14|0,1:0|2:0,2:0:0:0:
421,289,234675,2,0,L|414:211,1,75,2|8,1:0|2:3,2:0:0:0:
481,16,235041,6,2,B|486:52|486:52|397:156,1,150,6|0,1:0|2:0,2:1:0:0:
325,8,235590,1,4,1:2:0:0:
229,11,235773,2,0,L|173:100,1,75,4|8,2:3|1:0,2:0:0:0:
421,289,236139,2,0,L|350:347,1,75,4|4,2:0|2:3,2:0:0:0:
5,339,236504,6,2,B|41:338|41:338|130:234,1,150,6|0,1:0|2:0,2:1:0:0:
240,231,237053,1,4,1:2:0:0:
154,377,237236,2,0,L|208:283,1,75,14|8,1:0|2:3,2:0:0:0:
81,113,237602,2,0,L|39:211,1,75,2|8,1:0|2:3,2:0:0:0:
240,231,237968,2,2,B|272:215|272:215|309:83,1,150,6|0,1:0|2:0,2:1:0:0:
165,28,238517,1,4,1:2:0:0:
378,106,238700,6,2,B|385:203|385:203|363:233,1,135,14|4,1:0|2:0,2:1:0:0:
381,310,239065,2,2,B|465:260|465:260|476:224,1,135,14|4,1:0|2:0,2:1:0:0:
148,166,239431,5,6,1:0:0:0:
148,166,239614,2,0,L|172:274,1,75,2|0,1:0|2:0,2:0:0:0:
35,246,239980,2,0,L|88:320,1,75,2|12,1:0|1:0,2:0:0:0:
272,201,240346,2,2,L|279:377,1,150.41,2|4,1:0|2:0,2:1:0:0:
393,259,240845,5,8,1:0:0:0:
393,259,240889,2,0,L|380:315,1,52.5,10|8,1:0|1:0,2:0:0:0:
165,239,241102,5,4,1:3:0:0:
150,306,241220,2,0,L|185:374,1,70.000000667572,10|8,1:0|1:0,2:0:0:0:
245,137,241449,5,8,1:0:0:0:
272,201,241562,1,8,1:3:0:0:
99,120,241782,1,4,1:3:0:0:
150,306,241926,1,8,1:0:0:0:
154,310,241969,1,10,1:0:0:0:
272,201,242272,6,2,L|321:3,1,180,6|0,1:0|2:0,2:1:0:0:
300,26,242631,2,2,L|321:113,1,60,4|0,1:2|2:0,2:1:0:0:
357,276,242810,6,2,L|485:117,1,202.5,6|0,1:0|2:0,2:1:0:0:
496,129,243199,2,2,L|425:164,1,67.4999999999999,4|0,1:2|2:0,2:1:0:0:
165,239,243394,6,2,L|151:32,1,202.5,6|2,1:0|2:1,2:1:0:0:
