osu file format v14

[General]
AudioFilename: audio.mp3
AudioLeadIn: 0
PreviewTime: 225498
Countdown: 0
SampleSet: Soft
StackLeniency: 0.6
Mode: 0
LetterboxInBreaks: 0
WidescreenStoryboard: 1

[Editor]
DistanceSpacing: 1.05
BeatDivisor: 4
GridSize: 32
TimelineZoom: 0.8000011

[Metadata]
Title:Decode
TitleUnicode:Decode
Artist:Paramore
ArtistUnicode:Paramore
Creator:attendant
Version:Easy
Source:Twilight
Tags:english punk rock alternative
BeatmapID:4005446
BeatmapSetID:1888967

[Difficulty]
HPDrainRate:2
CircleSize:3
OverallDifficulty:3
ApproachRate:4
SliderMultiplier:0.8
SliderTickRate:1

[Events]
//Background and Video events
0,0,"OQ8Jc7kBmA.jpg",0,0
Video,1974,"video.mp4"
//Break Periods
2,40607,42014
2,104998,106404
2,160607,181627
//Storyboard Layer 0 (Background)
//Storyboard Layer 1 (Fail)
//Storyboard Layer 2 (Pass)
//Storyboard Layer 3 (Foreground)
//Storyboard Layer 4 (Overlay)
//Storyboard Sound Samples

[TimingPoints]
2359,365.853658536585,4,2,1,50,1,0
46261,-100,4,2,1,55,0,0
46626,-100,4,2,1,60,0,0
46993,-100,4,2,1,65,0,0
47358,-100,4,2,1,70,0,0
47724,-100,4,2,1,60,0,0
48456,-100,4,2,1,50,0,0
49188,-100,4,2,1,60,0,0
72602,-100,4,2,1,50,0,0
110651,-100,4,2,1,55,0,0
111016,-100,4,2,1,60,0,0
111383,-100,4,2,1,65,0,0
111748,-100,4,2,1,70,0,0
112115,-100,4,2,1,60,0,0
136993,-100,4,2,1,65,0,0
160407,361.990950226244,4,2,1,40,1,0
161854,369.230769230769,4,2,1,40,1,0
163330,364.741641337386,4,2,1,40,1,0
164788,369.230769230769,4,2,1,40,1,0
166264,363.636363636364,4,2,1,40,1,0
167718,367.309458218549,4,2,1,40,1,0
169187,368.098159509202,4,2,1,40,1,0
170659,363.636363636364,4,2,1,40,1,0
171568,361.44578313253,4,2,1,40,1,0
171748,368.098159509202,4,2,1,40,1,0
172116,365.853658536585,4,2,1,40,1,0
173579,364.741641337386,4,2,1,40,1,0
175037,367.534456355283,4,2,1,40,1,0
177977,362.537764350453,4,2,1,40,1,0
179427,368.098159509202,4,2,1,40,1,0
180899,365.408038976858,4,2,1,40,1,0
183822,365.853658536585,4,2,1,70,1,0
195529,-100,4,2,1,60,0,0
218943,-100,4,2,1,75,0,1
229187,-100,4,2,1,65,0,0
230651,-100,4,2,1,75,0,1
240712,355.029585798817,4,2,1,75,1,1
240889,389.61038961039,4,2,1,75,1,0
240986,350.877192982456,4,2,1,75,1,0
241102,355.029585798817,4,2,1,75,1,0
241220,352.941176470588,4,2,1,75,1,0
241337,338.983050847458,4,2,1,75,1,0
241562,331.491712707182,4,2,1,75,1,0
241782,346.820809248555,4,2,1,75,1,0
241926,346.820809248555,4,2,1,55,1,0
242272,359.281437125748,4,2,1,100,1,1
242810,389.61038961039,4,2,1,100,1,1
262680,-100,4,2,1,100,0,0

[Colours]
Combo1 : 90,150,150
Combo2 : 150,202,170
Combo3 : 32,160,160

[HitObjects]
478,27,14066,6,0,L|410:77,1,80,6|4,1:0|2:3,2:0:0:0:
419,154,14798,2,0,L|398:236,1,80,10|2,1:0|1:0,2:0:0:0:
329,270,15529,2,0,L|281:297,1,40,2|4,1:0|2:3,2:0:0:0:
275,325,15895,1,2,1:0:0:0:
205,286,16261,1,10,1:0:0:0:
142,336,16627,2,2,L|-7:254,1,160,14|2,1:0|1:0,2:1:0:0:
2,178,17724,1,10,1:0:0:0:
79,158,18090,1,2,2:0:0:0:
92,79,18456,2,2,L|184:97,1,80,2|2,1:0|2:0,2:1:0:0:
194,126,19005,1,2,1:0:0:0:
267,95,19371,1,2,2:0:0:0:
322,152,19737,6,2,L|519:96,1,200,2|10,1:0|1:0,2:1:0:0:
480,22,21017,2,0,L|384:9,1,80,2|4,1:0|2:3,2:0:0:0:
326,50,21749,1,2,1:0:0:0:
243,36,22115,2,0,L|156:68,1,80,10|14,1:0|1:0,2:0:0:0:
88,37,22846,2,0,L|25:199,1,160,2|10,1:0|1:0,2:0:0:0:
55,264,23944,1,2,2:0:0:0:
132,244,24310,2,0,L|161:324,1,80,2|2,1:0|2:0,2:0:0:0:
230,354,25041,2,0,L|269:266,1,80,8|10,2:3|1:0,2:0:0:0:
338,306,25773,6,0,L|451:179,1,160,6|10,1:0|1:0,2:0:0:0:
438,106,26871,1,2,2:0:0:0:
369,64,27237,2,0,L|280:93,1,80,4|2,2:3|2:0,2:0:0:0:
264,163,27968,2,0,L|169:158,1,80,10|14,1:0|1:0,2:0:0:0:
138,92,28700,2,0,L|-14:179,1,160,4|10,2:3|1:0,2:0:0:0:
32,244,29798,1,2,2:0:0:0:
14,321,30163,2,0,L|107:343,1,80,2|2,1:0|2:0,2:0:0:0:
174,361,30895,1,10,1:0:0:0:
287,321,31444,6,2,L|397:238,1,120,2|4,1:0|2:3,2:1:0:0:
334,183,32358,2,0,L|238:179,1,80,10|2,1:0|1:0,2:0:0:0:
229,103,33090,2,0,L|324:57,1,80,2|4,1:0|2:3,2:0:0:0:
337,83,33639,1,2,1:0:0:0:
395,27,34005,1,2,2:0:0:0:
466,63,34371,2,2,L|413:192,1,120,2|4,1:0|2:3,2:1:0:0:
471,235,35285,2,0,L|452:338,1,80,10|2,1:0|2:0,2:0:0:0:
392,362,36017,1,2,1:0:0:0:
306,278,36566,1,10,1:0:0:0:
190,309,37115,1,10,1:0:0:0:
256,192,37480,12,6,40407,1:0:0:0:
492,305,43334,6,2,L|431:382,1,80,6|2,1:0|1:0,2:1:0:0:
369,333,44066,2,2,L|402:245,1,80,2|2,1:0|1:0,2:1:0:0:
355,189,44798,2,2,L|276:239,1,80,2|2,1:0|1:0,2:1:0:0:
216,193,45529,2,2,L|247:107,1,80,2|2,1:0|1:0,2:1:0:0:
156,101,46261,6,2,L|84:140,1,80,14|14,1:0|1:0,2:1:0:0:
105,217,46993,2,2,L|16:237,1,80,14|14,1:0|1:0,2:1:0:0:
23,314,47724,2,0,L|110:326,1,80,10|10,1:0|1:0,2:0:0:0:
170,367,48456,2,0,L|271:350,1,80,8|10,2:3|1:0,2:0:0:0:
335,376,49188,5,6,1:0:0:0:
380,310,49554,1,6,1:0:0:0:
458,294,49919,2,2,L|493:202,1,80,10|4,1:0|2:0,2:1:0:0:
414,183,50651,2,2,L|434:44,1,120,6|10,1:0|1:0,2:1:0:0:
365,18,51566,1,10,1:0:0:0:
365,18,51749,1,4,2:0:0:0:
297,61,52115,5,6,1:0:0:0:
220,38,52480,2,2,L|186:134,1,80,6|10,1:0|1:0,2:1:0:0:
117,138,53212,1,2,1:0:0:0:
66,200,53578,2,2,L|102:334,1,120,6|10,1:0|1:0,2:1:0:0:
179,301,54493,1,4,2:3:0:0:
179,301,54676,2,0,L|286:343,1,80,10|6,1:0|1:0,2:0:0:0:
319,284,55407,6,2,L|490:254,1,160,6|4,1:0|2:3,2:1:0:0:
461,177,56505,2,2,L|377:164,1,80,6|2,1:0|2:0,2:1:0:0:
350,140,57054,1,10,1:0:0:0:
288,189,57419,1,10,1:0:0:0:
288,189,57602,1,4,2:0:0:0:
213,148,57968,6,2,L|151:72,1,80,6|6,1:0|1:0,2:1:0:0:
100,137,58700,2,0,L|107:230,1,80,10|6,1:0|1:0,2:0:0:0:
71,291,59432,1,4,2:0:0:0:
127,348,59798,1,10,1:0:0:0:
202,322,60163,2,0,L|264:258,1,80,4|10,2:3|1:0,2:0:0:0:
334,287,60895,5,6,1:0:0:0:
412,271,61261,1,6,1:0:0:0:
426,192,61627,2,2,L|509:148,1,80,10|4,1:0|2:0,2:1:0:0:
479,76,62358,2,2,L|344:81,1,120,6|10,1:0|1:0,2:1:0:0:
286,46,63273,1,10,1:0:0:0:
286,46,63456,1,4,2:0:0:0:
256,120,63822,6,2,L|176:175,1,80,6|6,1:0|1:0,2:1:0:0:
117,131,64554,2,0,L|63:214,1,80,10|2,1:0|1:0,2:0:0:0:
83,277,65285,2,2,L|-23:363,2,120,6|10|10,1:0|1:0|1:0,2:1:0:0:
163,290,66749,5,6,1:0:0:0:
200,360,67115,1,6,1:0:0:0:
278,345,67480,2,2,L|431:257,1,160,10|6,1:0|1:0,2:1:0:0:
446,148,68761,1,10,1:0:0:0:
379,102,69127,1,10,1:0:0:0:
379,102,69310,1,4,2:0:0:0:
297,119,69676,6,2,L|199:93,1,80,6|6,1:0|1:0,2:1:0:0:
152,55,70407,2,0,L|58:81,1,80,10|6,1:0|1:0,2:0:0:0:
34,145,71139,1,2,1:0:0:0:
87,204,71505,1,2,1:0:0:0:
61,279,71871,1,10,1:0:0:0:
200,360,72602,5,6,1:0:0:0:
200,360,72785,2,0,L|303:287,1,120,4|10,2:3|1:0,2:0:0:0:
376,306,73700,1,0,1:0:0:0:
424,242,74066,2,0,L|441:157,1,80,2|2,1:0|1:0,2:0:0:0:
377,113,74798,2,0,L|321:186,1,80,10|4,1:0|2:3,2:0:0:0:
248,168,75529,1,2,1:0:0:0:
248,167,75712,2,0,L|232:39,1,120,4|10,2:3|1:0,2:0:0:0:
127,100,76810,1,10,1:0:0:0:
127,100,76993,2,2,L|103:189,1,80,0|0,3:0|3:0,2:0:0:0:
54,240,77724,1,4,2:3:0:0:
54,240,77907,1,10,1:0:0:0:
139,324,78456,6,2,L|222:293,1,80,6|4,1:0|2:3,2:1:0:0:
288,326,79188,2,0,L|371:357,1,80,10|2,1:0|1:0,2:0:0:0:
440,333,79919,2,0,L|479:309,1,40,2|4,1:0|2:3,2:0:0:0:
495,277,80285,1,2,1:0:0:0:
448,211,80651,1,10,1:0:0:0:
477,136,81017,2,0,L|375:7,1,160,14|2,1:0|1:0,2:0:0:0:
311,55,82115,1,10,1:0:0:0:
236,26,82480,1,2,2:0:0:0:
175,78,82846,2,2,L|147:164,1,80,2|2,1:0|2:0,2:1:0:0:
205,212,83578,2,0,L|214:257,1,40,10|10,1:0|1:0,2:0:0:0:
196,287,83944,1,4,2:0:0:0:
116,278,84310,6,0,L|80:204,1,80,6|4,1:0|2:3,2:0:0:0:
23,150,85041,2,0,L|57:69,1,80,10|2,1:0|1:0,2:0:0:0:
132,59,85773,2,2,L|186:170,1,120,2|4,1:0|2:3,2:1:0:0:
248,215,86688,1,2,1:0:0:0:
327,208,87054,2,2,L|379:94,1,120,2|2,1:0|1:0,2:1:0:0:
378,18,87968,1,10,1:0:0:0:
456,5,88334,1,2,2:0:0:0:
484,79,88700,2,0,L|496:165,1,80,4|10,2:3|1:0,2:0:0:0:
468,188,89249,1,4,2:3:0:0:
403,235,89615,1,4,2:3:0:0:
327,208,89980,6,2,L|278:90,1,120,6|2,1:0|1:0,2:1:0:0:
211,137,90895,1,10,1:0:0:0:
100,89,91444,2,2,L|55:205,1,120,2|2,1:0|2:0,2:1:0:0:
69,239,92176,1,2,1:0:0:0:
149,328,92724,2,2,L|333:263,1,160,14|4,1:0|2:3,2:1:0:0:
361,326,93822,1,10,1:0:0:0:
430,283,94188,1,2,2:0:0:0:
502,325,94554,2,0,L|532:205,1,120,2|8,1:0|2:3,2:0:0:0:
485,142,95468,1,8,1:0:0:0:
418,195,95834,6,2,L|374:82,1,120,6|4,1:0|2:3,2:1:0:0:
307,134,96749,2,0,L|288:222,1,80,10|2,1:0|1:0,2:0:0:0:
235,271,97480,1,4,2:3:0:0:
162,179,98029,1,2,1:0:0:0:
85,201,98395,1,2,1:0:0:0:
23,150,98761,2,2,L|51:29,1,120,2|4,1:0|2:3,2:1:0:0:
128,61,99676,2,0,L|210:5,1,80,10|2,1:0|2:0,2:0:0:0:
261,58,100407,1,4,2:3:0:0:
263,178,100956,2,0,L|219:263,1,80,2|12,1:0|2:3,2:0:0:0:
190,267,101505,1,10,1:0:0:0:
256,192,101871,12,6,104798,1:0:0:0:
512,165,107724,6,2,L|488:241,1,80,6|2,1:0|1:0,2:1:0:0:
409,256,108456,2,2,L|380:158,1,80,2|2,1:0|1:0,2:1:0:0:
308,199,109188,2,2,L|284:275,1,80,2|2,1:0|1:0,2:1:0:0:
205,290,109919,2,2,L|176:192,1,80,2|2,1:0|1:0,2:1:0:0:
117,166,110651,5,14,1:0:0:0:
95,88,111017,1,14,1:0:0:0:
163,47,111383,1,14,1:0:0:0:
232,87,111749,1,14,1:0:0:0:
312,75,112115,2,0,L|412:79,1,80,6|10,1:0|1:0,2:0:0:0:
417,154,112846,2,0,L|491:216,1,80,6|8,1:0|1:0,2:0:0:0:
484,285,113578,5,6,1:0:0:0:
423,336,113944,1,6,1:0:0:0:
348,306,114310,2,2,L|256:329,1,80,10|4,1:0|2:0,2:1:0:0:
202,282,115041,2,2,L|285:166,1,120,6|10,1:0|1:0,2:1:0:0:
269,104,115956,1,10,1:0:0:0:
269,104,116139,1,4,2:0:0:0:
186,118,116505,5,6,1:0:0:0:
113,83,116871,2,2,L|156:4,2,80,6|10|2,1:0|1:0|1:0,2:1:0:0:
44,123,117968,2,2,L|14:272,1,120,6|10,1:0|1:0,2:1:0:0:
56,318,118883,1,8,1:0:0:0:
56,318,119066,1,2,1:0:0:0:
135,306,119432,6,2,L|204:246,1,80,6|6,1:0|1:0,2:1:0:0:
262,296,120163,2,2,L|348:276,1,80,10|4,1:0|2:3,2:1:0:0:
396,221,120895,1,6,1:0:0:0:
455,116,121444,2,2,L|399:32,1,80,10|10,1:0|1:0,2:1:0:0:
372,38,121993,1,4,2:0:0:0:
325,102,122358,6,2,L|308:198,1,80,6|6,1:0|1:0,2:1:0:0:
231,171,123090,2,0,L|184:83,1,80,10|6,1:0|1:0,2:0:0:0:
115,118,123822,1,10,1:0:0:0:
64,180,124188,2,2,L|66:319,1,120,10|4,1:0|2:3,2:1:0:0:
92,330,124919,1,10,1:0:0:0:
161,290,125285,5,6,1:0:0:0:
231,327,125651,1,6,1:0:0:0:
296,281,126017,2,2,L|389:249,1,80,10|4,1:0|2:0,2:1:0:0:
440,295,126749,2,2,L|524:201,2,120,6|10|4,1:0|1:0|2:0,2:1:0:0:
372,255,128212,6,2,L|275:208,1,80,6|6,1:0|1:0,2:1:0:0:
244,161,128944,1,10,1:0:0:0:
165,177,129310,1,2,1:0:0:0:
109,119,129676,2,2,L|19:29,2,120,6|10|10,1:0|1:0|1:0,2:1:0:0:
78,192,131139,5,6,1:0:0:0:
153,219,131505,2,2,L|235:367,1,160,6|4,1:0|2:3,2:1:0:0:
308,342,132602,2,2,L|331:247,1,80,6|4,1:0|2:0,2:1:0:0:
361,244,133151,1,10,1:0:0:0:
426,290,133517,1,10,1:0:0:0:
484,235,133883,5,4,2:3:0:0:
484,235,134066,2,2,L|447:73,2,160,6|10|2,1:0|1:0|1:0,2:1:0:0:
327,264,136261,2,0,L|307:359,1,80,10|8,1:0|2:3,2:0:0:0:
233,321,136993,6,2,L|192:194,1,120,6|2,1:0|1:0,2:1:0:0:
182,169,137724,1,14,1:0:0:0:
104,150,138090,1,2,1:0:0:0:
62,219,138456,1,6,1:0:0:0:
62,219,138639,2,2,L|62:358,1,120,2|14,1:0|1:0,2:1:0:0:
136,367,139554,1,14,1:0:0:0:
203,323,139919,6,2,L|262:198,1,120,6|2,1:0|1:0,2:1:0:0:
275,180,140651,1,14,1:0:0:0:
354,173,141017,1,2,1:0:0:0:
410,237,141383,1,6,1:0:0:0:
410,237,141566,2,2,L|513:167,1,120,2|8,1:0|2:3,2:1:0:0:
506,89,142480,1,10,1:0:0:0:
430,63,142846,6,2,L|289:50,1,120,6|2,1:0|1:0,2:1:0:0:
270,49,143578,1,14,1:0:0:0:
204,95,143944,2,0,L|113:115,1,80,2|6,1:0|1:0,2:0:0:0:
87,125,144493,1,2,1:0:0:0:
61,203,144858,1,2,1:0:0:0:
61,203,145041,2,2,L|195:255,1,120,14|0,1:0|2:0,2:1:0:0:
210,261,145773,5,6,1:0:0:0:
282,356,146322,1,14,1:0:0:0:
398,327,146871,1,14,1:0:0:0:
472,355,147237,2,0,L|509:276,1,80,4|8,1:2|2:3,2:0:0:0:
446,229,147968,2,0,L|457:141,1,80,8|8,2:3|2:3,2:0:0:0:
377,134,148700,6,2,L|332:18,1,120,6|2,1:0|1:0,2:1:0:0:
296,7,149432,1,14,1:0:0:0:
246,70,149798,1,2,1:0:0:0:
169,48,150163,2,0,L|150:156,1,80,6|0,1:0|2:0,2:0:0:0:
199,193,150895,1,14,1:0:0:0:
275,169,151261,1,14,1:0:0:0:
338,217,151627,6,2,L|359:345,1,120,6|2,1:0|1:0,2:1:0:0:
331,366,152358,1,14,1:0:0:0:
258,331,152724,1,2,1:0:0:0:
178,334,153090,2,0,L|136:245,1,80,6|0,1:0|2:0,2:0:0:0:
70,228,153822,1,4,2:3:0:0:
79,148,154188,1,4,2:0:0:0:
155,127,154554,6,2,L|242:19,1,120,6|4,1:0|2:3,2:1:0:0:
257,3,155285,1,14,1:0:0:0:
327,41,155651,1,2,1:0:0:0:
315,120,156017,2,2,L|303:212,1,80,6|2,1:0|1:0,2:1:0:0:
363,254,156749,2,2,L|484:160,1,120,10|8,1:0|1:0,2:1:0:0:
484,210,157480,6,2,L|434:341,2,120,6|14|6,1:0|1:0|1:0,2:1:0:0:
457,134,158944,2,0,L|417:54,1,80,4|4,1:2|2:0,2:0:0:0:
356,113,159676,2,0,L|365:202,1,80,8|8,2:3|1:0,2:0:0:0:
373,272,160407,1,4,1:0:0:0:
138,66,183822,6,2,L|107:150,1,80,6|2,1:0|1:0,2:1:0:0:
34,169,184553,2,2,L|42:275,1,80,14|2,1:0|1:0,2:1:0:0:
89,313,185285,1,6,1:0:0:0:
162,277,185651,1,2,1:0:0:0:
162,277,185834,1,14,1:0:0:0:
229,330,186200,1,10,1:0:0:0:
229,330,186382,1,6,1:0:0:0:
303,301,186748,6,2,L|325:219,1,80,6|2,1:0|1:0,2:1:0:0:
398,268,187480,2,2,L|404:370,1,80,14|2,1:0|1:0,2:1:0:0:
483,321,188212,2,2,L|505:239,1,80,6|2,1:0|1:0,2:1:0:0:
479,211,188761,1,14,1:0:0:0:
401,184,189126,1,10,1:0:0:0:
401,184,189309,1,6,1:0:0:0:
324,224,189675,6,2,L|237:62,2,160,6|14|6,1:0|1:0|1:0,2:1:0:0:
303,301,191504,1,2,1:0:0:0:
223,310,191870,2,0,L|126:261,1,80,6|6,1:0|1:0,2:0:0:0:
80,237,192602,5,6,1:0:0:0:
82,156,192968,1,2,1:0:0:0:
153,119,193334,2,2,L|258:124,1,80,14|2,1:0|1:0,2:1:0:0:
311,140,194065,2,2,L|472:79,1,160,14|10,1:0|1:0,2:1:0:0:
509,146,195163,1,8,2:3:0:0:
470,216,195529,5,6,1:0:0:0:
499,290,195895,1,14,1:0:0:0:
442,347,196261,2,2,L|353:327,1,80,14|4,1:0|1:2,2:1:0:0:
290,297,196992,2,2,L|143:328,1,120,6|10,1:0|1:0,2:1:0:0:
133,331,197724,1,4,1:2:0:0:
69,282,198090,1,4,1:2:0:0:
105,211,198456,5,6,1:0:0:0:
184,217,198821,1,14,1:0:0:0:
238,158,199187,2,0,L|219:68,1,80,10|10,1:0|1:0,2:0:0:0:
291,40,199919,2,2,L|383:123,2,120,6|10|6,1:0|1:0|1:0,2:1:0:0:
222,80,201382,5,6,1:0:0:0:
200,157,201748,2,2,L|280:332,1,160,14|4,1:0|1:2,2:1:0:0:
345,289,202846,2,2,L|356:189,1,80,6|4,1:0|1:2,2:1:0:0:
417,157,203578,2,0,L|452:233,1,80,6|6,1:0|1:0,2:0:0:0:
512,171,204309,6,2,L|497:43,1,120,6|0,1:0|2:0,2:1:0:0:
471,21,205041,1,14,1:0:0:0:
406,68,205407,1,6,1:0:0:0:
333,34,205773,2,0,L|297:138,1,80,4|10,1:2|1:0,1:2:0:0:
228,126,206504,2,0,L|206:25,1,80,8|10,2:3|1:0,2:0:0:0:
135,20,207236,5,6,1:0:0:0:
81,78,207602,1,14,1:0:0:0:
2,64,207968,2,2,L|1:158,1,80,10|4,1:0|1:2,2:1:0:0:
65,192,208700,2,2,L|21:318,1,120,6|10,1:0|1:0,2:1:0:0:
88,363,209614,1,10,1:0:0:0:
88,363,209797,1,4,1:2:0:0:
166,346,210163,6,0,L|221:284,1,80,6|14,1:0|1:0,2:0:0:0:
298,275,210895,1,14,1:0:0:0:
336,345,211261,1,2,1:0:0:0:
416,343,211626,2,2,L|522:278,2,120,6|10|4,1:0|1:0|1:2,2:1:0:0:
336,345,213090,5,6,1:0:0:0:
298,275,213456,2,2,L|414:145,1,160,14|4,1:0|2:3,2:1:0:0:
383,78,214553,1,6,1:0:0:0:
302,81,214919,1,4,1:2:0:0:
302,81,215102,2,2,L|243:188,1,120,10|4,1:0|1:2,2:1:0:0:
161,190,216017,6,2,L|185:15,2,160,6|14|6,1:0|1:0|1:0,2:1:0:0:
81,201,217846,1,4,1:0:0:0:
53,125,218212,1,4,2:3:0:0:
187,35,218943,5,6,1:0:0:0:
187,35,219126,2,2,L|317:5,1,120,2|14,1:0|1:0,2:1:0:0:
361,63,220041,1,2,1:0:0:0:
318,131,220407,2,2,L|177:238,1,160,6|14,1:0|1:0,2:1:0:0:
180,307,221504,1,14,1:0:0:0:
257,327,221870,6,2,L|355:310,1,80,6|2,1:0|2:0,2:1:0:0:
415,324,222602,2,2,L|482:266,1,80,14|2,1:0|1:0,2:1:0:0:
467,191,223334,1,6,1:0:0:0:
318,131,224065,2,2,L|257:190,1,80,10|8,1:0|1:0,2:1:0:0:
190,148,224797,6,2,L|106:275,1,120,6|8,1:0|2:3,2:1:0:0:
105,283,225529,1,10,1:0:0:0:
134,357,225895,1,2,1:0:0:0:
212,344,226261,1,6,1:0:0:0:
335,360,226809,1,4,1:2:0:0:
335,360,226992,2,2,L|416:308,1,80,14|14,1:0|1:0,2:1:0:0:
378,240,227724,6,2,L|234:280,1,120,6|4,1:0|1:2,2:1:0:0:
226,252,228456,1,14,1:0:0:0:
249,175,228821,1,2,1:0:0:0:
182,129,229187,2,0,L|81:137,1,80,6|14,1:0|1:0,2:0:0:0:
74,60,229919,2,0,L|159:32,1,80,10|14,1:0|1:0,2:0:0:0:
226,60,230651,5,6,1:0:0:0:
326,135,231200,1,4,1:2:0:0:
326,135,231382,2,2,L|426:90,1,80,14|2,1:0|1:0,2:1:0:0:
429,178,232114,2,2,L|363:259,1,80,6|0,1:0|2:0,2:1:0:0:
298,241,232846,1,14,1:0:0:0:
288,320,233212,1,14,1:0:0:0:
207,321,233578,6,2,L|75:369,1,120,6|4,1:0|1:2,2:1:0:0:
56,347,234309,1,14,1:0:0:0:
78,270,234675,1,2,1:0:0:0:
19,215,235041,2,2,L|79:153,1,80,6|0,1:0|2:0,2:1:0:0:
152,177,235773,2,0,L|193:99,1,80,4|4,2:3|2:0,2:0:0:0:
264,133,236504,6,2,L|246:269,1,120,6|4,1:0|1:2,2:1:0:0:
272,283,237236,1,14,1:0:0:0:
345,250,237602,1,2,1:0:0:0:
412,292,237968,2,2,L|457:212,1,80,6|0,1:0|2:0,2:1:0:0:
508,165,238700,2,2,L|499:74,1,80,14|14,1:0|1:0,2:1:0:0:
437,34,239431,5,6,1:0:0:0:
348,114,239980,1,2,1:0:0:0:
269,97,240346,1,2,1:0:0:0:
223,164,240712,1,4,2:0:0:0:
223,164,240889,2,2,L|238:311,1,138.357333333333,10|4,1:0|2:3,2:1:0:0:
180,365,241926,1,10,1:0:0:0:
107,325,242272,5,6,1:0:0:0:
41,225,242810,1,6,1:0:0:0:
123,137,243394,1,6,1:0:0:0:
