osu file format v14

[General]
AudioFilename: audio.mp3
AudioLeadIn: 0
PreviewTime: 50267
Countdown: 0
SampleSet: Soft
StackLeniency: 0.8
Mode: 0
LetterboxInBreaks: 0
WidescreenStoryboard: 1

[Editor]
Bookmarks: 2300,28511,46511,92424,96598,98685
DistanceSpacing: 1.2
BeatDivisor: 3
GridSize: 32
TimelineZoom: 1.4

[Metadata]
Title:Anklebiters
TitleUnicode:Anklebiters
Artist:Paramore
ArtistUnicode:Paramore
Creator:attendant
Version:Normal
Source:
Tags:luscent deca enon english punk rock power pop new wave
BeatmapID:3103323
BeatmapSetID:1512813

[Difficulty]
HPDrainRate:3
CircleSize:3.5
OverallDifficulty:4.5
ApproachRate:6
SliderMultiplier:0.9
SliderTickRate:0.5

[Events]
//Background and Video events
0,0,"441710515.png",0,0
//Break Periods
2,67163,74261
//Storyboard Layer 0 (Background)
//Storyboard Layer 1 (Fail)
//Storyboard Layer 2 (Pass)
//Storyboard Layer 3 (Foreground)
//Storyboard Layer 4 (Overlay)
//Storyboard Sound Samples

[TimingPoints]
181,260.869565217391,4,2,41,30,1,0
2300,-117.647058823529,4,2,41,50,0,0
4354,-117.647058823529,4,2,41,60,0,0
12702,-100,4,2,41,70,0,0
29398,-111.111111111111,4,2,41,60,0,0
34615,-100,4,2,41,75,0,0
35659,-111.111111111111,4,2,41,60,0,0
36702,-100,4,2,41,70,0,0
37746,-111.111111111111,4,2,41,65,0,0
42963,-100,4,2,41,75,0,0
44007,-111.111111111111,4,2,41,65,0,0
45050,-100,4,2,41,70,0,0
46094,-111.111111111111,4,2,41,50,0,0
49659,-111.111111111111,4,2,41,60,0,0
50007,-111.111111111111,4,2,41,65,0,0
50267,-100,4,2,41,75,0,1
66963,-100,4,2,41,70,0,0
75311,-117.647058823529,4,2,41,60,0,0
80528,-100,4,2,41,75,0,0
81572,-117.647058823529,4,2,41,60,0,0
82615,-100,4,2,41,70,0,0
83659,-111.111111111111,4,2,41,65,0,0
88876,-100,4,2,41,75,0,0
89920,-111.111111111111,4,2,41,65,0,0
90963,-100,4,2,41,70,0,0
92007,-111.111111111111,4,2,41,50,0,0
99746,-111.111111111111,4,2,41,60,0,0
100094,-111.111111111111,4,2,41,65,0,0
100354,-100,4,2,41,75,0,1
117050,-100,4,2,41,70,0,0
133746,-100,4,2,41,75,0,0

[Colours]
Combo1 : 135,171,211
Combo2 : 208,79,64
Combo3 : 148,200,96
Combo4 : 216,189,109

[HitObjects]
40,348,2300,6,0,L|187:325,1,143.437502735853,2|2,0:3|0:3,0:0:0:0:
259,174,3311,2,0,L|180:161,1,76.5000014591217,2|2,0:3|0:3,0:0:0:0:
119,115,3833,1,2,0:3:0:0:
119,115,4094,1,2,0:3:0:0:
179,57,4354,6,0,P|231:52|264:46,1,76.5000014591217,4|10,1:1|1:2,0:0:0:0:
296,37,4746,1,4,1:2:0:0:
418,68,5137,1,12,1:2:0:0:
439,149,5398,2,0,P|428:192|421:236,1,76.5000014591217,2|12,1:2|1:2,0:0:0:0:
449,303,5920,2,0,L|467:358,2,38.2500007295609,2|0|12,1:2|1:2|1:2,0:0:0:0:
365,290,6441,5,4,1:1:0:0:
291,326,6703,1,10,1:2:0:0:
291,326,6833,2,0,P|215:321|157:311,1,114.750002188683,4|12,1:2|1:2,0:0:0:0:
98,345,7485,1,2,1:2:0:0:
28,297,7746,1,12,1:2:0:0:
58,218,8007,2,0,L|44:177,1,38.2500007295609,2|0,1:2|1:2,0:0:0:0:
29,143,8267,1,12,1:2:0:0:
82,77,8528,6,2,P|187:129|174:231,1,229.500004377365,6|12,1:1|1:2,0:1:0:0:
218,300,9572,2,0,L|322:310,1,76.5000014591217,2|12,1:2|1:2,0:0:0:0:
359,253,10094,2,0,L|407:244,2,38.2500007295609,2|0|12,1:2|1:2|1:2,0:0:0:0:
301,191,10615,5,4,1:1:0:0:
370,142,10876,1,10,1:2:0:0:
370,142,11007,2,0,P|363:68|356:8,1,114.750002188683,4|14,1:2|1:2,0:0:0:0:
274,34,11659,2,2,B|199:-1|199:-1|88:137,1,229.500004377365,14|14,1:2|1:2,0:1:0:0:
59,190,12702,5,6,1:1:0:0:
135,246,12963,1,8,1:2:0:0:
135,246,13094,2,0,P|211:241|297:262,1,135,6|14,1:2|1:2,0:0:0:0:
341,304,13746,1,14,1:0:0:0:
408,244,14007,1,14,1:2:0:0:
336,189,14267,2,0,P|333:139|337:77,1,90,14|14,1:0|1:2,0:0:0:0:
358,11,14789,5,6,1:1:0:0:
272,5,15050,1,8,1:2:0:0:
272,5,15180,2,0,P|207:10|112:28,1,135,6|14,1:2|1:2,0:0:0:0:
59,66,15833,1,14,1:0:0:0:
135,113,16094,1,14,1:2:0:0:
92,192,16354,2,0,P|91:240|88:291,1,90,14|14,1:0|1:2,0:0:0:0:
156,341,16876,5,6,1:1:0:0:
227,285,17137,1,8,1:2:0:0:
227,285,17267,2,0,P|286:305|367:315,1,135,6|14,1:2|1:2,0:0:0:0:
422,251,17920,2,0,P|428:198|436:154,1,90,14|14,1:0|1:2,0:0:0:0:
364,105,18441,2,0,P|327:125|261:147,1,90,14|14,1:0|1:2,0:0:0:0:
193,156,18963,5,6,1:1:0:0:
115,110,19224,1,8,1:2:0:0:
115,110,19354,2,0,P|94:155|32:222,1,135,6|14,1:2|1:2,0:0:0:0:
4,133,20007,1,14,1:0:0:0:
16,44,20267,1,14,1:2:0:0:
95,2,20528,2,0,L|187:11,1,90,14|10,1:0|1:2,0:0:0:0:
230,33,20920,1,12,1:2:0:0:
230,33,21050,6,0,L|333:26,1,90,6|8,1:1|1:2,0:0:0:0:
364,28,21441,1,6,1:2:0:0:
321,156,21833,1,14,1:2:0:0:
242,199,22094,2,0,P|220:254|213:313,1,90,14|14,1:0|1:2,0:0:0:0:
152,349,22615,1,14,1:0:0:0:
235,383,22876,1,14,1:2:0:0:
299,320,23137,5,6,1:1:0:0:
388,351,23398,1,8,1:2:0:0:
388,351,23528,2,0,P|431:356|490:287,1,135,6|14,1:2|1:2,0:0:0:0:
433,223,24180,2,0,L|334:245,1,90,14|14,1:0|1:2,0:0:0:0:
261,209,24702,1,14,1:0:0:0:
172,232,24963,1,14,1:2:0:0:
88,197,25224,6,0,L|-11:219,1,90,6|8,1:1|1:2,0:0:0:0:
3,171,25615,1,6,1:2:0:0:
49,44,26007,1,14,1:2:0:0:
136,62,26267,2,0,L|235:84,1,90,14|14,1:0|1:2,0:0:0:0:
303,39,26789,1,14,1:0:0:0:
381,82,27050,1,14,1:2:0:0:
455,30,27311,5,6,1:1:0:0:
507,109,27572,1,8,1:2:0:0:
507,109,27702,2,0,P|497:157|489:259,1,135,6|14,1:2|1:2,0:0:0:0:
415,293,28354,2,0,L|361:324,1,54,14|12,1:2|1:3,0:0:0:0:
252,269,28876,1,14,1:2:0:0:
171,309,29137,2,0,L|119:303,1,45,12|10,1:2|1:2,0:0:0:0:
87,315,29398,6,0,P|78:269|66:218,1,80.9999975280763,6|10,1:1|1:2,0:0:0:0:
38,210,29789,2,0,P|26:158|68:88,1,121.499996292114,4|14,1:2|1:2,0:0:0:0:
134,107,30441,1,2,1:2:0:0:
189,48,30702,1,12,1:2:0:0:
189,48,30833,2,0,P|237:62|285:73,1,80.9999975280763,2|2,3:2|1:2,0:0:0:0:
307,77,31224,1,12,1:2:0:0:
277,152,31485,6,0,P|269:206|264:255,1,80.9999975280763,6|10,1:1|1:2,0:0:0:0:
240,263,31876,2,0,P|307:284|344:341,1,121.499996292114,4|14,1:2|1:2,0:0:0:0:
407,363,32528,1,2,1:2:0:0:
461,303,32789,1,14,1:2:0:0:
394,255,33050,2,0,P|396:214|401:158,1,80.9999975280763,2|14,1:2|1:2,0:0:0:0:
451,111,33572,5,6,1:1:0:0:
400,47,33833,1,10,1:2:0:0:
400,47,33963,2,0,P|341:60|270:63,1,121.499996292114,4|14,1:2|1:2,0:0:0:0:
199,23,34615,2,0,B|155:14|155:14|96:40,1,90,14|10,1:0|1:0,0:0:0:0:
40,85,35137,2,0,P|13:111|8:173,1,90,14|10,1:0|1:0,0:0:0:0:
31,204,35528,1,4,1:3:0:0:
31,204,35659,5,4,1:1:0:0:
96,251,35920,1,10,1:2:0:0:
161,203,36180,2,0,P|209:209|271:210,1,80.9999975280763,2|14,3:2|1:2,0:0:0:0:
305,147,36702,2,0,L|403:129,1,90,14|10,1:0|1:0,0:0:0:0:
466,184,37224,2,0,P|475:238|450:287,1,90,14|10,1:0|1:0,0:0:0:0:
431,301,37615,1,4,1:3:0:0:
431,301,37746,6,0,P|401:300|331:341,1,80.9999975280763,6|10,1:1|1:2,0:0:0:0:
325,346,38137,1,4,1:2:0:0:
215,293,38528,1,14,1:2:0:0:
263,228,38789,2,0,L|275:140,1,80.9999975280763,2|12,1:2|1:2,0:0:0:0:
254,111,39180,2,0,L|251:44,1,40.4999987640381,2|0,3:2|1:2,0:0:0:0:
275,38,39441,1,2,1:2:0:0:
275,38,39572,1,12,1:2:0:0:
352,14,39833,5,6,1:1:0:0:
422,64,40094,1,10,1:2:0:0:
422,64,40224,2,0,P|462:74|495:155,1,121.499996292114,4|14,1:2|1:2,0:0:0:0:
436,195,40876,2,0,L|412:284,1,80.9999975280763,2|14,1:2|1:2,0:0:0:0:
336,293,41398,2,0,L|314:214,1,80.9999975280763,2|14,1:2|1:2,0:0:0:0:
240,182,41920,5,6,1:1:0:0:
175,232,42180,1,10,1:2:0:0:
175,232,42311,2,0,P|121:239|45:238,1,121.499996292114,4|14,1:2|1:2,0:0:0:0:
4,163,42963,2,0,P|13:102|57:62,1,90,14|10,1:0|1:0,0:0:0:0:
96,20,43485,2,0,P|156:27|197:72,1,90,14|10,1:0|1:0,0:0:0:0:
213,80,43876,1,4,1:3:0:0:
213,80,44007,5,4,1:1:0:0:
286,47,44267,2,0,P|324:58|373:68,1,80.9999975280763,10|2,1:2|3:2,0:0:0:0:
442,44,44789,1,14,1:2:0:0:
500,112,45050,2,0,P|489:160|479:234,1,90,14|10,1:0|1:0,0:0:0:0:
410,254,45572,2,0,B|371:235|371:235|311:247,1,90,14|10,1:0|1:0,0:0:0:0:
250,275,46094,5,12,1:0:0:0:
181,231,46354,2,0,L|124:222,1,48.5999985168457,8|14,1:0|1:2,0:0:0:0:
59,257,46746,1,10,1:2:0:0:
59,257,46876,1,12,1:3:0:0:
59,257,48180,6,0,P|116:285|148:342,2,121.499996292114,14|4|12,1:0|1:3|1:3,0:0:0:0:
28,181,49224,2,0,L|39:108,1,53.9999983520508,8|4,1:2|1:3,0:0:0:0:
94,69,49659,2,0,P|146:73|216:51,1,107.999996704102,12|4,1:2|1:3,0:0:0:0:
274,9,50267,5,4,1:1:0:0:
320,86,50528,2,0,P|309:128|301:193,1,90,10|2,1:2|3:2,0:0:0:0:
239,239,51050,2,0,L|248:291,1,45,14|2,1:2|3:2,0:0:0:0:
274,319,51311,2,0,P|324:331|363:353,1,90,6|10,1:1|1:2,0:0:0:0:
394,375,51702,1,6,1:2:0:0:
477,337,51963,1,2,3:2:0:0:
477,337,52094,1,12,1:2:0:0:
500,250,52354,6,0,P|495:191|497:126,1,90,6|12,1:0|1:2,0:0:0:0:
417,114,52876,1,6,1:0:0:0:
452,31,53137,1,12,1:2:0:0:
364,11,53398,2,0,P|324:20|247:35,1,90,6|8,1:0|1:2,0:0:0:0:
233,13,53789,2,0,P|189:9|111:-1,1,90,6|0,1:2|1:2,0:0:0:0:
105,28,54180,1,14,1:2:0:0:
163,96,54441,6,0,P|163:145|157:191,1,90,4|10,1:1|1:2,0:0:0:0:
94,248,54963,1,2,3:2:0:0:
94,248,55094,2,0,P|68:263|53:279,1,45,2|12,3:2|1:2,0:0:0:0:
74,315,55354,2,0,P|98:354|197:353,1,135,2|10,3:2|1:2,0:0:0:0:
224,353,55876,1,6,1:2:0:0:
314,380,56137,1,2,3:2:0:0:
314,380,56267,1,12,1:2:0:0:
301,290,56528,6,0,L|311:196,1,90,6|12,1:0|1:2,0:0:0:0:
248,134,57050,2,0,L|159:161,1,90,6|12,1:0|1:2,0:0:0:0:
99,95,57572,2,0,P|144:17|253:33,1,180,6|14,1:0|1:0,0:0:0:0:
303,60,58354,1,14,1:2:0:0:
382,18,58615,5,4,1:1:0:0:
463,56,58876,2,0,P|470:94|492:152,1,90,10|2,1:2|3:2,0:0:0:0:
509,187,59267,1,2,3:2:0:0:
509,187,59398,2,0,L|497:242,1,45,14|2,1:2|3:2,0:0:0:0:
490,275,59659,1,6,1:1:0:0:
408,251,59920,1,10,1:2:0:0:
408,251,60050,2,0,P|360:249|286:252,1,90,6|2,1:2|3:2,0:0:0:0:
275,263,60441,1,12,1:2:0:0:
188,289,60702,6,0,L|76:279,1,90,6|12,1:0|1:2,0:0:0:0:
66,196,61224,2,0,L|97:108,1,90,6|12,1:0|1:2,0:0:0:0:
185,96,61746,1,6,1:0:0:0:
267,131,62007,2,0,L|334:138,1,45,8|4,1:2|1:2,0:0:0:0:
352,117,62267,1,2,3:2:0:0:
439,137,62528,1,12,1:2:0:0:
507,78,62789,5,6,1:1:0:0:
445,12,63050,2,0,P|399:9|348:1,1,90,10|2,1:2|3:2,0:0:0:0:
273,39,63572,1,14,1:2:0:0:
188,9,63833,1,6,1:1:0:0:
188,9,63963,2,0,P|133:16|108:25,1,45,2|8,3:2|1:2,0:0:0:0:
101,31,64224,1,6,1:2:0:0:
19,139,64615,1,14,1:2:0:0:
19,139,64746,6,0,P|29:207|34:285,1,135,6|8,1:0|1:2,0:0:0:0:
97,336,65398,2,0,P|165:340|189:349,1,90,2|12,3:2|1:2,0:0:0:0:
249,283,65920,1,6,1:2:0:0:
357,363,66311,1,6,1:2:0:0:
472,294,66702,1,14,1:2:0:0:
429,214,66963,1,6,1:1:0:0:
490,321,75311,5,6,1:1:0:0:
440,260,75572,1,10,1:2:0:0:
440,260,75702,2,0,P|451:199|459:134,1,114.750002188683,2|10,1:2|1:2,0:0:0:0:
496,72,76354,1,2,1:2:0:0:
431,27,76615,1,8,1:2:0:0:
431,27,76746,2,0,P|389:39|329:43,1,76.5000014591217,2|2,3:2|1:2,0:0:0:0:
314,38,77137,1,8,1:2:0:0:
246,88,77398,5,2,1:1:0:0:
310,150,77659,1,10,1:2:0:0:
310,150,77789,2,0,P|316:212|314:251,1,76.5000014591217,2|0,1:2|0:0,0:0:0:0:
315,268,78180,1,10,1:2:0:0:
250,322,78441,2,0,P|204:329|145:355,1,76.5000014591217,2|10,1:2|1:2,0:0:0:0:
108,287,78963,2,0,P|108:240|101:180,1,76.5000014591217,2|10,1:2|1:2,0:0:0:0:
49,147,79485,5,2,1:1:0:0:
106,86,79746,1,10,1:2:0:0:
106,86,79876,2,0,P|160:97|229:100,1,114.750002188683,2|10,1:2|1:2,0:0:0:0:
297,39,80528,2,0,P|341:29|384:60,1,90,14|10,1:0|1:0,0:0:0:0:
451,117,81050,2,0,P|449:162|407:195,1,90,14|10,1:0|1:0,0:0:0:0:
392,234,81441,1,4,1:3:0:0:
392,234,81572,5,4,1:1:0:0:
314,200,81833,2,0,P|270:192|242:194,1,38.2500007295609,10|0,1:2|1:2,0:0:0:0:
234,188,82094,1,2,3:2:0:0:
154,214,82354,1,10,1:2:0:0:
62,250,82615,2,0,B|48:294|48:294|69:346,1,90,14|10,1:0|1:0,0:0:0:0:
162,348,83137,2,0,L|281:362,1,90,14|10,1:0|1:0,0:0:0:0:
299,340,83528,1,4,3:2:0:0:
299,340,83659,6,0,P|350:339|396:352,1,80.9999975280763,6|10,1:1|1:2,0:0:0:0:
453,314,84180,2,0,P|460:243|454:204,1,80.9999975280763,2|14,3:2|1:2,0:0:0:0:
402,175,84702,2,0,P|400:97|409:69,1,80.9999975280763,2|12,1:2|1:2,0:0:0:0:
426,17,85224,1,2,1:2:0:0:
264,10,85746,5,6,1:1:0:0:
201,60,86007,1,10,1:2:0:0:
201,60,86137,1,4,1:2:0:0:
250,130,86398,1,2,3:2:0:0:
250,130,86528,1,14,1:2:0:0:
216,203,86789,2,0,L|189:283,1,80.9999975280763,2|14,1:2|1:2,0:0:0:0:
110,296,87311,2,0,L|84:219,1,80.9999975280763,2|14,1:2|1:2,0:0:0:0:
10,184,87833,6,0,P|40:115|132:102,1,161.999995056153,6|2,1:1|3:2,0:0:0:0:
186,53,88615,1,14,1:2:0:0:
270,84,88876,2,0,P|322:86|385:80,1,90,14|10,1:0|1:0,0:0:0:0:
441,121,89398,2,0,P|457:167|457:222,1,90,14|10,1:0|1:0,0:0:0:0:
493,281,89920,5,4,1:1:0:0:
427,328,90180,1,10,1:2:0:0:
427,328,90311,2,0,P|384:333|318:345,1,80.9999975280763,4|0,1:2|0:0,0:0:0:0:
307,348,90702,1,14,1:2:0:0:
237,291,90963,2,0,P|191:297|121:289,1,90,14|10,1:0|1:0,0:0:0:0:
84,229,91485,2,0,P|82:184|96:138,1,90,14|10,1:0|1:0,0:0:0:0:
157,89,92007,5,12,1:0:0:0:
236,103,92267,2,0,L|286:84,1,48.5999985168457,8|14,1:0|1:2,0:0:0:0:
357,57,92659,1,10,1:2:0:0:
357,57,92789,1,12,1:3:0:0:
357,57,94094,6,0,P|416:88|444:148,2,121.499996292114,14|4|12,1:0|1:3|1:3,0:0:0:0:
157,89,96180,5,12,1:0:0:0:
236,103,96440,2,0,L|286:84,1,48.5999985168457,8|14,1:0|1:2,0:0:0:0:
357,57,96832,1,10,1:2:0:0:
357,57,96962,1,12,1:3:0:0:
441,134,98267,6,0,P|410:83|357:57,2,121.499996292114,14|14|12,1:0|1:0|1:3,0:0:0:0:
476,207,99311,2,0,L|459:271,1,53.9999983520508,8|4,1:2|1:3,0:0:0:0:
414,324,99746,2,0,P|369:320|288:340,1,107.999996704102,12|4,1:2|1:3,0:0:0:0:
224,365,100354,5,4,1:1:0:0:
169,294,100615,2,0,P|174:250|179:186,1,90,10|2,1:2|3:2,0:0:0:0:
137,123,101137,2,0,L|129:62,1,45,14|2,1:2|3:2,0:0:0:0:
160,44,101398,2,0,P|211:59|269:60,1,90,6|10,1:1|1:2,0:0:0:0:
292,59,101789,1,6,1:2:0:0:
375,20,102050,1,2,3:2:0:0:
375,20,102180,1,12,1:2:0:0:
453,64,102441,6,0,P|440:113|436:162,1,90,6|12,1:0|1:2,0:0:0:0:
492,222,102963,2,0,P|498:275|498:313,1,90,6|12,1:0|1:2,0:0:0:0:
412,340,103485,2,0,P|371:345|321:337,1,90,6|8,1:0|1:2,0:0:0:0:
282,317,103876,2,0,P|237:323|175:347,1,90,6|0,1:2|1:2,0:0:0:0:
157,362,104267,1,14,1:2:0:0:
71,334,104528,5,4,1:1:0:0:
108,252,104789,2,0,P|106:210|93:157,1,90,10|2,1:2|3:2,0:0:0:0:
74,129,105180,1,2,3:2:0:0:
98,42,105441,2,0,P|172:54|241:47,1,135,2|10,3:2|1:2,0:0:0:0:
275,38,105963,1,6,1:2:0:0:
311,126,106224,1,2,3:2:0:0:
311,126,106354,1,12,1:2:0:0:
248,191,106615,6,0,P|237:245|236:290,1,90,6|12,1:0|1:2,0:0:0:0:
289,352,107137,2,0,P|343:349|407:356,1,90,6|12,1:0|1:2,0:0:0:0:
451,297,107659,2,0,P|485:200|456:116,1,180,6|14,1:0|1:0,0:0:0:0:
404,61,108441,1,14,1:2:0:0:
315,77,108702,6,0,P|253:73|199:55,1,90,4|10,1:1|1:2,0:0:0:0:
194,98,109094,1,6,1:2:0:0:
194,98,109224,2,0,L|199:164,1,45,2|2,3:2|3:2,0:0:0:0:
207,186,109485,1,14,1:2:0:0:
251,264,109746,1,6,1:1:0:0:
177,313,110007,1,10,1:2:0:0:
177,313,110137,2,0,P|119:288|96:227,1,90,6|2,1:2|3:2,0:0:0:0:
98,222,110528,1,12,1:2:0:0:
37,155,110789,6,0,P|33:97|26:35,1,90,6|12,1:0|1:2,0:0:0:0:
100,9,111311,2,0,P|147:17|215:28,1,90,6|12,1:0|1:2,0:0:0:0:
259,80,111833,1,6,1:0:0:0:
341,44,112094,1,8,1:2:0:0:
394,116,112354,2,0,P|379:159|365:235,1,90,2|12,3:2|1:2,0:0:0:0:
412,281,112876,5,6,1:1:0:0:
340,335,113137,2,0,P|304:323|244:319,1,90,10|2,1:2|3:2,0:0:0:0:
164,339,113659,1,14,1:2:0:0:
95,288,113920,1,6,1:1:0:0:
95,288,114050,2,0,P|108:233|110:209,1,45,2|8,3:2|1:2,0:0:0:0:
73,213,114311,2,0,P|64:144|59:69,1,135,6|14,1:2|1:2,0:0:0:0:
127,19,114963,5,4,1:0:0:0:
208,57,115224,2,0,P|235:65|267:72,1,45,8|4,1:2|1:2,0:0:0:0:
285,39,115485,2,0,P|331:37|412:25,1,90,2|12,3:2|1:2,0:0:0:0:
448,84,116007,2,0,P|436:134|437:214,1,90,6|8,1:2|1:3,0:0:0:0:
397,200,116398,2,0,P|409:249|408:329,1,90,6|4,1:2|1:3,0:0:0:0:
415,333,116789,1,14,1:2:0:0:
330,365,117050,5,6,1:0:0:0:
265,310,117311,1,12,1:2:0:0:
265,310,117441,2,0,P|274:248|284:151,1,135,6|12,1:0|1:2,0:0:0:0:
238,97,118094,1,4,1:0:0:0:
161,141,118354,1,12,1:2:0:0:
161,141,118485,2,0,P|108:144|20:118,1,135,4|12,1:0|1:2,0:0:0:0:
4,36,119137,5,6,1:0:0:0:
86,0,119398,1,12,1:2:0:0:
86,0,119528,2,0,P|138:-3|227:23,1,135,6|12,1:0|1:2,0:0:0:0:
307,14,120180,2,0,P|310:53|320:102,1,90,14|10,1:0|1:0,0:0:0:0:
341,190,120702,2,0,P|337:229|327:278,1,90,14|10,1:0|1:0,0:0:0:0:
294,309,121094,1,4,1:3:0:0:
294,309,121224,5,6,1:0:0:0:
376,357,121485,1,12,1:2:0:0:
376,357,121615,2,0,B|441:345|441:345|500:380,1,135,6|12,1:0|1:2,0:0:0:0:
511,290,122267,1,4,1:0:0:0:
472,214,122528,1,12,1:2:0:0:
472,214,122659,2,0,P|474:119|491:39,1,135,4|12,1:0|1:2,0:0:0:0:
428,6,123311,5,6,1:0:0:0:
366,72,123572,1,12,1:2:0:0:
366,72,123702,2,0,P|287:90|238:52,1,135,6|12,1:0|1:2,0:0:0:0:
164,23,124354,2,0,P|142:55|126:131,1,90,14|10,1:0|1:0,0:0:0:0:
180,176,124876,2,0,P|202:208|218:284,1,90,14|10,1:0|1:0,0:0:0:0:
224,301,125267,1,4,1:3:0:0:
224,301,125398,5,6,1:0:0:0:
143,341,125659,2,0,P|116:344|35:366,1,90,12|2,1:2|3:1,0:0:0:0:
19,276,126180,1,12,1:2:0:0:
77,208,126441,1,6,1:0:0:0:
77,208,126572,2,0,L|90:149,1,45,2|12,3:1|1:2,0:0:0:0:
67,123,126833,1,6,1:0:0:0:
168,33,127224,1,12,1:2:0:0:
168,33,127354,6,0,P|245:36|301:48,1,135,2|12,3:1|1:2,0:0:0:0:
345,59,127876,1,6,1:0:0:0:
313,190,128267,1,12,1:2:0:0:
240,243,128528,2,0,P|243:292|273:338,1,90,14|10,1:0|1:0,0:0:0:0:
341,372,129050,2,0,P|390:368|436:338,1,90,14|10,1:0|1:0,0:0:0:0:
462,323,129441,1,4,1:3:0:0:
462,323,129572,5,6,1:0:0:0:
496,242,129833,1,12,1:2:0:0:
496,242,129963,2,0,P|487:173|485:86,1,135,6|12,1:0|1:2,0:0:0:0:
414,51,130615,1,4,1:0:0:0:
339,99,130876,1,12,1:2:0:0:
339,99,131007,2,0,B|296:110|296:110|231:92,1,90,4|2,1:0|3:2,0:0:0:0:
213,121,131398,1,12,1:2:0:0:
256,192,131659,12,14,133746,0:2:0:0:
