osu file format v14

[General]
AudioFilename: audio.mp3
AudioLeadIn: 0
PreviewTime: 160847
Countdown: 0
SampleSet: Soft
StackLeniency: 0.7
Mode: 0
LetterboxInBreaks: 0
WidescreenStoryboard: 0

[Editor]
Bookmarks: 40118,53451,66784,93451,96368,120118,133451,160951,166784,193451
DistanceSpacing: 2.2
BeatDivisor: 4
GridSize: 8
TimelineZoom: 1

[Metadata]
Title:All I Wanted
TitleUnicode:All I Wanted
Artist:Paramore
ArtistUnicode:Paramore
Creator:derov
Version:Past
Source:
Tags:english pop rock hayley williams brand new eyes blqodttypes amats am4ts darkebluu itscactus
BeatmapID:4216900
BeatmapSetID:2024419

[Difficulty]
HPDrainRate:5.5
CircleSize:4.3
OverallDifficulty:8.6
ApproachRate:8.9
SliderMultiplier:1.74
SliderTickRate:1

[Events]
//Background and Video events
0,0,"you.jpg",0,0
//Break Periods
2,160951,165336
//Storyboard Layer 0 (Background)
//Storyboard Layer 1 (Fail)
//Storyboard Layer 2 (Pass)
//Storyboard Layer 3 (Foreground)
//Storyboard Layer 4 (Overlay)
//Storyboard Sound Samples

[TimingPoints]
118,416.666666666667,4,2,1,60,1,0
118,-153.846153846153,4,2,1,60,0,0
26784,-142.857142857143,4,2,1,60,0,0
40118,-142.857142857143,4,2,1,70,0,0
53451,-90.9090909090909,4,2,2,90,0,0
53659,-90.9090909090909,4,2,1,90,0,0
53868,-90.9090909090909,4,2,3,90,0,0
54076,-90.9090909090909,4,2,1,90,0,0
54284,-90.9090909090909,4,2,2,90,0,0
54909,-90.9090909090909,4,2,1,90,0,0
55118,-90.9090909090909,4,2,3,90,0,0
55326,-90.9090909090909,4,2,1,90,0,0
55534,-90.9090909090909,4,2,2,90,0,0
56993,-90.9090909090909,4,2,1,90,0,0
57201,-90.9090909090909,4,2,3,90,0,0
57409,-90.9090909090909,4,2,1,90,0,0
57618,-90.9090909090909,4,2,2,90,0,0
58243,-90.9090909090909,4,2,1,90,0,0
58451,-90.9090909090909,4,2,3,90,0,0
58659,-90.9090909090909,4,2,1,90,0,0
58868,-90.9090909090909,4,2,2,90,0,0
59701,-90.9090909090909,4,2,1,90,0,0
60118,-90.9090909090909,4,2,2,90,0,0
60326,-90.9090909090909,4,2,1,90,0,0
60951,-90.9090909090909,4,2,2,90,0,0
61576,-90.9090909090909,4,2,1,90,0,0
61784,-90.9090909090909,4,2,3,90,0,0
61993,-90.9090909090909,4,2,1,90,0,0
62201,-90.9090909090909,4,2,2,90,0,0
63659,-90.9090909090909,4,2,1,90,0,0
63868,-90.9090909090909,4,2,3,90,0,0
64076,-90.9090909090909,4,2,1,90,0,0
64284,-90.9090909090909,4,2,2,90,0,0
64909,-90.9090909090909,4,2,1,90,0,0
65118,-90.9090909090909,4,2,3,90,0,0
65326,-90.9090909090909,4,2,1,90,0,0
66784,-125,4,2,1,80,0,0
67201,-125,4,2,4,80,0,0
67409,-125,4,2,1,80,0,0
67618,-125,4,2,4,80,0,0
68034,-125,4,2,1,80,0,0
68243,-125,4,2,4,80,0,0
68451,-125,4,2,1,80,0,0
68868,-125,4,2,4,80,0,0
69076,-125,4,2,1,80,0,0
69284,-125,4,2,4,80,0,0
69701,-125,4,2,2,80,0,0
70118,-125,4,2,4,80,0,0
70534,-125,4,2,5,80,0,0
71784,-125,4,2,1,80,0,0
72201,-125,4,2,5,80,0,0
72618,-125,4,2,4,80,0,0
73034,-125,4,2,3,80,0,0
73451,-125,4,2,4,80,0,0
73659,-125,4,2,1,80,0,0
73868,-125,4,2,4,80,0,0
74076,-125,4,2,1,80,0,0
74284,-125,4,2,4,80,0,0
74701,-125,4,2,1,80,0,0
74909,-125,4,2,4,80,0,0
75118,-125,4,2,1,80,0,0
75534,-125,4,2,5,80,0,0
75951,-125,4,2,4,80,0,0
76368,-125,4,2,3,80,0,0
76784,-125,4,2,4,80,0,0
77201,-125,4,2,5,80,0,0
78451,-125,4,2,1,80,0,0
78868,-125,4,2,5,80,0,0
79076,-125,4,2,1,80,0,0
79284,-125,4,2,4,80,0,0
79493,-125,4,2,5,80,0,0
79701,-125,4,2,1,80,0,0
80118,-125,4,2,1,80,0,0
80534,-125,4,2,4,80,0,0
80743,-125,4,2,1,80,0,0
80951,-125,4,2,4,80,0,0
81368,-125,4,2,1,80,0,0
81576,-125,4,2,4,80,0,0
81784,-125,4,2,1,80,0,0
82201,-125,4,2,4,80,0,0
83034,-125,4,2,2,80,0,0
83451,-125,4,2,4,80,0,0
83868,-125,4,2,5,80,0,0
85118,-125,4,2,1,80,0,0
85534,-125,4,2,5,80,0,0
85951,-125,4,2,4,80,0,0
86159,-125,4,2,1,80,0,0
86368,-125,4,2,3,80,0,0
86784,-125,4,2,4,80,0,0
87201,-125,4,2,4,80,0,0
87409,-125,4,2,1,80,0,0
87618,-125,4,2,4,80,0,0
88034,-125,4,2,1,80,0,0
88243,-125,4,2,4,80,0,0
88451,-125,4,2,1,80,0,0
88868,-125,4,2,5,80,0,0
89284,-125,4,2,4,80,0,0
89701,-125,4,2,3,80,0,0
90118,-125,4,2,4,80,0,0
90534,-125,4,2,4,80,0,0
90743,-125,4,2,1,80,0,0
90951,-111.111111111111,4,2,3,80,0,0
91159,-111.111111111111,4,2,1,80,0,0
91368,-100,4,2,2,80,0,0
91784,-100,4,2,1,80,0,0
92722,-100,4,2,1,5,0,0
93451,-100,4,2,1,90,0,1
93659,-90.9090909090909,4,2,1,90,0,1
94284,-90.9090909090909,4,2,2,90,0,1
96784,-90.9090909090909,4,2,2,90,0,1
96993,-90.9090909090909,4,2,1,90,0,1
97201,-90.9090909090909,4,2,3,90,0,1
97409,-90.9090909090909,4,2,1,90,0,1
97618,-90.9090909090909,4,2,2,90,0,1
98243,-90.9090909090909,4,2,1,90,0,1
98451,-90.9090909090909,4,2,3,90,0,1
98659,-90.9090909090909,4,2,1,90,0,1
98868,-90.9090909090909,4,2,2,90,0,1
99701,-90.9090909090909,4,2,1,90,0,1
100534,-90.9090909090909,4,2,3,90,0,1
100743,-90.9090909090909,4,2,1,90,0,1
100951,-90.9090909090909,4,2,2,90,0,1
103451,-90.9090909090909,4,2,2,90,0,1
103659,-90.9090909090909,4,2,1,90,0,1
103868,-90.9090909090909,4,2,3,90,0,1
104284,-90.9090909090909,4,2,2,90,0,1
104701,-90.9090909090909,4,2,3,90,0,1
105118,-153.846153846154,4,2,3,90,0,1
105951,-83.3333333333333,4,2,1,90,0,1
106784,-90.9090909090909,4,2,1,90,0,1
107201,-90.9090909090909,4,2,3,90,0,1
107409,-90.9090909090909,4,2,1,90,0,1
107618,-90.9090909090909,4,2,2,90,0,1
110118,-90.9090909090909,4,2,2,90,0,1
110326,-90.9090909090909,4,2,1,90,0,1
110534,-90.9090909090909,4,2,3,90,0,1
110743,-90.9090909090909,4,2,1,90,0,1
110951,-90.9090909090909,4,2,2,90,0,1
111576,-90.9090909090909,4,2,1,90,0,1
111784,-90.9090909090909,4,2,3,90,0,1
111993,-90.9090909090909,4,2,1,90,0,1
112201,-90.9090909090909,4,2,2,90,0,1
112618,-90.9090909090909,4,2,2,90,0,1
112826,-90.9090909090909,4,2,2,90,0,1
113034,-90.9090909090909,4,2,1,90,0,1
114284,-90.9090909090909,4,2,2,90,0,1
116784,-76.9230769230769,4,2,1,90,0,1
117201,-76.9230769230769,4,2,3,90,0,1
117409,-76.9230769230769,4,2,1,90,0,1
117618,-76.9230769230769,4,2,1,90,0,1
118034,-76.9230769230769,4,2,2,90,0,1
118243,-76.9230769230769,4,2,1,90,0,1
118451,-76.9230769230769,4,2,3,90,0,1
118659,-76.9230769230769,4,2,1,90,0,1
118868,-76.9230769230769,4,2,2,90,0,1
119284,-76.9230769230769,4,2,1,90,0,1
120118,-111.111111111111,4,2,1,80,0,0
126368,-111.111111111111,4,2,3,80,0,0
126784,-111.111111111111,4,2,1,80,0,0
129701,-111.111111111111,4,2,2,80,0,0
130118,-111.111111111111,4,2,4,80,0,0
131888,-111.111111111111,4,2,1,80,0,0
133451,-125,4,2,1,70,0,0
133868,-125,4,2,4,70,0,0
134076,-125,4,2,1,70,0,0
134284,-125,4,2,4,70,0,0
134909,-125,4,2,1,70,0,0
135118,-125,4,2,4,70,0,0
135743,-125,4,2,1,70,0,0
135951,-125,4,2,4,70,0,0
136368,-125,4,2,2,70,0,0
136784,-125,4,2,4,70,0,0
137201,-125,4,2,5,70,0,0
138451,-125,4,2,4,70,0,0
138868,-125,4,2,5,70,0,0
139284,-125,4,2,4,70,0,0
139701,-125,4,2,3,70,0,0
140118,-125,4,2,4,70,0,0
140534,-125,4,2,4,70,0,0
140743,-125,4,2,1,70,0,0
140951,-125,4,2,4,70,0,0
141576,-125,4,2,1,70,0,0
141784,-125,4,2,4,70,0,0
142201,-125,4,2,5,70,0,0
142618,-125,4,2,4,70,0,0
143034,-125,4,2,5,70,0,0
143451,-125,4,2,4,70,0,0
143868,-125,4,2,5,70,0,0
145118,-125,4,2,4,70,0,0
145326,-125,4,2,2,70,0,0
145534,-125,4,2,5,70,0,0
145743,-125,4,2,1,70,0,0
145951,-125,4,2,2,70,0,0
146159,-125,4,2,4,70,0,0
146368,-125,4,2,1,70,0,0
146576,-125,4,2,2,70,0,0
146784,-125,4,2,1,70,0,0
147201,-125,4,2,4,70,0,0
147409,-125,4,2,1,70,0,0
147618,-125,4,2,4,70,0,0
148659,-125,4,2,1,70,0,0
148868,-125,4,2,4,70,0,0
149284,-153.846153846154,4,2,4,70,0,0
149701,-153.846153846154,4,2,3,70,0,0
149909,-153.846153846154,4,2,1,70,0,0
150118,-125,4,2,4,70,0,0
151159,-125,4,2,1,70,0,0
151368,-125,4,2,4,70,0,0
151576,-125,4,2,5,70,0,0
151784,-125,4,2,4,70,0,0
152618,-125,4,2,1,70,0,0
153034,-125,4,2,2,70,0,0
153451,-125,4,2,4,70,0,0
153659,-125,4,2,1,70,0,0
153868,-125,4,2,2,70,0,0
154076,-125,4,2,1,70,0,0
154701,-125,4,2,4,70,0,0
154909,-125,4,2,1,70,0,0
155118,-125,4,2,4,70,0,0
155534,-125,4,2,5,70,0,0
155951,-125,4,2,4,70,0,0
157826,-125,4,2,1,70,0,0
158034,-125,4,2,2,70,0,0
158868,-125,4,2,1,70,0,0
159284,-125,4,2,1,70,0,0
159701,-100,4,2,1,70,0,0
165951,-90.9090909090909,4,2,1,90,0,0
166784,-90.9090909090909,4,2,1,90,0,1
167201,-90.9090909090909,4,2,3,90,0,1
167409,-90.9090909090909,4,2,1,90,0,1
167618,-90.9090909090909,4,2,2,90,0,1
170118,-90.9090909090909,4,2,2,90,0,1
170326,-90.9090909090909,4,2,1,90,0,1
170534,-90.9090909090909,4,2,3,90,0,1
170743,-90.9090909090909,4,2,1,90,0,1
170951,-90.9090909090909,4,2,2,90,0,1
171576,-90.9090909090909,4,2,1,90,0,1
171784,-90.9090909090909,4,2,3,90,0,1
171993,-90.9090909090909,4,2,1,90,0,1
172201,-90.9090909090909,4,2,2,90,0,1
173034,-90.9090909090909,4,2,1,90,0,1
173868,-90.9090909090909,4,2,3,90,0,1
174076,-90.9090909090909,4,2,1,90,0,1
174284,-90.9090909090909,4,2,2,90,0,1
176784,-90.9090909090909,4,2,2,90,0,1
176993,-90.9090909090909,4,2,1,90,0,1
177201,-90.9090909090909,4,2,3,90,0,1
177618,-90.9090909090909,4,2,2,90,0,1
178034,-181.818181818181,4,2,3,90,0,1
178451,-181.818181818181,4,2,1,90,0,1
178659,-181.818181818181,4,2,2,90,0,1
179284,-181.818181818181,4,2,1,90,0,1
180118,-181.818181818181,4,2,1,90,0,1
180326,-90.9090909090909,4,2,1,90,0,1
181368,-90.9090909090909,4,2,2,90,0,1
181784,-90.9090909090909,4,2,1,90,0,1
182201,-90.9090909090909,4,2,2,90,0,1
182618,-90.9090909090909,4,2,1,90,0,1
183034,-90.9090909090909,4,2,2,90,0,1
183451,-90.9090909090909,4,2,1,90,0,1
183868,-90.9090909090909,4,2,3,90,0,1
184076,-90.9090909090909,4,2,1,90,0,1
184284,-90.9090909090909,4,2,1,90,0,1
184701,-90.9090909090909,4,2,2,90,0,1
184909,-90.9090909090909,4,2,1,90,0,1
185118,-90.9090909090909,4,2,1,90,0,1
185534,-90.9090909090909,4,2,2,90,0,1
186368,-90.9090909090909,4,2,1,90,0,1
188034,-90.9090909090909,4,2,2,90,0,1
188451,-90.9090909090909,4,2,1,90,0,1
188868,-90.9090909090909,4,2,2,90,0,1
189284,-90.9090909090909,4,2,1,90,0,1
189701,-90.9090909090909,4,2,2,90,0,1
190118,-76.9230769230769,4,2,1,90,0,1
193451,-76.9230769230769,4,2,1,90,0,0

[Colours]
Combo1 : 147,49,51
Combo2 : 214,223,38
Combo3 : 198,63,85
Combo4 : 238,242,164

[HitObjects]
399,306,118,6,0,P|463:332|501:368,2,113.099994822693,2|0|0,2:2|0:0|0:0,0:0:0:0:
292,246,1368,2,0,P|260:257|239:276,1,56.5499974113465
343,183,1784,6,0,P|402:160|471:229,1,169.64999223404,2|0,2:2|0:0,0:0:0:0:
360,294,2618,2,0,P|395:265|422:271,1,56.5499974113465,2|0,2:2|0:0,0:0:0:0:
436,335,3034,2,0,P|477:342|496:360,1,56.5499974113465
495,360,3451,6,0,P|485:291|497:240,2,113.099994822693,2|0|0,2:2|0:0|0:0,0:0:0:0:
365,282,4701,2,0,P|390:304|417:312,1,56.5499974113465
245,221,5118,6,0,P|190:220|146:283,1,113.099994822693,2|0,2:2|0:0,0:0:0:0:
151,259,5743,1,0,0:0:0:0:
6,264,5951,6,0,B|57:246|86:295|81:304|78:313|98:353|152:343,1,169.64999223404,2|0,2:2|0:0,0:0:0:0:
217,384,6784,6,0,P|239:346|322:341,2,113.099994822693,2|0|0,2:2|0:0|0:0,0:0:0:0:
151,259,8034,2,0,P|162:221|180:209,1,56.5499974113465
338,262,8451,6,0,P|287:224|229:238,1,113.099994822693,2|0,2:2|0:0,0:0:0:0:
156,336,9076,1,0,0:0:0:0:
219,371,9284,6,0,B|303:346|303:395|384:378,1,169.64999223404,2|0,2:2|0:0,0:0:0:0:
451,315,10118,6,0,P|463:245|504:194,2,113.099994822693,2|0|0,2:2|0:0|0:0,0:0:0:0:
385,377,11368,2,0,P|382:349|366:307,1,56.5499974113465
184,270,11784,5,2,2:2:0:0:
247,222,11993,2,0,P|295:233|372:246,1,113.099994822693,2|2,2:2|2:2,0:0:0:0:
260,357,12618,2,0,P|250:301|245:278,1,56.5499974113465,2|0,2:2|0:0,0:0:0:0:
248,213,13034,2,0,P|238:157|233:134,1,56.5499974113465,2|0,2:2|0:0,0:0:0:0:
239,55,13451,6,0,B|229:29|224:-4|224:-4|225:31|217:61,1,113.099994822693,2|2,2:2|2:2,0:0:0:0:
165,114,14076,1,2,2:2:0:0:
101,161,14284,2,0,P|73:166|45:171,1,56.5499974113465,2|0,2:2|0:0,0:0:0:0:
99,71,14701,5,2,2:2:0:0:
172,103,14909,1,2,2:2:0:0:
246,137,15118,2,0,B|280:127|280:127|372:115,1,113.099994822693,2|2,2:2|2:2,0:0:0:0:
426,276,15743,5,2,2:2:0:0:
448,202,15951,2,0,B|391:189|391:189|363:238,1,113.099994822693,2|2,2:2|2:2,0:0:0:0:
157,377,16784,6,0,B|133:302|207:298|170:207,1,169.64999223404,2|0,2:2|0:0,0:0:0:0:
239,162,17618,2,0,P|256:191|252:219,1,56.5499974113466
104,251,18034,2,0,P|87:222|91:194,1,56.5499974113466
0,115,18451,6,0,B|40:122|40:122|65:137,1,56.5499974113465,2|0,2:2|0:0,0:0:0:0:
208,34,18868,2,0,B|282:47|282:47|327:75,2,113.099994822693
273,136,19909,1,0,0:0:0:0:
390,46,20118,6,0,B|418:38|418:38|448:2|517:0,1,113.099994822693,2|2,2:2|2:2,0:0:0:0:
393,155,20743,1,2,2:2:0:0:
460,191,20951,2,0,P|471:122|487:63,1,113.099994822693,2|2,2:2|2:2,0:0:0:0:
335,219,21576,1,2,2:2:0:0:
512,233,21784,6,0,B|471:205|435:244|435:244|419:294|356:282,1,169.64999223404,2|0,2:2|0:0,0:0:0:0:
512,383,22618,2,0,P|464:344|407:364,1,113.099994822693
342,377,23243,1,0,0:0:0:0:
455,326,23451,6,0,P|462:275|466:249,1,56.5499974113466,2|0,2:2|0:0,0:0:0:0:
385,250,23868,2,0,B|333:260|333:260|324:268|324:268|277:279,2,113.099994822693
284,167,24909,1,0,0:0:0:0:
175,230,25118,6,0,P|128:226|110:206,1,56.5499974113466,2|0,2:2|0:0,0:0:0:0:
152,153,25534,2,0,P|199:157|217:177,1,56.5499974113466
308,281,25951,6,0,P|355:277|373:257,1,56.5499974113466,2|0,2:2|0:0,0:0:0:0:
331,204,26368,2,0,P|284:208|266:228,1,56.5499974113466
233,337,26784,6,0,P|313:335|338:384,1,121.799996282959,2|2,2:2|2:2,0:0:0:0:
333,363,27409,1,2,2:2:0:0:
418,283,27618,2,0,B|425:251|432:235|432:235|426:211,1,60.8999981414796,2|0,2:2|0:0,0:0:0:0:
472,345,28034,1,2,2:2:0:0:
472,345,28243,1,2,2:2:0:0:
352,243,28451,6,0,P|342:189|322:122,1,121.799996282959,2|2,2:2|2:2,0:0:0:0:
201,43,29284,2,0,B|86:33|86:33|128:50|143:92,1,182.699994424439,2|2,2:2|2:2,0:0:0:0:
199,113,30118,6,0,B|217:139|235:150|235:150|243:182|217:221,1,121.799996282959,2|0,2:2|0:0,0:0:0:0:
123,333,30743,1,0,0:0:0:0:
108,265,30951,2,0,P|148:260|173:283,1,60.8999981414796
272,357,31368,2,0,P|312:362|337:339,1,60.8999981414796
247,284,31784,5,2,2:2:0:0:
247,284,31993,1,0,0:0:0:0:
347,220,32201,2,0,B|354:241|354:241|343:279,1,60.8999981414796
218,172,32618,5,2,2:2:0:0:
294,138,32826,1,0,0:0:0:0:
163,118,33034,1,0,0:0:0:0:
163,118,33243,1,0,0:0:0:0:
282,54,33451,6,0,P|221:44|164:24,1,121.799996282959,2|2,2:2|2:2,0:0:0:0:
10,95,34076,1,2,2:2:0:0:
80,113,34284,2,0,P|83:73|64:43,1,60.8999981414796,2|0,2:2|0:0,0:0:0:0:
29,177,34701,1,2,2:2:0:0:
29,177,34909,1,2,2:2:0:0:
157,111,35118,6,0,B|185:150|185:150|164:186|161:247,1,121.799996282959,2|0,2:2|0:0,0:0:0:0:
260,172,35743,1,0,0:0:0:0:
110,272,35951,6,0,B|149:231|214:241|230:282|230:282|250:304|281:306,1,182.699994424439,2|0,2:2|0:0,0:0:0:0:
343,312,36784,6,0,P|296:316|262:377,2,121.799996282959,2|0|0,2:2|0:0|0:0,0:0:0:0:
459,258,37826,1,0,0:0:0:0:
397,212,38034,2,0,B|387:169|387:169|385:152,1,60.8999981414796
197,103,38451,5,2,2:2:0:0:
306,21,38659,2,0,P|286:56|277:154,1,121.799996282959,2|0,2:2|0:0,0:0:0:0:
302,267,39284,2,0,P|296:206|289:193,1,60.8999981414796
191,196,39701,5,0,0:0:0:0:
313,279,39909,1,0,0:0:0:0:
166,320,40118,6,0,B|71:305|93:388|0:372,1,182.699994424439,2|0,2:2|0:0,0:0:0:0:
0,250,40951,2,0,B|26:253|26:253|36:283|70:314|70:314|97:319,1,121.799996282959,2|2,2:2|2:2,0:0:0:0:
203,384,41576,1,0,0:0:0:0:
249,277,41784,6,0,P|204:265|170:336,2,121.799996282959,2|2|2,2:2|2:2|2:2,0:0:0:0:
428,336,43034,1,2,2:2:0:0:
352,201,43451,5,0,0:0:0:0:
352,201,43659,2,0,B|340:140|327:106|327:106|336:70,1,121.799996282959
363,13,44284,2,0,P|293:11|256:61,1,121.799996282959
178,114,44909,1,0,0:0:0:0:
241,154,45118,6,0,B|189:146|189:146|170:158|170:158|121:151,2,121.799996282959
341,300,46368,2,0,P|375:302|403:286,1,60.8999981414796
278,365,46784,5,0,0:0:0:0:
352,230,46993,2,0,B|304:197|253:226|253:226|241:245,1,121.799996282959
142,322,47618,2,0,P|178:286|177:259,1,60.8999981414796,2|0,2:2|0:0,0:0:0:0:
155,150,48034,2,0,P|168:199|192:211,1,60.8999981414796,2|0,2:2|0:0,0:0:0:0:
312,149,48451,6,0,P|309:90|253:45,2,121.799996282959,2|2|2,2:2|2:2|2:2,0:0:0:0:
228,129,49701,1,2,2:2:0:0:
404,26,50118,5,0,0:0:0:0:
404,26,50326,2,0,B|430:64|430:64|425:99|436:148,1,121.799996282959
494,177,50951,2,0,P|469:205|433:210,1,60.8999981414796
350,308,51368,2,0,P|386:315|409:344,1,60.8999981414796
214,268,51784,5,0,0:0:0:0:
211,257,51993,1,0,0:0:0:0:
300,213,52201,1,0,0:0:0:0:
302,224,52409,1,0,0:0:0:0:
153,199,52618,5,0,0:0:0:0:
150,183,52826,1,0,0:0:0:0:
346,113,53034,1,0,0:0:0:0:
350,129,53243,1,0,0:0:0:0:
159,85,53451,5,6,1:2:0:0:
242,332,53659,2,0,L|268:136,1,191.400005841065,2|2,2:2|2:2,0:0:0:0:
424,64,54284,2,0,P|436:120|447:173,1,95.7000029205323,10|0,2:2|0:0,0:0:0:0:
338,343,54701,1,2,2:2:0:0:
338,343,54909,1,2,2:2:0:0:
403,273,55118,5,2,1:2:0:0:
340,194,55326,2,0,P|273:173|214:164,1,95.7000029205323,2|2,1:2|2:2,0:0:0:0:
83,313,55743,5,0,1:1:0:0:
22,262,55951,2,0,B|56:223|56:223|108:236,1,95.7000029205323,10|0,2:2|0:0,0:0:0:0:
280,260,56368,2,0,B|244:278|244:278|201:282|166:250|185:181,1,143.550004380798,2|0,2:2|0:0,0:0:0:0:
180,203,56784,5,2,1:2:0:0:
15,14,56993,2,0,B|-18:57|17:101,1,95.7000029205323,2|2,2:2|2:2,0:0:0:0:
70,174,57409,5,2,2:2:0:0:
70,174,57513,1,0,0:0:0:0:
70,174,57618,1,10,2:2:0:0:
261,0,57826,1,0,0:0:0:0:
357,59,58034,2,0,B|326:50|326:50|304:76|253:77,1,95.7000029205323,2|2,2:2|2:2,0:0:0:0:
179,150,58451,5,2,1:2:0:0:
232,234,58659,1,2,2:2:0:0:
260,77,58868,5,2,1:2:0:0:
201,316,59076,1,8,2:2:0:0:
393,221,59284,5,2,2:2:0:0:
426,324,59493,1,8,2:2:0:0:
393,221,59701,6,0,P|411:205|433:197,1,47.8500014602662,10|0,1:2|0:0,0:0:0:0:
484,263,59909,1,0,1:1:0:0:
201,316,60118,6,0,B|153:329|153:329|117:364|117:364|40:383,1,143.550004380798,6|0,1:2|0:0,0:0:0:0:
63,378,60534,1,0,0:0:0:0:
238,241,60743,1,2,2:2:0:0:
186,180,60951,2,0,P|138:174|95:155,1,95.7000029205323,10|0,2:2|0:0,0:0:0:0:
294,60,61368,1,2,2:2:0:0:
294,60,61576,1,2,2:2:0:0:
175,95,61784,5,2,1:2:0:0:
373,139,61993,2,0,P|325:144|282:163,1,95.7000029205323,2|2,1:2|2:2,0:0:0:0:
111,344,62409,5,0,1:1:0:0:
191,265,62618,2,0,B|185:305|185:305|191:328|191:328|185:359,1,95.7000029205323,10|0,2:2|0:0,0:0:0:0:
403,216,63034,2,0,B|472:194|472:194|514:215|494:259,1,143.550004380798,2|0,2:2|0:0,0:0:0:0:
490,262,63451,5,2,1:2:0:0:
291,384,63659,2,0,P|276:330|291:293,1,95.7000029205323,2|2,2:2|2:2,0:0:0:0:
377,302,64076,5,2,2:2:0:0:
377,302,64180,1,0,0:0:0:0:
377,302,64284,1,10,2:2:0:0:
160,245,64493,1,0,0:0:0:0:
117,382,64701,2,0,B|86:340|86:340|107:289,1,95.7000029205323,2|2,2:2|2:2,0:0:0:0:
178,326,65118,5,2,1:2:0:0:
222,82,65326,1,10,2:2:0:0:
222,82,65430,1,8,2:2:0:0:
222,82,65534,2,0,P|238:140|241:199,1,95.7000029205323,10|8,2:2|2:3,0:0:0:0:
35,295,65951,5,6,2:3:0:0:
274,372,66159,1,4,2:3:0:0:
323,214,66368,1,10,2:2:0:0:
94,140,66576,1,0,1:1:0:0:
124,332,66784,6,0,B|170:329|201:291|201:291|253:300,1,139.2,6|2,1:2|2:2,0:0:0:0:
133,248,67409,1,2,2:2:0:0:
260,310,67618,6,0,B|313:300|313:300|330:286,1,69.6,10|0,2:2|0:0,0:0:0:0:
430,224,68034,1,2,2:2:0:0:
430,224,68243,1,10,2:2:0:0:
400,304,68451,5,2,1:2:0:0:
430,142,68659,2,0,P|474:151|492:180,1,69.6,0|2,1:1|2:2,0:0:0:0:
356,184,69076,1,2,1:2:0:0:
274,64,69284,6,0,P|320:11|386:21,1,139.2,10|2,2:2|2:2,0:0:0:0:
271,145,69909,1,0,0:0:0:0:
271,145,70013,1,0,0:0:0:0:
271,145,70118,2,0,P|226:135|207:106,1,69.6,2|0,1:2|0:0,0:0:0:0:
342,113,70534,2,0,P|355:156|340:187,1,69.6,2|0,2:2|0:0,0:0:0:0:
228,265,70951,5,10,2:2:0:0:
253,347,71159,1,0,0:0:0:0:
335,322,71368,1,0,0:0:0:0:
389,260,71576,5,10,2:2:0:0:
376,241,71784,1,2,1:2:0:0:
358,253,71993,1,0,1:1:0:0:
284,213,72201,6,0,P|276:177|270:138,1,69.6,2|0,2:2|1:1,0:0:0:0:
141,142,72618,2,0,P|158:88|167:37,1,104.4,10|0,2:2|0:0,0:0:0:0:
166,31,73034,2,0,B|137:9|137:9|105:22,1,69.6,2|0,2:2|0:0,0:0:0:0:
0,93,73451,6,0,P|45:84|71:83,1,69.6,2|2,1:2|2:2,0:0:0:0:
54,219,73868,1,2,2:2:0:0:
54,219,74076,1,2,2:2:0:0:
121,256,74284,6,0,P|166:247|192:246,1,69.6,10|0,2:2|0:0,0:0:0:0:
318,155,74701,1,2,2:2:0:0:
351,223,74909,1,10,2:2:0:0:
251,197,75118,5,2,1:2:0:0:
350,67,75326,2,0,B|399:55|399:55|422:62,1,69.6,0|2,1:1|2:2,0:0:0:0:
472,18,75743,1,0,1:1:0:0:
340,77,75951,6,0,P|306:68|266:61,1,69.6,10|0,2:2|0:0,0:0:0:0:
171,156,76368,2,0,P|136:162|103:171,1,69.6,10|0,2:2|0:0,0:0:0:0:
136,87,76784,5,2,1:2:0:0:
228,212,76993,2,0,B|260:230|260:230|329:221|348:164,1,139.2
464,186,77618,6,0,P|431:153|404:158,1,69.6,10|0,2:2|0:0,0:0:0:0:
409,296,78034,1,0,0:0:0:0:
477,269,78243,1,10,2:2:0:0:
398,287,78451,5,2,1:2:0:0:
227,342,78659,1,2,1:2:0:0:
305,338,78868,1,2,1:2:0:0:
134,283,79076,1,2,1:2:0:0:
363,182,79284,6,0,L|375:214,1,34.8,2|0,1:2|0:0,0:0:0:0:
246,188,79493,1,2,2:2:0:0:
262,178,79597,1,8,2:2:0:0:
276,170,79701,5,10,2:2:0:0:
283,136,79805,1,8,2:2:0:0:
292,102,79909,1,8,2:2:0:0:
301,69,80013,1,8,2:2:0:0:
311,36,80118,6,0,P|376:8|405:29,1,104.4,6|0,1:2|0:0,0:0:0:0:
404,34,80534,1,2,2:2:0:0:
226,74,80743,1,2,2:2:0:0:
406,23,80951,6,0,P|440:28|473:38,1,69.6,10|0,2:2|0:0,0:0:0:0:
448,172,81368,1,2,2:2:0:0:
366,145,81576,1,10,2:2:0:0:
501,116,81784,5,2,1:2:0:0:
318,230,81993,2,0,P|361:219|389:217,1,69.6,2|2,1:2|2:2,0:0:0:0:
261,175,82409,1,0,1:1:0:0:
367,296,82618,6,0,P|408:309|434:327,1,69.6,10|0,2:2|0:0,0:0:0:0:
195,322,83034,2,0,P|224:303|257:294,1,69.6,10|0,2:2|0:0,0:0:0:0:
115,383,83451,5,2,1:2:0:0:
159,248,83659,2,0,P|136:200|46:205,1,139.2
82,270,84284,5,10,2:2:0:0:
140,169,84493,1,0,0:0:0:0:
39,111,84701,1,0,0:0:0:0:
150,29,84909,5,10,2:2:0:0:
133,5,85118,1,2,1:2:0:0:
109,21,85326,1,0,1:1:0:0:
228,75,85534,6,0,B|276:59|276:59|295:63,1,69.6,2|0,2:2|1:1,0:0:0:0:
386,36,85951,5,10,2:2:0:0:
274,140,86159,1,8,2:3:0:0:
394,29,86368,2,0,B|413:25|413:25|461:41,1,69.6,10|0,2:2|0:0,0:0:0:0:
512,134,86784,6,0,B|472:142|472:142|373:109,1,139.2,2|2,1:2|2:2,0:0:0:0:
317,250,87409,1,2,2:2:0:0:
387,273,87618,2,0,P|393:226|372:200,1,69.6,10|0,2:2|0:0,0:0:0:0:
282,155,88034,1,2,2:2:0:0:
282,155,88243,1,10,2:2:0:0:
230,220,88451,5,2,1:2:0:0:
299,75,88659,2,0,P|291:33|282:-7,1,69.6,0|2,1:1|2:2,0:0:0:0:
357,131,89076,1,0,1:1:0:0:
198,151,89284,6,0,B|146:127|146:127|116:127,1,69.6,10|0,2:2|0:0,0:0:0:0:
334,229,89701,2,0,B|386:205|386:205|416:205,1,69.6,10|0,2:2|0:0,0:0:0:0:
282,155,90118,5,2,1:2:0:0:
388,289,90326,2,0,P|470:310|513:344,1,139.2,0|2,0:0|2:2,0:0:0:0:
512,186,90951,6,0,P|461:206|430:235,1,78.2999976104737,10|2,2:2|2:2,0:0:0:0:
314,49,91368,6,0,P|365:69|396:98,1,87,2|0,1:2|0:0,0:0:0:0:
250,271,91784,5,10,2:2:0:0:
214,294,91888,1,8,2:2:0:0:
173,285,91992,1,10,2:2:0:0:
151,249,92096,1,8,2:2:0:0:
154,234,92201,5,8,2:2:0:0:
125,187,92305,1,8,2:3:0:0:
74,176,92409,1,4,2:3:0:0:
30,206,92513,1,0,1:1:0:0:
23,222,92618,6,0,B|35:250|35:250|38:228,1,43.5,8|0,2:2|0:0,0:0:0:0:
0,139,93451,5,6,1:2:0:0:
247,14,93659,2,0,L|433:58,1,191.400005841065,2|2,2:2|2:2,0:0:0:0:
194,232,94284,6,0,P|150:243|92:261,1,95.7000029205323,10|0,2:2|0:0,0:0:0:0:
363,182,94701,2,0,B|436:170|440:301|413:231|406:266|407:292,1,143.550004380798,2|0,2:2|0:0,0:0:0:0:
408,285,95118,5,2,1:2:0:0:
242,164,95326,2,0,B|238:144|238:144|255:92|312:93,1,95.7000029205323,0|2,1:1|2:2,0:0:0:0:
342,363,95743,1,0,1:1:0:0:
284,298,95951,6,0,P|194:322|177:362,1,143.550004380798,10|0,2:2|0:0,0:0:0:0:
89,257,96368,2,0,B|60:231|108:173|176:192|168:236,1,143.550004380798,2|0,2:2|0:0,0:0:0:0:
169,246,96784,5,2,1:2:0:0:
58,329,96993,2,0,P|9:294|9:245,1,95.7000029205323,2|2,2:2|2:2,0:0:0:0:
111,26,97409,1,2,2:2:0:0:
19,0,97618,6,0,B|-4:57|45:86|52:82|59:80|110:111|84:170,1,191.400005841065,10|2,2:2|2:2,0:0:0:0:
388,234,98243,1,2,2:2:0:0:
335,154,98451,5,2,1:2:0:0:
335,154,98659,1,2,2:2:0:0:
436,313,98868,5,10,2:3:0:0:
506,137,99076,1,8,2:2:0:0:
232,287,99284,5,6,2:3:0:0:
267,360,99492,1,8,2:2:0:0:
407,154,99701,5,14,2:2:0:0:
388,234,99909,1,0,1:1:0:0:
346,43,100118,5,6,1:2:0:0:
499,278,100326,2,0,B|437:295|437:295|406:354|406:354|342:374,1,191.400005841065,2|2,2:2|2:2,0:0:0:0:
263,354,100951,6,0,B|268:349|271:340|271:340|266:327|266:327|268:318|272:314|272:314|302:306|302:306|293:312|291:322,1,95.7000029205323,10|0,2:2|0:0,0:0:0:0:
164,384,101368,1,2,2:2:0:0:
367,259,101576,5,0,0:0:0:0:
367,259,101680,1,0,0:0:0:0:
367,259,101784,1,2,1:2:0:0:
105,218,101993,2,0,B|81:206|81:206|44:198|3:232,1,95.7000029205323,0|2,1:1|2:2,0:0:0:0:
77,308,102409,1,0,1:1:0:0:
197,120,102618,6,0,P|202:63|284:32,1,143.550004380798,10|0,2:2|0:0,0:0:0:0:
349,84,103034,2,0,B|385:75|394:36|394:36|340:35|335:86,1,143.550004380798,2|0,2:2|0:0,0:0:0:0:
315,152,103451,6,0,B|360:221|430:174|430:174|401:177|378:152,1,191.400005841065,2|2,1:2|2:2,0:0:0:0:
299,269,104076,1,0,0:0:0:0:
299,269,104180,1,0,0:0:0:0:
299,269,104284,6,0,P|281:339|278:376,1,95.7000029205323,10|0,2:2|0:0,0:0:0:0:
278,362,104701,2,0,P|271:268|218:228,1,143.550004380798,2|0,2:2|0:0,0:0:0:0:
200,164,105118,6,0,B|142:145|113:186|118:194|123:204|85:255|33:229,1,197.924990939713,2|0,2:2|0:0,0:0:0:0:
0,133,105951,6,0,P|114:179|312:228,1,313.199990441895,4|0,1:2|0:0,0:0:0:0:
309,228,106784,5,6,1:2:0:0:
43,288,106993,2,0,P|154:254|239:236,1,191.400005841065,2|2,2:2|2:2,0:0:0:0:
503,340,107618,6,0,B|512:312|512:312|492:283|492:242,1,95.7000029205323,10|0,2:2|0:0,0:0:0:0:
415,68,108034,1,2,2:2:0:0:
309,228,108243,5,0,0:0:0:0:
317,235,108347,1,0,0:0:0:0:
317,235,108451,1,2,1:2:0:0:
398,262,108659,1,0,1:1:0:0:
281,76,108868,5,2,1:2:0:0:
281,76,109076,1,0,1:1:0:0:
132,133,109284,6,0,B|202:112|202:112|247:130|231:184,1,143.550004380798,10|0,2:2|0:0,0:0:0:0:
224,189,109701,2,0,B|192:104|192:104|201:70|196:43,1,143.550004380798,2|0,2:2|0:0,0:0:0:0:
124,58,110118,5,2,1:2:0:0:
26,233,110326,2,0,P|139:278|217:324,1,191.400005841065,2|2,2:2|2:2,0:0:0:0:
317,168,110951,6,0,B|329:212|329:212|294:253,1,95.7000029205323,10|0,2:2|0:0,0:0:0:0:
121,364,111368,1,2,2:2:0:0:
47,332,111576,1,2,2:2:0:0:
171,174,111784,5,2,1:2:0:0:
171,174,111993,1,2,2:2:0:0:
51,211,112201,5,10,2:3:0:0:
84,135,112409,1,8,2:2:0:0:
324,283,112618,5,2,2:2:0:0:
287,14,112826,1,4,2:3:0:0:
257,216,113034,6,0,L|271:166,1,47.8500014602662,10|0,2:2|0:0,0:0:0:0:
336,110,113243,1,0,1:1:0:0:
132,0,113451,5,6,1:2:0:0:
211,116,113659,2,0,B|190:88|198:49|198:49|211:26,1,95.7000029205323,2|0,2:2|0:0,0:0:0:0:
51,167,114076,1,2,2:2:0:0:
118,108,114284,6,0,B|148:171|112:223|112:223|101:267|134:302,1,191.400005841065,10|2,2:2|2:2,0:0:0:0:
292,335,114909,1,0,0:0:0:0:
210,383,115118,5,2,1:2:0:0:
233,259,115326,2,0,P|247:214|227:172,1,95.7000029205323,0|2,1:1|2:2,0:0:0:0:
16,368,115743,1,0,1:1:0:0:
169,310,115951,6,0,B|235:288|285:275|285:275|321:280,1,143.550004380798,10|0,2:2|0:0,0:0:0:0:
394,311,116368,2,0,B|341:264|305:228|305:228|292:194,1,143.550004380798,2|0,2:2|0:0,0:0:0:0:
313,127,116784,6,0,P|330:58|334:12,1,113.099994822693,6|2,1:2|2:2,0:0:0:0:
112,197,117201,2,0,P|105:140|90:86,1,113.099994822693,2|2,1:2|2:2,0:0:0:0:
323,321,117618,2,0,P|329:264|344:210,1,113.099994822693,14|0,1:2|0:0,0:0:0:0:
242,384,118034,2,0,P|235:327|220:273,1,113.099994822693,2|2,1:2|2:2,0:0:0:0:
254,16,118451,5,2,1:2:0:0:
512,80,118659,1,10,2:2:0:0:
512,80,118763,1,8,2:2:0:0:
512,80,118868,2,0,B|482:102|482:102|445:104|405:82,1,113.099994822693,2|0,1:2|1:1,0:0:0:0:
54,199,119284,6,0,P|54:164|81:138,1,56.5499974113466,10|0,2:2|0:0,0:0:0:0:
124,104,119493,1,0,1:1:0:0:
251,343,119701,6,0,P|220:360|184:350,1,56.5499974113466,10|0,2:2|0:0,0:0:0:0:
136,321,119910,1,0,1:1:0:0:
319,298,120118,5,6,1:2:0:0:
385,343,120326,1,0,1:1:0:0:
463,323,120534,1,0,1:1:0:0:
501,251,120743,1,0,1:1:0:0:
471,176,120951,6,0,B|426:168|426:168|361:216|361:216|318:207,1,156.599995220947,8|0,2:2|0:0,0:0:0:0:
331,209,121576,1,8,2:2:0:0:
194,8,121784,5,2,1:2:0:0:
123,9,121992,1,0,1:1:0:0:
79,64,122200,1,0,1:1:0:0:
88,135,122409,1,0,1:1:0:0:
147,172,122618,5,10,2:2:0:0:
209,126,122826,1,8,2:2:0:0:
209,126,122930,1,8,2:2:0:0:
209,126,123034,2,0,L|197:68,3,39.1499988052369,10|8|4|0,2:2|2:3|2:3|1:1,0:0:0:0:
251,16,123451,5,6,1:2:0:0:
320,63,123659,1,0,1:1:0:0:
366,131,123867,1,0,1:1:0:0:
384,211,124076,1,0,1:1:0:0:
371,293,124284,6,0,B|274:265|306:351|194:326,1,156.599995220947,8|0,2:2|0:0,0:0:0:0:
226,330,124909,1,8,2:2:0:0:
53,384,125118,5,0,1:1:0:0:
70,286,125326,1,0,1:1:0:0:
91,190,125534,1,0,1:1:0:0:
110,94,125743,1,0,1:1:0:0:
129,1,125951,5,10,2:2:0:0:
283,114,126159,1,0,1:1:0:0:
210,162,126368,2,0,P|206:111|194:69,1,78.2999976104737,10|0,2:2|0:0,0:0:0:0:
361,62,126784,6,0,P|363:101|371:139,1,78.2999976104737,6|0,1:2|0:0,0:0:0:0:
492,301,127201,1,0,1:1:0:0:
421,335,127409,1,0,1:1:0:0:
383,267,127618,2,0,P|336:246|259:315,1,156.599995220947,8|0,2:2|0:0,0:0:0:0:
260,304,128243,1,8,2:2:0:0:
68,99,128451,5,2,1:2:0:0:
32,175,128659,1,0,1:1:0:0:
70,250,128867,1,0,1:1:0:0:
151,277,129076,1,0,1:1:0:0:
221,231,129285,5,10,2:2:0:0:
87,340,129493,1,0,1:1:0:0:
157,163,129701,2,0,B|158:133|173:110|173:110|189:94,1,78.2999976104737,10|0,2:2|0:0,0:0:0:0:
473,113,130118,5,2,1:2:0:0:
366,134,130326,1,0,0:0:0:0:
259,156,130535,1,0,1:1:0:0:
151,179,130743,1,0,0:0:0:0:
42,200,130951,6,0,B|25:248|74:283|74:283|109:288|132:325,1,156.599995220947,8|0,2:2|0:0,0:0:0:0:
216,360,131576,2,0,P|188:365|172:376,1,39.1499988052369,8|0,2:2|0:0,0:0:0:0:
273,254,131784,5,0,0:0:0:0:
273,254,131888,1,4,2:3:0:0:
273,254,131993,1,4,2:3:0:0:
226,363,132201,1,8,2:2:0:0:
56,163,132409,5,0,0:0:0:0:
56,163,132513,1,8,2:2:0:0:
56,163,132618,2,0,P|104:171|137:187,1,78.2999976104737,8|0,2:2|1:1,0:0:0:0:
271,128,133034,1,0,1:1:0:0:
271,128,133243,1,0,1:1:0:0:
93,245,133451,6,0,P|186:209|235:206,1,139.2,4|2,1:2|2:2,0:0:0:0:
361,287,134076,1,2,2:2:0:0:
290,323,134284,6,0,P|281:283|293:244,1,69.6,10|0,2:2|0:0,0:0:0:0:
368,146,134701,1,2,2:2:0:0:
443,166,134909,1,2,2:2:0:0:
366,157,135118,5,2,1:2:0:0:
492,79,135326,2,0,B|479:78|479:78|445:89|419:93,1,69.6,0|2,1:1|2:2,0:0:0:0:
289,15,135743,5,2,1:2:0:0:
289,15,135847,1,0,0:0:0:0:
289,15,135951,2,0,B|268:11|234:0|234:0|221:1,1,69.6,10|0,2:2|0:0,0:0:0:0:
98,167,136368,2,0,B|118:163|152:152|152:152|165:153,1,69.6,10|0,2:2|0:0,0:0:0:0:
242,117,136784,5,2,1:2:0:0:
278,194,136993,1,0,0:0:0:0:
201,230,137201,1,2,2:2:0:0:
201,230,137409,1,0,0:0:0:0:
331,359,137618,5,10,2:2:0:0:
344,288,137827,1,0,0:0:0:0:
273,273,138035,1,2,2:2:0:0:
260,344,138243,1,0,0:0:0:0:
410,335,138451,5,2,1:2:0:0:
410,335,138659,1,0,1:1:0:0:
333,210,138868,2,0,P|317:171|311:141,1,69.6,2|0,2:2|1:1,0:0:0:0:
234,204,139284,5,10,2:2:0:0:
234,204,139492,1,0,0:0:0:0:
394,147,139701,2,0,P|410:108|416:78,1,69.6,2|0,2:2|0:0,0:0:0:0:
292,28,140118,6,0,B|249:37|249:37|232:46|232:46|188:57,1,104.4,2|0,1:2|0:0,0:0:0:0:
182,60,140534,1,2,2:2:0:0:
247,88,140743,1,2,2:2:0:0:
65,183,140951,6,0,P|128:132|193:149,1,139.2,10|2,2:2|2:2,0:0:0:0:
93,120,141576,1,2,2:2:0:0:
186,150,141784,5,2,1:2:0:0:
121,283,141993,2,0,B|120:262|120:262|136:216,1,69.6,0|2,1:1|2:2,0:0:0:0:
209,280,142409,1,0,1:1:0:0:
64,379,142618,6,0,B|32:288|32:288|33:245,1,139.2,10|2,2:2|2:2,0:0:0:0:
17,327,143243,1,0,0:0:0:0:
41,234,143451,6,0,P|30:197|20:157,1,69.6,2|0,1:2|0:0,0:0:0:0:
162,82,143868,2,0,P|170:115|180:149,1,69.6,2|0,2:2|0:0,0:0:0:0:
103,160,144284,5,10,2:2:0:0:
103,160,144493,1,0,0:0:0:0:
9,125,144701,5,2,2:2:0:0:
197,191,144909,1,0,0:0:0:0:
172,373,145118,5,2,1:2:0:0:
44,338,145326,1,10,2:2:0:0:
133,241,145534,1,2,1:2:0:0:
314,316,145743,5,2,1:2:0:0:
305,241,145951,1,10,2:2:0:0:
243,282,146159,1,2,1:2:0:0:
322,130,146368,5,2,1:2:0:0:
109,54,146576,1,10,2:2:0:0:
196,36,146784,6,0,B|189:65|189:65|190:72|190:72|182:107,1,69.6,6|0,1:2|0:0,0:0:0:0:
103,227,147201,1,2,2:2:0:0:
67,159,147409,1,2,2:2:0:0:
187,238,147618,6,0,P|112:262|82:322,1,139.2,10|2,2:2|2:2,0:0:0:0:
225,353,148243,1,2,2:2:0:0:
149,380,148451,5,2,1:2:0:0:
274,213,148659,2,0,P|262:257|255:299,1,69.6,2|2,1:2|2:2,0:0:0:0:
318,326,149076,1,0,1:1:0:0:
147,192,149284,6,0,P|156:225|168:305,1,113.099994822693,10|2,2:2|2:2,0:0:0:0:
168,302,149909,1,2,2:2:0:0:
36,281,150118,6,0,P|47:219|66:202,1,69.6,2|0,1:2|0:0,0:0:0:0:
166,120,150534,1,2,2:2:0:0:
166,120,150743,1,0,0:0:0:0:
0,120,150951,6,0,P|56:107|101:165,1,139.2,10|2,2:2|2:2,0:0:0:0:
107,266,151576,1,2,2:2:0:0:
259,231,151784,5,2,1:2:0:0:
178,204,151993,1,0,1:1:0:0:
340,255,152201,2,0,P|384:269|415:282,1,69.6,2|0,2:2|1:1,0:0:0:0:
252,325,152618,5,10,2:2:0:0:
416,282,152826,1,8,2:2:0:0:
376,124,153034,2,0,B|345:124|345:124|300:146,1,69.6,2|0,2:2|0:0,0:0:0:0:
304,144,153451,6,0,B|380:124|369:183|453:167,1,139.2,2|2,1:2|1:2,0:0:0:0:
497,40,154076,1,2,2:2:0:0:
412,0,154284,2,0,B|421:14|421:14|414:42|426:79,1,69.6,14|0,2:2|0:0,0:0:0:0:
512,140,154701,1,2,2:2:0:0:
512,140,154909,1,2,2:2:0:0:
373,163,155118,5,2,1:2:0:0:
410,291,155326,2,0,B|416:258|416:258|420:251|420:251|426:216,1,69.6,0|2,1:1|2:2,0:0:0:0:
278,307,155743,1,0,1:1:0:0:
328,373,155951,6,0,B|316:307|316:307|308:293|308:293|296:223,1,139.2,10|2,2:2|2:2,0:0:0:0:
201,124,156576,1,0,0:0:0:0:
125,151,156784,6,0,P|118:117|131:85,1,69.6,2|0,1:2|0:0,0:0:0:0:
278,104,157201,2,0,P|284:137|271:169,1,69.6,2|0,1:2|0:0,0:0:0:0:
110,236,157618,6,0,P|77:224|56:197,1,69.6,10|2,2:2|2:2,0:0:0:0:
294,27,158034,2,0,P|326:38|347:65,1,69.6,10|0,2:2|0:0,0:0:0:0:
201,124,158451,5,2,2:2:0:0:
205,128,158659,1,0,1:1:0:0:
99,68,158868,5,10,2:2:0:0:
320,163,159076,1,0,1:1:0:0:
137,321,159284,5,10,2:3:0:0:
225,281,159493,1,4,2:3:0:0:
112,231,159701,6,0,P|144:234|175:249,1,43.5,10|0,2:2|0:0,0:0:0:0:
287,326,159909,2,0,P|300:355|302:389,1,43.5,10|0,2:2|0:0,0:0:0:0:
229,358,165951,6,0,L|279:26,1,334.950010221863,6|0,1:2|0:0,0:0:0:0:
283,17,166784,5,6,1:2:0:0:
237,114,166993,2,0,L|280:318,1,191.400005841065,2|2,2:2|2:2,0:0:0:0:
491,343,167618,6,0,B|471:331|471:331|436:360|398:360,1,95.7000029205323,10|0,2:2|0:0,0:0:0:0:
158,321,168034,1,2,2:2:0:0:
392,279,168243,5,0,0:0:0:0:
392,279,168347,1,0,0:0:0:0:
392,279,168451,1,2,1:2:0:0:
317,63,168659,2,0,B|316:89|316:89|297:165,1,95.7000029205323,0|2,1:1|2:2,0:0:0:0:
241,368,169076,1,0,1:1:0:0:
183,132,169284,6,0,B|143:145|143:145|91:106|39:142,1,143.550004380798,10|0,2:2|0:0,0:0:0:0:
0,218,169701,2,0,P|85:188|95:126,1,143.550004380798,2|0,2:2|0:0,0:0:0:0:
68,76,170118,5,2,1:2:0:0:
270,286,170326,2,0,P|185:244|93:219,1,191.400005841065,2|2,2:2|2:2,0:0:0:0:
11,384,170951,6,0,P|78:351|117:349,1,95.7000029205323,10|0,2:2|0:0,0:0:0:0:
315,219,171368,1,2,2:2:0:0:
315,219,171576,1,2,2:2:0:0:
244,160,171784,5,2,1:2:0:0:
176,370,171993,1,2,2:2:0:0:
432,169,172201,5,10,2:3:0:0:
469,245,172409,1,8,2:2:0:0:
318,11,172618,6,0,P|305:31|298:64,1,47.8500014602662,6|0,2:3|0:0,0:0:0:0:
299,70,172826,1,8,2:2:0:0:
132,177,173034,5,14,2:2:0:0:
136,181,173243,1,0,1:1:0:0:
145,360,173451,5,6,1:2:0:0:
37,136,173659,2,0,B|115:148|192:155|192:155|235:179,1,191.400005841065,2|2,2:2|2:2,0:0:0:0:
364,277,174284,6,0,P|319:290|294:330,1,95.7000029205323,10|0,2:2|0:0,0:0:0:0:
332,197,174701,1,2,2:2:0:0:
375,284,174909,5,0,0:0:0:0:
382,292,175013,1,0,0:0:0:0:
382,292,175118,1,2,1:2:0:0:
296,117,175326,2,0,B|307:75|302:46|302:46|318:20,1,95.7000029205323,0|2,1:1|2:2,0:0:0:0:
382,76,175743,1,0,1:1:0:0:
263,242,175951,6,0,P|204:258|126:334,1,143.550004380798,10|0,2:2|0:0,0:0:0:0:
40,318,176368,2,0,B|66:320|94:307|94:307|138:335|157:405,1,143.550004380798,2|0,2:2|0:0,0:0:0:0:
147,375,176784,5,2,1:2:0:0:
59,194,176993,2,0,B|82:119|100:105|100:105|116:64|112:4,1,191.400005841065,2|0,2:2|0:0,0:0:0:0:
194,95,177618,6,0,P|132:134|107:122,1,95.7000029205323,10|0,2:2|0:0,0:0:0:0:
344,43,178034,2,0,P|403:49|421:70,1,71.7750021903992,2|0,2:2|0:0,0:0:0:0:
490,66,178451,5,10,2:2:0:0:
449,132,178555,1,10,2:2:0:0:
445,204,178659,2,0,P|438:247|435:280,1,71.7750021903992,2|0,1:2|0:0,0:0:0:0:
314,384,179076,5,8,2:2:0:0:
286,312,179180,1,8,2:2:0:0:
310,239,179284,1,6,1:2:0:0:
72,281,179493,1,6,1:2:0:0:
30,43,179701,1,6,1:2:0:0:
268,1,179909,1,6,1:2:0:0:
109,103,180118,5,6,1:2:0:0:
175,0,180326,2,0,B|160:35|160:34|225:57|218:147|154:197,1,191.400005841065,2|2,2:2|2:2,0:0:0:0:
163,252,180951,6,0,P|140:194|98:181,1,95.7000029205323,14|0,2:2|0:0,0:0:0:0:
33,374,181368,1,2,2:2:0:0:
116,349,181576,5,0,0:0:0:0:
116,349,181680,1,0,0:0:0:0:
116,349,181784,1,6,1:2:0:0:
21,103,181993,2,0,B|11:123|11:123|8:165|-4:208,1,95.7000029205323,0|2,1:1|2:2,0:0:0:0:
220,374,182409,1,0,1:1:0:0:
338,274,182618,6,0,B|321:265|321:265|268:266|245:316,1,95.7000029205323,14|0,2:2|0:0,0:0:0:0:
488,82,183034,2,0,B|487:58|487:58|453:1|385:8,1,143.550004380798,2|0,2:2|0:0,0:0:0:0:
372,16,183451,5,6,1:2:0:0:
509,220,183659,2,0,P|426:216|325:294,1,191.400005841065,2|2,2:2|2:2,0:0:0:0:
108,140,184284,6,0,B|97:95|97:95|99:79|99:79|88:31,1,95.7000029205323,14|0,2:2|0:0,0:0:0:0:
183,185,184701,2,0,B|165:204|139:220|139:220|118:341,1,143.550004380798,2|0,2:2|0:0,0:0:0:0:
108,381,185118,5,4,1:2:0:0:
108,381,185326,1,2,2:2:0:0:
339,284,185534,5,2,2:2:0:0:
322,359,185743,1,8,2:2:0:0:
103,262,185951,1,2,2:2:0:0:
103,262,186055,1,8,2:2:0:0:
103,262,186159,1,8,2:2:0:0:
318,138,186368,5,10,2:3:0:0:
178,94,186576,1,4,2:3:0:0:
379,26,186784,5,6,1:2:0:0:
85,183,186993,2,0,B|137:174|137:174|209:226|209:226|274:213,1,191.400005841065,2|2,2:2|2:2,0:0:0:0:
128,361,187618,6,0,B|87:349|87:349|55:359|28:348,1,95.7000029205323,14|0,2:2|0:0,0:0:0:0:
57,279,188034,1,2,2:2:0:0:
246,371,188243,5,0,0:0:0:0:
246,371,188347,1,0,0:0:0:0:
246,371,188451,1,6,1:2:0:0:
0,213,188659,2,0,P|50:200|96:174,1,95.7000029205323,0|2,1:1|2:2,0:0:0:0:
293,9,189076,1,0,1:1:0:0:
13,25,189284,6,0,P|86:75|174:78,1,143.550004380798,14|0,2:2|0:0,0:0:0:0:
221,110,189701,2,0,B|191:148|191:148|217:187|200:263,1,143.550004380798,2|0,2:2|0:0,0:0:0:0:
199,252,190118,6,0,B|130:227|80:263|80:263|65:310,1,169.64999223404,6|0,1:2|0:0,0:0:0:0:
30,364,190534,2,0,P|34:307|2:248,1,113.099994822693,4|2,1:2|2:2,0:0:0:0:
216,109,190951,6,0,B|248:76|297:102|297:102|323:148|382:132,1,169.64999223404,14|0,1:2|0:0,0:0:0:0:
429,174,191368,2,0,P|358:183|341:222,1,113.099994822693,6|2,1:2|2:2,0:0:0:0:
46,80,191784,5,4,1:2:0:0:
18,176,191993,1,10,2:2:0:0:
184,212,192201,5,6,1:2:0:0:
146,53,192409,1,8,2:2:0:0:
344,36,192618,5,6,1:2:0:0:
308,250,192826,1,0,1:1:0:0:
472,303,193034,6,0,P|498:294|508:269,1,56.5499974113466,14|0,2:2|0:0,0:0:0:0:
462,0,193243,1,0,1:1:0:0:
217,139,193451,5,6,1:2:0:0:
