osu file format v14

[General]
AudioFilename: audio.mp3
AudioLeadIn: 0
PreviewTime: 160847
Countdown: 0
SampleSet: Soft
StackLeniency: 0.7
Mode: 0
LetterboxInBreaks: 0
WidescreenStoryboard: 1

[Editor]
Bookmarks: 40118,53451,66784,93451,96368,120118,133451,160951,166784,193451
DistanceSpacing: 1.3
BeatDivisor: 4
GridSize: 32
TimelineZoom: 1.2

[Metadata]
Title:All I Wanted
TitleUnicode:All I Wanted
Artist:Paramore
ArtistUnicode:Paramore
Creator:derov
Version:Amats' Normal
Source:
Tags:english pop rock hayley williams brand new eyes blqodttypes amats am4ts darkebluu itscactus
BeatmapID:4226903
BeatmapSetID:2024419

[Difficulty]
HPDrainRate:3
CircleSize:3.2
OverallDifficulty:4
ApproachRate:5
SliderMultiplier:1.3
SliderTickRate:1

[Events]
//Background and Video events
0,0,"you.jpg",0,0
//Break Periods
2,160951,164751
//Storyboard Layer 0 (Background)
//Storyboard Layer 1 (Fail)
//Storyboard Layer 2 (Pass)
//Storyboard Layer 3 (Foreground)
//Storyboard Layer 4 (Overlay)
//Storyboard Sound Samples

[TimingPoints]
118,416.666666666667,4,2,1,60,1,0
118,-125,4,2,1,60,0,0
40118,-125,4,2,1,70,0,0
53451,-100,4,2,2,90,0,0
53659,-100,4,2,1,90,0,0
53868,-100,4,2,3,90,0,0
54076,-100,4,2,1,90,0,0
54284,-100,4,2,2,90,0,0
54909,-100,4,2,1,90,0,0
55118,-100,4,2,3,90,0,0
55326,-100,4,2,1,90,0,0
55534,-100,4,2,2,90,0,0
56993,-100,4,2,1,90,0,0
57201,-100,4,2,3,90,0,0
57409,-100,4,2,1,90,0,0
57618,-100,4,2,2,90,0,0
58243,-100,4,2,1,90,0,0
58451,-100,4,2,3,90,0,0
58659,-100,4,2,1,90,0,0
58868,-100,4,2,2,90,0,0
59701,-100,4,2,1,90,0,0
60118,-100,4,2,2,90,0,0
60326,-100,4,2,1,90,0,0
60951,-100,4,2,2,90,0,0
61576,-100,4,2,1,90,0,0
61784,-100,4,2,3,90,0,0
61993,-100,4,2,1,90,0,0
62201,-100,4,2,2,90,0,0
63659,-100,4,2,1,90,0,0
63868,-100,4,2,3,90,0,0
64076,-100,4,2,1,90,0,0
64284,-100,4,2,2,90,0,0
64909,-100,4,2,1,90,0,0
65118,-100,4,2,3,90,0,0
65326,-100,4,2,1,90,0,0
66784,-111.111111111111,4,2,1,80,0,0
67201,-111.111111111111,4,2,4,80,0,0
67409,-111.111111111111,4,2,1,80,0,0
67618,-111.111111111111,4,2,4,80,0,0
68034,-111.111111111111,4,2,1,80,0,0
68243,-111.111111111111,4,2,4,80,0,0
68451,-111.111111111111,4,2,1,80,0,0
68868,-111.111111111111,4,2,4,80,0,0
69076,-111.111111111111,4,2,1,80,0,0
69284,-111.111111111111,4,2,4,80,0,0
69701,-111.111111111111,4,2,2,80,0,0
70118,-111.111111111111,4,2,4,80,0,0
70534,-111.111111111111,4,2,5,80,0,0
71784,-111.111111111111,4,2,1,80,0,0
72201,-111.111111111111,4,2,5,80,0,0
72618,-111.111111111111,4,2,4,80,0,0
73034,-111.111111111111,4,2,3,80,0,0
73451,-111.111111111111,4,2,4,80,0,0
73659,-111.111111111111,4,2,1,80,0,0
73868,-111.111111111111,4,2,4,80,0,0
74076,-111.111111111111,4,2,1,80,0,0
74284,-111.111111111111,4,2,4,80,0,0
74701,-111.111111111111,4,2,1,80,0,0
74909,-111.111111111111,4,2,4,80,0,0
75118,-111.111111111111,4,2,1,80,0,0
75534,-111.111111111111,4,2,5,80,0,0
75951,-111.111111111111,4,2,4,80,0,0
76368,-111.111111111111,4,2,3,80,0,0
76784,-111.111111111111,4,2,4,80,0,0
77201,-111.111111111111,4,2,5,80,0,0
78451,-111.111111111111,4,2,1,80,0,0
78868,-111.111111111111,4,2,5,80,0,0
79076,-111.111111111111,4,2,1,80,0,0
79284,-111.111111111111,4,2,4,80,0,0
79493,-111.111111111111,4,2,5,80,0,0
79701,-111.111111111111,4,2,1,80,0,0
80118,-111.111111111111,4,2,1,80,0,0
80534,-111.111111111111,4,2,4,80,0,0
80743,-111.111111111111,4,2,1,80,0,0
80951,-111.111111111111,4,2,4,80,0,0
81368,-111.111111111111,4,2,1,80,0,0
81576,-111.111111111111,4,2,4,80,0,0
81784,-111.111111111111,4,2,1,80,0,0
82201,-111.111111111111,4,2,4,80,0,0
83034,-111.111111111111,4,2,2,80,0,0
83451,-111.111111111111,4,2,4,80,0,0
83868,-111.111111111111,4,2,5,80,0,0
85118,-111.111111111111,4,2,1,80,0,0
85534,-111.111111111111,4,2,5,80,0,0
85951,-111.111111111111,4,2,4,80,0,0
86159,-111.111111111111,4,2,1,80,0,0
86368,-111.111111111111,4,2,3,80,0,0
86784,-111.111111111111,4,2,4,80,0,0
87201,-111.111111111111,4,2,4,80,0,0
87409,-111.111111111111,4,2,1,80,0,0
87618,-111.111111111111,4,2,4,80,0,0
88034,-111.111111111111,4,2,1,80,0,0
88243,-111.111111111111,4,2,4,80,0,0
88451,-111.111111111111,4,2,1,80,0,0
88868,-111.111111111111,4,2,5,80,0,0
89284,-111.111111111111,4,2,4,80,0,0
89701,-111.111111111111,4,2,3,80,0,0
90118,-111.111111111111,4,2,4,80,0,0
90534,-111.111111111111,4,2,4,80,0,0
90743,-111.111111111111,4,2,1,80,0,0
90951,-111.111111111111,4,2,3,80,0,0
91159,-111.111111111111,4,2,1,80,0,0
91368,-111.111111111111,4,2,2,80,0,0
91784,-111.111111111111,4,2,1,80,0,0
93451,-100,4,2,1,90,0,0
94284,-100,4,2,2,90,0,0
96784,-100,4,2,2,90,0,0
96993,-100,4,2,1,90,0,0
97201,-100,4,2,3,90,0,0
97409,-100,4,2,1,90,0,0
97618,-100,4,2,2,90,0,0
98243,-100,4,2,1,90,0,0
98451,-100,4,2,3,90,0,0
98659,-100,4,2,1,90,0,0
98868,-100,4,2,2,90,0,0
99701,-100,4,2,1,90,0,0
100534,-100,4,2,3,90,0,0
100743,-100,4,2,1,90,0,0
100951,-100,4,2,2,90,0,0
103451,-100,4,2,2,90,0,0
103659,-100,4,2,1,90,0,0
103868,-100,4,2,3,90,0,0
104284,-100,4,2,2,90,0,0
104701,-100,4,2,3,90,0,0
105951,-100,4,2,1,90,0,0
107201,-100,4,2,3,90,0,0
107409,-100,4,2,1,90,0,0
107618,-100,4,2,2,90,0,0
110118,-100,4,2,2,90,0,0
110326,-100,4,2,1,90,0,0
110534,-100,4,2,3,90,0,0
110743,-100,4,2,1,90,0,0
110951,-100,4,2,2,90,0,0
111576,-100,4,2,1,90,0,0
111784,-100,4,2,3,90,0,0
111993,-100,4,2,1,90,0,0
112201,-100,4,2,2,90,0,0
112618,-100,4,2,2,90,0,0
112826,-100,4,2,2,90,0,0
113034,-100,4,2,1,90,0,0
114284,-100,4,2,2,90,0,0
116784,-100,4,2,1,90,0,0
117201,-100,4,2,3,90,0,0
117409,-100,4,2,1,90,0,0
117618,-100,4,2,1,90,0,0
118034,-100,4,2,2,90,0,0
118243,-100,4,2,1,90,0,0
118451,-100,4,2,3,90,0,0
118659,-100,4,2,1,90,0,0
118868,-100,4,2,2,90,0,0
119284,-100,4,2,1,90,0,0
120118,-100,4,2,1,80,0,0
126368,-100,4,2,3,80,0,0
126784,-100,4,2,1,80,0,0
129701,-100,4,2,2,80,0,0
130118,-100,4,2,4,80,0,0
131888,-100,4,2,1,80,0,0
133451,-111.111111111111,4,2,1,70,0,0
133868,-111.111111111111,4,2,4,70,0,0
134076,-111.111111111111,4,2,1,70,0,0
134284,-111.111111111111,4,2,4,70,0,0
134909,-111.111111111111,4,2,1,70,0,0
135118,-111.111111111111,4,2,4,70,0,0
135743,-111.111111111111,4,2,1,70,0,0
135951,-111.111111111111,4,2,4,70,0,0
136368,-111.111111111111,4,2,2,70,0,0
136784,-111.111111111111,4,2,4,70,0,0
137201,-111.111111111111,4,2,5,70,0,0
138451,-111.111111111111,4,2,4,70,0,0
138868,-111.111111111111,4,2,5,70,0,0
139284,-111.111111111111,4,2,4,70,0,0
139701,-111.111111111111,4,2,3,70,0,0
140118,-111.111111111111,4,2,4,70,0,0
140534,-111.111111111111,4,2,4,70,0,0
140743,-111.111111111111,4,2,1,70,0,0
140951,-111.111111111111,4,2,4,70,0,0
141576,-111.111111111111,4,2,1,70,0,0
141784,-111.111111111111,4,2,4,70,0,0
142201,-111.111111111111,4,2,5,70,0,0
142618,-111.111111111111,4,2,4,70,0,0
143034,-111.111111111111,4,2,5,70,0,0
143451,-111.111111111111,4,2,4,70,0,0
143868,-111.111111111111,4,2,5,70,0,0
145118,-111.111111111111,4,2,4,70,0,0
145326,-111.111111111111,4,2,2,70,0,0
145534,-111.111111111111,4,2,5,70,0,0
145743,-111.111111111111,4,2,1,70,0,0
145951,-111.111111111111,4,2,2,70,0,0
146159,-111.111111111111,4,2,4,70,0,0
146368,-111.111111111111,4,2,1,70,0,0
146576,-111.111111111111,4,2,2,70,0,0
146784,-100,4,2,1,70,0,0
147201,-100,4,2,4,70,0,0
147409,-100,4,2,1,70,0,0
147618,-100,4,2,4,70,0,0
148659,-100,4,2,1,70,0,0
148868,-100,4,2,4,70,0,0
149701,-100,4,2,3,70,0,0
149909,-100,4,2,1,70,0,0
150118,-100,4,2,4,70,0,0
151159,-100,4,2,1,70,0,0
151368,-100,4,2,4,70,0,0
151576,-100,4,2,5,70,0,0
151784,-100,4,2,4,70,0,0
152618,-100,4,2,1,70,0,0
153034,-100,4,2,2,70,0,0
153451,-100,4,2,4,70,0,0
153659,-100,4,2,1,70,0,0
153868,-100,4,2,2,70,0,0
154076,-100,4,2,1,70,0,0
154701,-100,4,2,4,70,0,0
154909,-100,4,2,1,70,0,0
155118,-100,4,2,4,70,0,0
155534,-100,4,2,5,70,0,0
155951,-100,4,2,4,70,0,0
157826,-100,4,2,1,70,0,0
158034,-100,4,2,2,70,0,0
158868,-100,4,2,1,70,0,0
159284,-99.9999999999999,4,2,1,70,0,0
165951,-100,4,2,1,90,0,0
167201,-100,4,2,3,90,0,0
167409,-100,4,2,1,90,0,0
167618,-100,4,2,2,90,0,0
170118,-100,4,2,2,90,0,0
170326,-100,4,2,1,90,0,0
170534,-100,4,2,3,90,0,0
170743,-100,4,2,1,90,0,0
170951,-100,4,2,2,90,0,0
171576,-100,4,2,1,90,0,0
171784,-100,4,2,3,90,0,0
171993,-100,4,2,1,90,0,0
172201,-100,4,2,2,90,0,0
173034,-100,4,2,1,90,0,0
173868,-100,4,2,3,90,0,0
174076,-100,4,2,1,90,0,0
174284,-100,4,2,2,90,0,0
176784,-100,4,2,2,90,0,0
176993,-100,4,2,1,90,0,0
177201,-100,4,2,3,90,0,0
177618,-100,4,2,2,90,0,0
178034,-100,4,2,3,90,0,0
178451,-100,4,2,1,90,0,0
178659,-100,4,2,2,90,0,0
179284,-100,4,2,1,90,0,0
181368,-100,4,2,2,90,0,0
181784,-100,4,2,1,90,0,0
182201,-100,4,2,2,90,0,0
182618,-100,4,2,1,90,0,0
183034,-100,4,2,2,90,0,0
183451,-100,4,2,1,90,0,0
183868,-100,4,2,3,90,0,0
184076,-100,4,2,1,90,0,0
184284,-100,4,2,1,90,0,0
184701,-100,4,2,2,90,0,0
184909,-100,4,2,1,90,0,0
185118,-100,4,2,1,90,0,0
185534,-100,4,2,2,90,0,0
186368,-100,4,2,1,90,0,0
188034,-100,4,2,2,90,0,0
188451,-100,4,2,1,90,0,0
188868,-100,4,2,2,90,0,0
189284,-100,4,2,1,90,0,0
189701,-100,4,2,2,90,0,0
190118,-100,4,2,1,90,0,0

[Colours]
Combo1 : 147,49,51
Combo2 : 214,223,38
Combo3 : 198,63,85
Combo4 : 238,242,164

[HitObjects]
120,128,118,6,0,B|240:128|196:192|332:192,1,208,2|0,2:2|0:0,0:0:0:0:
412,100,1368,1,0,0:0:0:0:
500,200,1784,2,0,L|477:326,1,104,2|0,2:2|0:0,0:0:0:0:
352,344,2618,2,0,L|329:217,1,104,2|0,2:2|0:0,0:0:0:0:
256,128,3451,6,0,B|192:88|112:128|112:128|144:140|172:176,1,208,2|0,2:2|0:0,0:0:0:0:
248,264,4701,1,0,0:0:0:0:
140,344,5118,2,0,P|90:358|41:343,1,104,2|0,2:2|0:0,0:0:0:0:
40,208,5951,2,0,P|88:192|138:207,1,104,2|0,2:2|0:0,0:0:0:0:
256,272,6784,6,0,B|308:220|308:220|267:91,1,208,2|0,2:2|0:0,0:0:0:0:
180,0,8034,1,0,0:0:0:0:
52,48,8451,2,0,L|74:174,1,104,2|0,2:2|0:0,0:0:0:0:
188,220,9284,2,0,L|210:93,1,104,2|0,2:2|0:0,0:0:0:0:
324,52,10118,6,0,B|465:77|465:77|426:94|406:135,1,208,2|0,2:2|0:0,0:0:0:0:
304,192,11368,1,0,0:0:0:0:
212,100,11784,1,2,2:2:0:0:
212,100,11993,2,0,P|163:84|113:99,1,104,2|2,2:2|2:2,0:0:0:0:
80,132,12618,1,2,2:2:0:0:
144,252,13034,1,2,2:2:0:0:
256,180,13451,5,2,2:2:0:0:
372,252,13868,2,0,L|435:240,1,52,2|2,2:2|2:2,0:0:0:0:
468,248,14284,2,0,P|487:295|471:343,1,104,2|2,2:2|2:2,0:0:0:0:
340,372,15118,2,0,L|213:349,1,104,2|2,2:2|2:2,0:0:0:0:
196,360,15743,1,2,2:2:0:0:
196,360,15951,2,0,P|176:312|192:264,1,104,2|2,2:2|2:2,0:0:0:0:
316,208,16784,6,0,P|335:160|319:112,1,104,2|0,2:2|0:0,0:0:0:0:
296,76,17409,1,0,0:0:0:0:
296,76,17618,2,0,L|169:98,1,104
60,72,18451,2,0,P|40:119|56:167,1,104,2|0,2:2|0:0,0:0:0:0:
96,204,19076,1,0,0:0:0:0:
96,204,19285,2,0,L|222:181,1,104
328,228,20118,6,0,L|454:205,1,104,2|2,2:2|2:2,0:0:0:0:
480,220,20743,1,2,2:2:0:0:
480,220,20951,2,0,P|499:172|483:124,1,104,2|2,2:2|2:2,0:0:0:0:
380,36,21784,2,0,B|260:36|304:100|168:100,1,208,2|0,2:2|0:0,0:0:0:0:
104,8,23034,1,0,0:0:0:0:
8,104,23451,6,0,B|-32:168|8:248|8:248|20:216|56:188,1,208,2|0,2:2|0:0,0:0:0:0:
152,124,24701,1,0,0:0:0:0:
252,212,25118,2,0,L|378:189,1,104,2|0,2:2|0:0,0:0:0:0:
480,144,25951,2,0,P|499:191|483:239,1,104,2|0,2:2|0:0,0:0:0:0:
388,336,26784,6,0,L|261:313,1,104,2|2,2:2|2:2,0:0:0:0:
260,284,27409,1,2,2:2:0:0:
260,284,27618,2,0,L|133:306,1,104,2|2,2:2|2:2,0:0:0:0:
28,268,28451,2,0,P|8:315|24:363,2,104,2|2|2,2:2|2:2|2:2,0:0:0:0:
124,172,29701,1,0,0:0:0:0:
236,244,30118,6,0,L|362:221,1,104,2|0,2:2|0:0,0:0:0:0:
388,236,30743,1,0,0:0:0:0:
388,236,30951,2,0,P|407:188|391:140,1,104
312,32,31784,2,0,L|185:54,1,104,2|0,2:2|0:0,0:0:0:0:
80,12,32618,2,0,L|102:138,1,104,2|0,2:2|0:0,0:0:0:0:
200,204,33451,6,0,P|248:219|295:200,1,104,2|2,2:2|2:2,0:0:0:0:
328,168,34076,1,2,2:2:0:0:
328,168,34284,2,0,P|376:152|423:171,1,104,2|2,2:2|2:2,0:0:0:0:
512,272,35118,2,0,L|489:398,1,104,2|0,2:2|0:0,0:0:0:0:
360,376,35951,2,0,L|382:249,1,104,2|0,2:2|0:0,0:0:0:0:
288,172,36784,6,0,B|168:172|212:236|76:236,1,208,2|0,2:2|0:0,0:0:0:0:
16,128,38034,1,0,0:0:0:0:
104,28,38451,1,2,2:2:0:0:
104,28,38659,2,0,L|230:50,1,104,2|0,2:2|0:0,0:0:0:0:
236,84,39284,1,0,0:0:0:0:
348,12,39701,1,0,0:0:0:0:
476,72,40118,5,2,2:2:0:0:
476,72,40326,2,0,L|455:186,1,104
424,208,40951,2,0,P|374:221|325:205,1,104,2|2,2:2|2:2,0:0:0:0:
220,124,41784,1,2,2:2:0:0:
116,212,42201,1,2,2:2:0:0:
188,328,42618,1,2,2:2:0:0:
316,280,43034,2,0,L|382:291,1,52,2|0,2:2|0:0,0:0:0:0:
412,304,43451,6,0,L|432:189,1,104
508,92,44284,1,0,0:0:0:0:
396,24,44701,1,0,0:0:0:0:
396,24,44909,2,0,L|281:44,1,104
260,76,45534,1,0,0:0:0:0:
128,52,45951,2,0,P|112:100|125:150,1,104
204,260,46784,6,0,L|318:239,1,104
416,164,47618,1,2,2:2:0:0:
500,268,48034,1,2,2:2:0:0:
420,376,48451,2,0,L|305:355,1,104,2|2,2:2|2:2,0:0:0:0:
200,296,49284,2,0,L|85:316,1,104,2|2,2:2|2:2,0:0:0:0:
56,324,49909,1,0,0:0:0:0:
56,324,50118,6,0,P|40:275|53:225,1,104
180,176,50951,2,0,P|195:127|182:77,1,104
56,28,51784,1,0,0:0:0:0:
44,16,53451,5,6,1:2:0:0:
44,16,53659,2,0,L|69:157,1,130,2|2,2:2|2:2,0:0:0:0:
84,228,54284,1,10,2:2:0:0:
236,152,54701,1,2,2:2:0:0:
236,152,54909,2,0,P|295:129|356:149,1,130,2|2,2:2|1:2,0:0:0:0:
416,208,55534,1,2,2:2:0:0:
340,360,55951,2,0,L|265:346,1,65,10|0,2:2|0:0,0:0:0:0:
192,364,56368,1,2,2:2:0:0:
68,260,56784,5,2,1:2:0:0:
68,260,56993,2,0,L|93:118,1,130,2|2,2:2|2:2,0:0:0:0:
108,48,57618,1,10,2:2:0:0:
260,132,58034,1,2,2:2:0:0:
260,132,58243,2,0,L|401:106,1,130,2|2,2:2|2:2,0:0:0:0:
472,104,58868,2,0,L|458:178,1,65,2|8,1:2|2:2,0:0:0:0:
384,200,59284,2,0,L|397:274,1,65,2|8,2:2|2:2,0:0:0:0:
464,312,59701,1,10,1:2:0:0:
300,344,60118,6,0,L|158:318,1,130,6|0,1:2|0:0,0:0:0:0:
80,180,60951,2,0,L|221:154,1,130,10|2,2:2|2:2,0:0:0:0:
380,184,61784,1,2,1:2:0:0:
380,184,61993,2,0,P|402:124|382:63,1,130,2|0,1:2|1:1,0:0:0:0:
312,16,62618,1,10,2:2:0:0:
172,112,63034,1,2,2:2:0:0:
24,32,63451,6,0,L|49:173,1,130,2|2,1:2|2:2,0:0:0:0:
120,312,64284,2,0,P|180:331|240:309,1,130,10|2,2:2|2:2,0:0:0:0:
316,160,65118,2,0,L|380:171,1,65,2|10,1:2|2:2,0:0:0:0:
448,224,65534,2,0,L|512:235,2,65,10|8|6,2:2|2:3|2:3,0:0:0:0:
380,276,66159,1,4,2:3:0:0:
380,276,66368,2,0,L|368:340,1,65,10|0,2:2|1:1,0:0:0:0:
292,368,66784,6,0,B|166:368|212:301|70:301,1,233.999992858887,6|10,1:2|2:2,0:0:0:0:
8,164,68034,2,0,L|20:93,1,58.4999982147217,2|10,2:2|2:2,0:0:0:0:
24,56,68451,2,0,L|146:77,1,116.999996429443,2|2,1:2|2:2,0:0:0:0:
184,112,69076,1,2,1:2:0:0:
184,112,69284,2,0,L|306:90,1,116.999996429443,10|2,2:2|2:2,0:0:0:0:
440,32,70118,6,0,P|472:76|448:144,1,116.999996429443,2|2,1:2|2:2,0:0:0:0:
360,248,70951,1,10,2:2:0:0:
360,248,71159,2,0,L|237:226,1,116.999996429443,0|10,0:0|2:2,0:0:0:0:
200,256,71784,1,2,1:2:0:0:
200,256,71993,1,0,1:1:0:0:
64,204,72409,1,0,1:1:0:0:
64,204,72618,2,0,P|32:248|56:316,1,116.999996429443,10|2,2:2|2:2,0:0:0:0:
180,376,73451,6,0,L|302:354,1,116.999996429443,2|2,1:2|2:2,0:0:0:0:
444,376,74284,2,0,L|465:253,1,116.999996429443,10|2,2:2|2:2,0:0:0:0:
508,232,74909,1,10,2:2:0:0:
508,232,75118,2,0,L|486:109,1,116.999996429443,2|2,1:2|2:2,0:0:0:0:
360,32,75951,1,10,2:2:0:0:
220,96,76368,1,10,2:2:0:0:
76,52,76784,6,0,P|44:96|68:164,1,116.999996429443,2|2,1:2|2:2,0:0:0:0:
184,240,77618,2,0,L|306:218,1,116.999996429443,10|0,2:2|0:0,0:0:0:0:
352,204,78243,1,10,2:2:0:0:
352,204,78451,2,0,L|364:274,1,58.4999982147217,2|2,1:2|1:2,0:0:0:0:
408,284,78868,2,0,L|420:354,1,58.4999982147217,2|2,1:2|1:2,0:0:0:0:
380,376,79284,1,2,1:2:0:0:
240,320,79701,2,0,L|169:332,1,58.4999982147217,10|8,2:2|2:2,0:0:0:0:
140,360,80118,5,6,1:2:0:0:
36,248,80534,2,0,L|48:177,1,58.4999982147217,2|2,2:2|2:2,0:0:0:0:
60,140,80951,2,0,L|182:161,1,116.999996429443,10|2,2:2|2:2,0:0:0:0:
216,200,81576,1,10,2:2:0:0:
216,200,81784,2,0,L|338:178,1,116.999996429443,2|2,1:2|2:2,0:0:0:0:
460,96,82618,1,10,2:2:0:0:
336,8,83034,1,10,2:2:0:0:
188,40,83451,6,0,P|156:84|180:152,1,116.999996429443,2|2,1:2|2:2,0:0:0:0:
316,184,84284,2,0,P|348:228|324:296,1,116.999996429443,10|0,2:2|0:0,0:0:0:0:
296,320,84909,1,10,2:2:0:0:
296,320,85118,2,0,L|180:299,1,116.999996429443,2|2,1:2|2:2,0:0:0:0:
40,236,85951,2,0,L|52:165,1,58.4999982147217,10|8,2:2|2:3,0:0:0:0:
36,128,86368,1,10,2:2:0:0:
184,168,86784,6,0,L|299:147,1,116.999996429443,2|2,1:2|2:2,0:0:0:0:
348,176,87409,1,2,2:2:0:0:
348,176,87618,1,10,2:2:0:0:
480,100,88034,2,0,L|467:29,1,58.4999982147217,2|10,2:2|2:2,0:0:0:0:
432,16,88451,1,2,1:2:0:0:
432,16,88659,2,0,P|376:2|330:34,1,116.999996429443,0|0,1:1|1:1,0:0:0:0:
304,76,89284,1,10,2:2:0:0:
168,8,89701,1,10,2:2:0:0:
44,92,90118,6,0,L|65:207,1,116.999996429443,2|2,1:2|1:2,0:0:0:0:
176,312,90951,1,10,2:2:0:0:
276,200,91368,1,2,1:2:0:0:
428,228,91784,2,0,L|441:157,1,58.4999982147217,10|10,2:2|2:2,0:0:0:0:
492,160,92201,2,0,L|479:89,1,58.4999982147217,8|4,2:2|2:3,0:0:0:0:
468,52,92618,1,8,2:2:0:0:
136,8,93451,5,6,1:2:0:0:
136,8,93659,2,0,B|33:26|33:26|75:59,1,130,2|2,2:2|2:2,0:0:0:0:
120,96,94284,2,0,L|105:178,1,65,10|0,2:2|0:0,0:0:0:0:
68,232,94701,1,2,2:2:0:0:
216,324,95118,1,2,1:2:0:0:
216,324,95326,2,0,L|357:298,1,130,0|0,1:1|1:1,0:0:0:0:
416,344,95951,1,10,2:2:0:0:
500,196,96368,2,0,L|485:113,1,65,2|0,2:2|0:0,0:0:0:0:
440,68,96784,5,2,1:2:0:0:
440,68,96993,2,0,P|379:47|321:73,1,130,2|2,2:2|2:2,0:0:0:0:
276,144,97618,1,10,2:2:0:0:
144,40,98034,1,2,2:2:0:0:
0,120,98451,2,0,L|25:261,1,130,2|10,1:2|2:3,0:0:0:0:
72,324,99076,1,8,2:2:0:0:
72,324,99284,2,0,L|154:309,1,65,6|8,2:3|2:2,0:0:0:0:
200,260,99701,2,0,L|282:274,1,65,14|0,2:2|1:1,0:0:0:0:
344,292,100118,6,0,P|369:233|349:173,1,130,6|2,1:2|2:2,0:0:0:0:
196,100,100951,1,10,2:2:0:0:
336,8,101368,2,0,L|418:22,1,65,2|0,2:2|0:0,0:0:0:0:
488,16,101784,1,2,1:2:0:0:
488,16,101993,2,0,L|462:157,1,130,0|0,1:1|1:1,0:0:0:0:
444,224,102618,1,10,2:2:0:0:
304,128,103034,1,2,2:2:0:0:
148,188,103451,6,0,P|122:246|142:306,2,130,2|2|10,1:2|2:2|2:2,0:0:0:0:
304,128,104701,1,2,2:2:0:0:
304,128,105951,2,0,B|217:143|270:170|167:184,1,130,4|0,1:2|0:0,0:0:0:0:
32,120,106784,6,0,L|57:261,1,130,6|2,1:2|2:2,0:0:0:0:
176,368,107618,2,0,L|258:353,1,65,10|0,2:2|0:0,0:0:0:0:
304,300,108034,1,2,2:2:0:0:
472,328,108451,2,0,P|497:269|477:209,1,130,2|2,1:2|1:2,0:0:0:0:
432,144,109076,1,0,1:1:0:0:
432,144,109284,2,0,L|349:158,1,65,10|0,2:2|0:0,0:0:0:0:
308,216,109701,1,2,2:2:0:0:
148,176,110118,5,2,1:2:0:0:
148,176,110326,2,0,L|122:34,1,130,2|2,2:2|2:2,0:0:0:0:
200,0,110951,1,10,2:2:0:0:
280,148,111368,1,2,2:2:0:0:
444,108,111784,2,0,P|479:160|469:223,1,130,2|10,1:2|2:3,0:0:0:0:
436,304,112409,1,8,2:2:0:0:
436,304,112618,2,0,L|371:292,1,65,2|4,2:2|2:3,0:0:0:0:
300,248,113034,2,0,L|235:259,1,65,10|0,2:2|1:1,0:0:0:0:
156,288,113451,6,0,L|130:146,1,130,6|0,1:2|0:0,0:0:0:0:
36,20,114284,1,10,2:2:0:0:
200,64,114701,2,0,L|264:52,1,65,2|0,2:2|0:0,0:0:0:0:
348,28,115118,1,2,1:2:0:0:
348,28,115326,2,0,P|379:83|365:145,1,130,0|0,1:1|1:1,0:0:0:0:
308,208,115951,1,10,2:2:0:0:
156,132,116368,1,2,2:2:0:0:
16,224,116784,6,0,L|41:365,2,130,6|2|14,1:2|1:2|1:2,0:0:0:0:
156,132,118034,1,2,1:2:0:0:
308,208,118451,2,0,L|372:196,1,65,2|10,1:2|2:2,0:0:0:0:
456,180,118868,2,0,L|444:244,1,65,2|0,1:2|1:1,0:0:0:0:
372,288,119284,1,10,2:2:0:0:
220,212,119701,1,10,2:2:0:0:
60,264,120118,6,0,P|28:208|42:146,1,130,6|0,1:2|1:1,0:0:0:0:
92,80,120743,1,0,1:1:0:0:
92,80,120951,2,0,L|220:102,1,130,8|0,2:2|0:0,0:0:0:0:
380,44,121784,2,0,L|357:172,1,130,2|0,1:2|1:1,0:0:0:0:
300,236,122409,1,0,1:1:0:0:
300,236,122618,1,10,2:2:0:0:
168,132,123034,2,0,L|103:143,1,65,10|4,2:2|2:3,0:0:0:0:
28,108,123451,6,0,P|-3:163|10:225,1,130,6|0,1:2|1:1,0:0:0:0:
52,304,124076,1,0,1:1:0:0:
52,304,124284,2,0,L|180:281,1,130,8|0,2:2|0:0,0:0:0:0:
324,372,125118,2,0,L|452:349,1,130,0|0,1:1|1:1,0:0:0:0:
504,284,125743,1,0,1:1:0:0:
504,284,125951,1,10,2:2:0:0:
424,136,126368,1,10,2:2:0:0:
268,200,126784,6,0,P|212:231|150:217,1,130,6|0,1:2|1:1,0:0:0:0:
88,172,127409,1,0,1:1:0:0:
88,172,127618,2,0,L|110:43,1,130,8|0,2:2|0:0,0:0:0:0:
276,12,128451,2,0,L|404:34,1,130,2|0,1:2|1:1,0:0:0:0:
492,56,129076,1,0,1:1:0:0:
492,56,129284,1,10,2:2:0:0:
404,200,129701,1,10,2:2:0:0:
256,120,130118,6,0,L|127:142,2,130,2|0|8,1:2|1:1|2:2,0:0:0:0:
492,216,131576,1,8,2:2:0:0:
492,216,131784,2,0,L|480:280,1,65,0|4,0:0|2:3,0:0:0:0:
428,348,132201,1,8,2:2:0:0:
280,268,132618,2,0,L|215:279,2,65,8|0|0,2:2|1:1|1:1,0:0:0:0:
364,240,133243,1,0,1:1:0:0:
364,240,133451,6,0,P|383:185|370:129,2,116.999996429443,4|2|10,1:2|2:2|2:2,0:0:0:0:
244,332,134701,1,2,2:2:0:0:
96,300,135118,2,0,L|76:184,1,116.999996429443,2|2,1:2|2:2,0:0:0:0:
48,148,135743,1,2,1:2:0:0:
48,148,135951,1,10,2:2:0:0:
152,36,136368,1,10,2:2:0:0:
296,84,136784,6,0,P|350:64|406:77,2,116.999996429443,2|2|10,1:2|2:2|2:2,0:0:0:0:
176,180,138034,1,2,2:2:0:0:
312,252,138451,2,0,L|292:367,2,116.999996429443,2|2|10,1:2|2:2|2:2,0:0:0:0:
432,156,139701,1,2,2:2:0:0:
352,28,140118,6,0,P|295:14|241:34,1,116.999996429443,2|2,1:2|2:2,0:0:0:0:
204,68,140743,1,2,2:2:0:0:
204,68,140951,2,0,L|223:183,1,116.999996429443,10|2,2:2|2:2,0:0:0:0:
292,328,141784,1,2,1:2:0:0:
292,328,141993,2,0,L|407:308,1,116.999996429443,0|0,1:1|1:1,0:0:0:0:
484,324,142618,2,0,L|503:208,1,116.999996429443,10|2,2:2|2:2,0:0:0:0:
376,128,143451,6,0,P|362:71|382:17,2,116.999996429443,2|2|10,1:2|2:2|2:2,0:0:0:0:
503,208,144701,1,2,2:2:0:0:
400,320,145118,1,2,1:2:0:0:
400,320,145326,2,0,L|284:300,1,116.999996429443,10|2,2:2|1:2,0:0:0:0:
236,324,145951,1,10,2:2:0:0:
100,252,146368,2,0,L|111:187,1,58.4999982147217,2|10,1:2|2:2,0:0:0:0:
104,144,146784,6,0,P|159:112|221:126,1,130,6|2,1:2|2:2,0:0:0:0:
344,240,147618,1,10,2:2:0:0:
508,160,148034,2,0,L|497:96,1,65,2|2,2:2|2:2,0:0:0:0:
472,52,148451,2,0,P|410:37|354:68,1,130,2|2,1:2|2:2,0:0:0:0:
244,216,149284,2,0,P|188:247|126:232,1,130,10|2,2:2|2:2,0:0:0:0:
88,200,149909,1,2,2:2:0:0:
88,200,150117,6,0,L|110:72,1,130,2|2,1:2|2:2,0:0:0:0:
264,4,150951,2,0,L|286:132,1,130,10|2,2:2|2:2,0:0:0:0:
364,288,151784,1,2,1:2:0:0:
364,288,151993,2,0,P|425:302|480:270,1,130,0|0,1:1|1:1,0:0:0:0:
512,220,152618,2,0,L|501:156,1,65,10|8,2:2|2:2,0:0:0:0:
488,100,153034,1,2,2:2:0:0:
360,208,153451,5,2,1:2:0:0:
224,108,153868,1,2,1:2:0:0:
68,172,154284,2,0,P|37:227|50:289,1,130,14|2,2:2|2:2,0:0:0:0:
216,340,155118,1,2,1:2:0:0:
216,340,155326,2,0,P|247:285|234:223,1,130,0|0,1:1|1:1,0:0:0:0:
188,184,155951,1,10,2:2:0:0:
48,92,156368,1,2,2:2:0:0:
196,8,156784,6,0,L|324:31,2,130,2|2|10,1:2|1:2|2:2,0:0:0:0:
48,92,158034,1,10,2:2:0:0:
188,184,158451,2,0,L|176:249,1,65,2|0,2:2|1:1,0:0:0:0:
120,312,158868,1,10,2:2:0:0:
280,360,159284,2,0,L|344:349,1,65,10|4,2:3|2:3,0:0:0:0:
432,372,159701,1,10,2:2:0:0:
432,372,159909,1,10,2:2:0:0:
324,156,165951,6,0,B|237:171|290:198|187:212,1,130,6|0,1:2|0:0,0:0:0:0:
56,144,166784,1,6,1:2:0:0:
56,144,166993,2,0,P|24:199|38:261,1,130,2|2,2:2|2:2,0:0:0:0:
96,324,167618,1,10,2:2:0:0:
252,260,168034,2,0,L|316:271,1,65,2|0,2:2|0:0,0:0:0:0:
376,328,168451,2,0,L|440:316,1,65,2|0,1:2|1:1,0:0:0:0:
496,252,168868,1,2,2:2:0:0:
424,100,169284,2,0,L|359:111,1,65,10|0,2:2|0:0,0:0:0:0:
292,160,169701,1,2,2:2:0:0:
140,96,170118,5,2,1:2:0:0:
140,96,170326,2,0,P|108:151|122:213,1,130,2|2,2:2|2:2,0:0:0:0:
188,268,170951,1,10,2:2:0:0:
308,148,171368,2,0,L|372:159,1,65,2|2,2:2|2:2,0:0:0:0:
456,144,171784,2,0,L|433:272,1,130,2|10,1:2|2:3,0:0:0:0:
380,336,172409,1,8,2:2:0:0:
224,288,172826,1,8,2:2:0:0:
224,288,173034,2,0,L|159:299,1,65,14|0,2:2|1:1,0:0:0:0:
80,328,173451,6,0,P|48:272|62:210,1,130,6|2,1:2|2:2,0:0:0:0:
148,64,174284,2,0,L|276:86,1,130,10|2,2:2|2:2,0:0:0:0:
344,136,174909,1,0,0:0:0:0:
344,136,175118,2,0,L|408:124,1,65,2|0,1:2|1:1,0:0:0:0:
476,72,175534,1,2,2:2:0:0:
412,228,175951,1,10,2:2:0:0:
256,164,176368,2,0,L|191:175,1,65,2|0,2:2|0:0,0:0:0:0:
112,200,176784,6,0,P|80:144|94:82,1,130,2|2,1:2|2:2,0:0:0:0:
244,0,177618,2,0,L|372:22,1,130,10|2,2:2|2:2,0:0:0:0:
448,56,178243,1,0,0:0:0:0:
448,56,178451,2,0,L|436:120,1,65,10|2,2:2|1:2,0:0:0:0:
300,216,179076,1,8,2:2:0:0:
300,216,179284,2,0,L|235:204,1,65,6|6,1:2|1:2,0:0:0:0:
168,156,179701,2,0,L|103:167,1,65,6|6,1:2|1:2,0:0:0:0:
24,140,180118,6,0,P|-7:195|6:257,1,130,6|0,1:2|0:0,0:0:0:0:
136,364,180951,1,14,2:2:0:0:
204,208,181368,1,2,2:2:0:0:
368,308,181784,2,0,L|432:296,1,65,6|0,1:2|1:1,0:0:0:0:
500,248,182201,1,2,2:2:0:0:
420,100,182618,2,0,P|364:131|302:117,1,130,14|2,2:2|2:2,0:0:0:0:
236,72,183243,1,0,0:0:0:0:
236,72,183451,6,0,P|204:127|218:189,1,130,6|2,1:2|2:2,0:0:0:0:
372,256,184284,1,14,2:2:0:0:
240,364,184701,1,2,2:2:0:0:
72,332,185118,2,0,L|49:203,1,130,4|2,1:2|2:2,0:0:0:0:
120,156,185743,1,8,2:2:0:0:
120,156,185951,2,0,L|184:168,1,65,2|8,2:2|2:2,0:0:0:0:
220,244,186368,2,0,L|284:232,1,65,10|4,2:3|2:3,0:0:0:0:
368,244,186784,6,0,P|399:188|385:126,1,130,6|0,1:2|0:0,0:0:0:0:
268,4,187618,2,0,L|139:26,1,130,14|2,2:2|2:2,0:0:0:0:
60,28,188243,1,0,0:0:0:0:
60,28,188451,2,0,L|71:92,1,65,6|0,1:2|1:1,0:0:0:0:
88,176,188868,1,2,2:2:0:0:
248,232,189284,1,14,2:2:0:0:
368,112,189701,1,2,2:2:0:0:
508,208,190118,6,0,P|521:270|490:325,2,130,6|4|14,1:2|1:2|1:2,0:0:0:0:
368,112,191368,1,6,1:2:0:0:
220,192,191784,2,0,L|155:180,1,65,4|10,1:2|2:2,0:0:0:0:
72,164,192201,2,0,L|83:228,1,65,6|8,1:2|2:2,0:0:0:0:
8,268,192618,2,0,L|19:332,1,65,6|0,1:2|1:1,0:0:0:0:
96,364,193034,1,14,2:2:0:0:
252,300,193451,1,6,1:2:0:0:
