osu file format v14

[General]
AudioFilename: audio.mp3
AudioLeadIn: 0
PreviewTime: 72519
Countdown: 0
SampleSet: Normal
StackLeniency: 1
Mode: 1
LetterboxInBreaks: 0
WidescreenStoryboard: 0

[Editor]
Bookmarks: 520,11186,21853,32519,43186,48513,59186,69853,72519,83186,93853
DistanceSpacing: 0.9
BeatDivisor: 4
GridSize: 32
TimelineZoom: 2.799999

[Metadata]
Title:Defection
TitleUnicode:Defection
Artist:ParagonX9
ArtistUnicode:ParagonX9
Creator:Ak1o
Version:Inner Oni
Source:
Tags:DarkVortex Newgrounds DnB
BeatmapID:1232379
BeatmapSetID:582351

[Difficulty]
HPDrainRate:5.5
CircleSize:5
OverallDifficulty:6.5
ApproachRate:6
SliderMultiplier:1.4
SliderTickRate:1

[Events]
//Background and Video events
0,0,"space-sun-star-debris-nature-images-free-1920x1080.jpg",0,-50
//Break Periods
//Storyboard Layer 0 (Background)
//Storyboard Layer 1 (Fail)
//Storyboard Layer 2 (Pass)
//Storyboard Layer 3 (Foreground)
//Storyboard Sound Samples

[TimingPoints]
520,333.333333333333,4,1,0,100,1,0
520,-100,4,1,0,80,0,0
11186,-100,4,1,0,100,0,0
48519,-166.666666666667,4,1,0,60,0,0
59186,-166.666666666667,4,1,0,80,0,0
69853,-142.857142857143,4,1,0,80,0,0
70103,-133.333333333333,4,1,0,80,0,0
70353,-125,4,1,0,80,0,0
70603,-117.647058823529,4,1,0,80,0,0
70853,-111.111111111111,4,1,0,80,0,0
71019,-108.695652173913,4,1,0,80,0,0
71186,-106.382978723404,4,1,0,90,0,0
71269,-105.263157894737,4,1,0,90,0,0
71353,-104.166666666667,4,1,0,90,0,0
71519,-102.040816326531,4,1,0,90,0,0
71603,-101.010101010101,4,1,0,90,0,0
71686,-100,4,1,0,90,0,0
71769,-99.009900990099,4,1,0,90,0,0
71853,-98.0392156862745,4,1,0,95,0,0
71936,-97.0873786407767,4,1,0,95,0,0
72019,-96.1538461538461,4,1,0,95,0,0
72103,-95.2380952380952,4,1,0,95,0,0
72186,-94.3396226415094,4,1,0,95,0,0
72269,-93.4579439252336,4,1,0,95,0,0
72353,-92.5925925925926,4,1,0,95,0,0
72436,-91.743119266055,4,1,0,95,0,0
72519,-90.9090909090909,4,1,0,100,0,1
93853,-90.9090909090909,4,1,0,100,0,0

[HitObjects]
256,192,520,5,0,0:0:0:0:
256,192,1019,1,0,0:0:0:0:
256,192,1519,1,2,0:0:0:0:
256,192,1686,1,0,0:0:0:0:
256,192,2186,1,2,0:0:0:0:
256,192,2519,1,2,0:0:0:0:
256,192,2853,1,0,0:0:0:0:
256,192,3186,1,0,0:0:0:0:
256,192,3519,1,2,0:0:0:0:
256,192,3686,1,0,0:0:0:0:
256,192,4186,1,0,0:0:0:0:
256,192,4519,1,2,0:0:0:0:
256,192,4853,1,0,0:0:0:0:
256,192,5019,1,2,0:0:0:0:
256,192,5519,1,0,0:0:0:0:
256,192,5853,1,0,0:0:0:0:
256,192,6353,1,0,0:0:0:0:
256,192,6853,1,0,0:0:0:0:
256,192,7519,1,2,0:0:0:0:
256,192,7853,1,2,0:0:0:0:
256,192,8186,1,0,0:0:0:0:
256,192,8519,1,2,0:0:0:0:
256,192,8686,1,0,0:0:0:0:
256,192,8853,1,0,0:0:0:0:
256,192,9019,1,2,0:0:0:0:
256,192,9186,1,0,0:0:0:0:
256,192,9353,1,0,0:0:0:0:
256,192,9519,1,2,0:0:0:0:
256,192,9686,1,0,0:0:0:0:
256,192,9853,1,2,0:0:0:0:
256,192,9936,1,0,0:0:0:0:
256,192,10019,1,0,0:0:0:0:
256,192,10103,1,0,0:0:0:0:
256,192,10186,1,2,0:0:0:0:
256,192,10269,1,0,0:0:0:0:
256,192,10353,1,0,0:0:0:0:
256,192,10436,1,0,0:0:0:0:
256,192,10519,1,2,0:0:0:0:
256,192,10603,1,0,0:0:0:0:
256,192,10686,1,2,0:0:0:0:
256,192,10769,1,2,0:0:0:0:
256,192,10853,1,0,0:0:0:0:
256,192,10936,1,0,0:0:0:0:
256,192,11019,1,0,0:0:0:0:
256,192,11103,1,0,0:0:0:0:
256,192,11186,5,2,0:0:0:0:
256,192,11353,1,0,0:0:0:0:
256,192,11519,1,2,0:0:0:0:
256,192,11686,1,0,0:0:0:0:
256,192,11769,1,2,0:0:0:0:
256,192,11936,1,2,0:0:0:0:
256,192,12019,1,0,0:0:0:0:
256,192,12186,1,2,0:0:0:0:
256,192,12353,1,2,0:0:0:0:
256,192,12436,1,2,0:0:0:0:
256,192,12519,1,0,0:0:0:0:
256,192,12686,1,0,0:0:0:0:
256,192,12853,1,2,0:0:0:0:
256,192,13019,1,0,0:0:0:0:
256,192,13103,1,0,0:0:0:0:
256,192,13186,1,2,0:0:0:0:
256,192,13269,1,2,0:0:0:0:
256,192,13353,1,0,0:0:0:0:
256,192,13519,1,2,0:0:0:0:
256,192,13686,1,0,0:0:0:0:
256,192,13853,1,2,0:0:0:0:
256,192,14019,1,0,0:0:0:0:
256,192,14103,1,0,0:0:0:0:
256,192,14186,1,2,0:0:0:0:
256,192,14353,1,2,0:0:0:0:
256,192,14436,1,2,0:0:0:0:
256,192,14519,1,0,0:0:0:0:
256,192,14603,1,0,0:0:0:0:
256,192,14686,1,0,0:0:0:0:
256,192,14853,1,2,0:0:0:0:
256,192,15019,1,0,0:0:0:0:
256,192,15186,1,2,0:0:0:0:
256,192,15269,1,0,0:0:0:0:
256,192,15353,1,0,0:0:0:0:
256,192,15519,1,2,0:0:0:0:
256,192,15686,1,2,0:0:0:0:
256,192,15769,1,0,0:0:0:0:
256,192,15853,1,0,0:0:0:0:
256,192,16019,1,0,0:0:0:0:
256,192,16186,1,2,0:0:0:0:
256,192,16269,1,0,0:0:0:0:
256,192,16353,1,2,0:0:0:0:
256,192,16519,1,2,0:0:0:0:
256,192,16686,1,0,0:0:0:0:
256,192,16853,1,0,0:0:0:0:
256,192,16936,1,0,0:0:0:0:
256,192,17019,1,2,0:0:0:0:
256,192,17186,1,0,0:0:0:0:
256,192,17269,1,0,0:0:0:0:
256,192,17353,1,0,0:0:0:0:
256,192,17519,1,2,0:0:0:0:
256,192,17603,1,0,0:0:0:0:
256,192,17686,1,2,0:0:0:0:
256,192,17853,1,0,0:0:0:0:
256,192,17936,1,0,0:0:0:0:
256,192,18019,1,0,0:0:0:0:
256,192,18103,1,0,0:0:0:0:
256,192,18186,1,2,0:0:0:0:
256,192,18353,1,0,0:0:0:0:
256,192,18519,1,2,0:0:0:0:
256,192,18603,1,2,0:0:0:0:
256,192,18686,1,0,0:0:0:0:
256,192,18853,1,2,0:0:0:0:
256,192,18936,1,0,0:0:0:0:
256,192,19019,1,2,0:0:0:0:
256,192,19186,1,0,0:0:0:0:
256,192,19269,1,0,0:0:0:0:
256,192,19353,1,0,0:0:0:0:
256,192,19519,1,2,0:0:0:0:
256,192,19686,1,0,0:0:0:0:
256,192,19769,1,0,0:0:0:0:
256,192,19853,1,0,0:0:0:0:
256,192,20019,1,2,0:0:0:0:
256,192,20186,1,2,0:0:0:0:
256,192,20269,1,0,0:0:0:0:
256,192,20353,1,2,0:0:0:0:
256,192,20519,1,2,0:0:0:0:
256,192,20603,1,0,0:0:0:0:
256,192,20686,1,0,0:0:0:0:
256,192,20769,1,2,0:0:0:0:
256,192,20853,1,0,0:0:0:0:
256,192,21019,1,2,0:0:0:0:
256,192,21103,1,2,0:0:0:0:
256,192,21186,1,0,0:0:0:0:
256,192,21269,1,2,0:0:0:0:
256,192,21353,1,0,0:0:0:0:
256,192,21436,1,0,0:0:0:0:
256,192,21519,1,2,0:0:0:0:
256,192,21603,1,0,0:0:0:0:
256,192,21686,1,2,0:0:0:0:
256,192,21769,1,2,0:0:0:0:
256,192,21853,5,0,0:0:0:0:
256,192,22019,1,0,0:0:0:0:
256,192,22186,1,2,0:0:0:0:
256,192,22353,1,0,0:0:0:0:
256,192,22436,1,2,0:0:0:0:
256,192,22519,1,0,0:0:0:0:
256,192,22603,1,2,0:0:0:0:
256,192,22686,1,0,0:0:0:0:
256,192,22769,1,0,0:0:0:0:
256,192,22853,1,2,0:0:0:0:
256,192,22936,1,0,0:0:0:0:
256,192,23019,1,2,0:0:0:0:
256,192,23186,1,0,0:0:0:0:
256,192,23269,1,0,0:0:0:0:
256,192,23353,1,0,0:0:0:0:
256,192,23519,1,2,0:0:0:0:
256,192,23603,1,0,0:0:0:0:
256,192,23686,1,2,0:0:0:0:
256,192,23769,1,2,0:0:0:0:
256,192,23853,1,0,0:0:0:0:
256,192,23936,1,0,0:0:0:0:
256,192,24019,1,0,0:0:0:0:
256,192,24103,1,0,0:0:0:0:
256,192,24186,1,2,0:0:0:0:
256,192,24269,1,0,0:0:0:0:
256,192,24353,1,2,0:0:0:0:
256,192,24519,1,0,0:0:0:0:
256,192,24686,1,0,0:0:0:0:
256,192,24853,1,2,0:0:0:0:
256,192,24936,1,0,0:0:0:0:
256,192,25019,1,0,0:0:0:0:
256,192,25103,1,2,0:0:0:0:
256,192,25186,1,0,0:0:0:0:
256,192,25269,1,2,0:0:0:0:
256,192,25353,1,0,0:0:0:0:
256,192,25519,1,2,0:0:0:0:
256,192,25603,1,2,0:0:0:0:
256,192,25686,1,0,0:0:0:0:
256,192,25769,1,0,0:0:0:0:
256,192,25853,1,0,0:0:0:0:
256,192,26019,1,0,0:0:0:0:
256,192,26103,1,0,0:0:0:0:
256,192,26186,1,2,0:0:0:0:
256,192,26269,1,0,0:0:0:0:
256,192,26353,1,2,0:0:0:0:
256,192,26519,1,0,0:0:0:0:
256,192,26603,1,0,0:0:0:0:
256,192,26686,1,0,0:0:0:0:
256,192,26853,1,2,0:0:0:0:
256,192,26936,1,2,0:0:0:0:
256,192,27019,1,0,0:0:0:0:
256,192,27186,1,0,0:0:0:0:
256,192,27353,1,0,0:0:0:0:
256,192,27519,1,2,0:0:0:0:
256,192,27603,1,2,0:0:0:0:
256,192,27686,1,0,0:0:0:0:
256,192,27769,1,2,0:0:0:0:
256,192,27853,1,0,0:0:0:0:
256,192,28019,1,0,0:0:0:0:
256,192,28103,1,0,0:0:0:0:
256,192,28186,1,2,0:0:0:0:
256,192,28353,1,2,0:0:0:0:
256,192,28436,1,0,0:0:0:0:
256,192,28519,1,0,0:0:0:0:
256,192,28686,1,0,0:0:0:0:
256,192,28769,1,0,0:0:0:0:
256,192,28853,1,2,0:0:0:0:
256,192,29019,1,2,0:0:0:0:
256,192,29186,1,0,0:0:0:0:
256,192,29269,1,2,0:0:0:0:
256,192,29353,1,0,0:0:0:0:
256,192,29436,1,0,0:0:0:0:
256,192,29519,1,2,0:0:0:0:
256,192,29686,1,2,0:0:0:0:
256,192,29853,1,2,0:0:0:0:
256,192,29936,1,2,0:0:0:0:
256,192,30019,1,0,0:0:0:0:
256,192,30103,1,0,0:0:0:0:
256,192,30186,1,0,0:0:0:0:
256,192,30353,1,2,0:0:0:0:
256,192,30436,1,2,0:0:0:0:
256,192,30519,1,2,0:0:0:0:
256,192,30603,1,0,0:0:0:0:
256,192,30686,1,0,0:0:0:0:
256,192,30853,1,2,0:0:0:0:
256,192,31019,1,0,0:0:0:0:
256,192,31103,1,2,0:0:0:0:
256,192,31186,1,2,0:0:0:0:
256,192,31269,1,0,0:0:0:0:
256,192,31353,1,2,0:0:0:0:
256,192,31436,1,2,0:0:0:0:
256,192,31519,1,0,0:0:0:0:
256,192,31686,1,6,0:0:0:0:
256,192,31853,1,0,0:0:0:0:
256,192,32019,1,0,0:0:0:0:
256,192,32186,1,6,0:0:0:0:
256,192,32353,1,0,0:0:0:0:
256,192,32519,1,6,0:0:0:0:
256,192,32686,1,0,0:0:0:0:
256,192,32853,1,0,0:0:0:0:
256,192,33019,1,2,0:0:0:0:
256,192,33103,1,0,0:0:0:0:
256,192,33269,1,2,0:0:0:0:
256,192,33353,1,0,0:0:0:0:
256,192,33436,1,0,0:0:0:0:
256,192,33519,1,2,0:0:0:0:
256,192,33686,1,0,0:0:0:0:
256,192,33769,1,0,0:0:0:0:
256,192,33853,1,0,0:0:0:0:
256,192,34019,1,2,0:0:0:0:
256,192,34186,1,0,0:0:0:0:
256,192,34269,1,0,0:0:0:0:
256,192,34436,1,0,0:0:0:0:
256,192,34519,1,2,0:0:0:0:
256,192,34686,1,0,0:0:0:0:
256,192,34769,1,0,0:0:0:0:
256,192,34853,1,2,0:0:0:0:
256,192,35019,1,2,0:0:0:0:
256,192,35186,1,6,0:0:0:0:
256,192,35353,1,0,0:0:0:0:
256,192,35436,1,0,0:0:0:0:
256,192,35519,1,0,0:0:0:0:
256,192,35686,1,2,0:0:0:0:
256,192,35769,1,0,0:0:0:0:
256,192,35936,1,0,0:0:0:0:
256,192,36019,1,0,0:0:0:0:
256,192,36103,1,0,0:0:0:0:
256,192,36186,1,2,0:0:0:0:
256,192,36353,1,0,0:0:0:0:
256,192,36519,1,6,0:0:0:0:
256,192,36686,1,2,0:0:0:0:
256,192,36853,1,0,0:0:0:0:
256,192,36936,1,0,0:0:0:0:
256,192,37103,1,0,0:0:0:0:
256,192,37186,1,2,0:0:0:0:
256,192,37353,1,0,0:0:0:0:
256,192,37436,1,0,0:0:0:0:
256,192,37519,1,2,0:0:0:0:
256,192,37603,1,0,0:0:0:0:
256,192,37686,1,2,0:0:0:0:
256,192,37853,1,0,0:0:0:0:
256,192,37936,1,0,0:0:0:0:
256,192,38019,1,2,0:0:0:0:
256,192,38103,1,0,0:0:0:0:
256,192,38186,1,0,0:0:0:0:
256,192,38353,1,2,0:0:0:0:
256,192,38436,1,2,0:0:0:0:
256,192,38603,1,0,0:0:0:0:
256,192,38686,1,0,0:0:0:0:
256,192,38769,1,0,0:0:0:0:
256,192,38853,1,2,0:0:0:0:
256,192,39019,1,0,0:0:0:0:
256,192,39103,1,0,0:0:0:0:
256,192,39186,1,0,0:0:0:0:
256,192,39353,1,2,0:0:0:0:
256,192,39519,1,0,0:0:0:0:
256,192,39603,1,0,0:0:0:0:
256,192,39769,1,0,0:0:0:0:
256,192,39853,1,2,0:0:0:0:
256,192,40019,1,0,0:0:0:0:
256,192,40103,1,0,0:0:0:0:
256,192,40186,1,2,0:0:0:0:
256,192,40269,1,2,0:0:0:0:
256,192,40353,1,0,0:0:0:0:
256,192,40519,1,0,0:0:0:0:
256,192,40686,1,6,0:0:0:0:
256,192,40853,1,0,0:0:0:0:
256,192,41019,1,2,0:0:0:0:
256,192,41103,1,2,0:0:0:0:
256,192,41186,1,0,0:0:0:0:
256,192,41269,1,0,0:0:0:0:
256,192,41353,1,0,0:0:0:0:
256,192,41436,1,0,0:0:0:0:
256,192,41519,1,2,0:0:0:0:
256,192,41603,1,0,0:0:0:0:
256,192,41686,1,2,0:0:0:0:
256,192,41853,1,0,0:0:0:0:
256,192,42019,1,6,0:0:0:0:
256,192,42186,1,0,0:0:0:0:
256,192,42353,1,6,0:0:0:0:
256,192,42686,1,0,0:0:0:0:
256,192,42853,1,6,0:0:0:0:
256,192,43186,1,4,0:0:0:0:
256,192,43853,12,0,48186,0:0:0:0:
256,192,48519,5,0,0:0:0:0:
256,192,48686,1,2,0:0:0:0:
256,192,48853,1,0,0:0:0:0:
256,192,49019,1,2,0:0:0:0:
256,192,49353,1,0,0:0:0:0:
256,192,49686,1,2,0:0:0:0:
256,192,49853,1,0,0:0:0:0:
256,192,50019,1,2,0:0:0:0:
256,192,50186,1,0,0:0:0:0:
256,192,50353,1,2,0:0:0:0:
256,192,50686,1,2,0:0:0:0:
256,192,50853,1,0,0:0:0:0:
256,192,51019,1,2,0:0:0:0:
256,192,51186,1,2,0:0:0:0:
256,192,51353,1,0,0:0:0:0:
256,192,51686,1,0,0:0:0:0:
256,192,52019,1,0,0:0:0:0:
256,192,52186,1,0,0:0:0:0:
256,192,52353,1,2,0:0:0:0:
256,192,52519,1,2,0:0:0:0:
256,192,52686,1,0,0:0:0:0:
256,192,53019,1,0,0:0:0:0:
256,192,53353,1,0,0:0:0:0:
256,192,53519,1,2,0:0:0:0:
256,192,53686,1,0,0:0:0:0:
256,192,53853,1,0,0:0:0:0:
256,192,54019,1,2,0:0:0:0:
256,192,54186,1,0,0:0:0:0:
256,192,54353,1,2,0:0:0:0:
256,192,54686,1,0,0:0:0:0:
256,192,55019,1,2,0:0:0:0:
256,192,55186,1,0,0:0:0:0:
256,192,55353,1,2,0:0:0:0:
256,192,55519,1,0,0:0:0:0:
256,192,55686,1,2,0:0:0:0:
256,192,56019,1,2,0:0:0:0:
256,192,56186,1,0,0:0:0:0:
256,192,56353,1,2,0:0:0:0:
256,192,56519,1,2,0:0:0:0:
256,192,56686,1,2,0:0:0:0:
256,192,57019,1,0,0:0:0:0:
256,192,57353,1,0,0:0:0:0:
256,192,57519,1,0,0:0:0:0:
256,192,57686,1,0,0:0:0:0:
256,192,57853,1,2,0:0:0:0:
256,192,58019,1,0,0:0:0:0:
256,192,58353,1,2,0:0:0:0:
256,192,58686,1,2,0:0:0:0:
256,192,58853,1,0,0:0:0:0:
256,192,59019,1,2,0:0:0:0:
256,192,59103,1,2,0:0:0:0:
256,192,59186,1,0,0:0:0:0:
256,192,59353,1,0,0:0:0:0:
256,192,59519,1,2,0:0:0:0:
256,192,59686,1,0,0:0:0:0:
256,192,60019,1,2,0:0:0:0:
256,192,60186,1,0,0:0:0:0:
256,192,60353,1,2,0:0:0:0:
256,192,60519,1,0,0:0:0:0:
256,192,60686,1,0,0:0:0:0:
256,192,60769,1,0,0:0:0:0:
256,192,60853,1,2,0:0:0:0:
256,192,61019,1,2,0:0:0:0:
256,192,61353,1,0,0:0:0:0:
256,192,61519,1,2,0:0:0:0:
256,192,61686,1,2,0:0:0:0:
256,192,61853,1,2,0:0:0:0:
256,192,62019,1,0,0:0:0:0:
256,192,62103,1,0,0:0:0:0:
256,192,62186,1,2,0:0:0:0:
256,192,62353,1,0,0:0:0:0:
256,192,62686,1,0,0:0:0:0:
256,192,62853,1,2,0:0:0:0:
256,192,63019,1,2,0:0:0:0:
256,192,63186,1,2,0:0:0:0:
256,192,63353,1,0,0:0:0:0:
256,192,63436,1,0,0:0:0:0:
256,192,63519,1,2,0:0:0:0:
256,192,63686,1,0,0:0:0:0:
256,192,64019,1,0,0:0:0:0:
256,192,64186,1,2,0:0:0:0:
256,192,64353,1,0,0:0:0:0:
256,192,64519,1,0,0:0:0:0:
256,192,64686,1,0,0:0:0:0:
256,192,64769,1,0,0:0:0:0:
256,192,64853,1,2,0:0:0:0:
256,192,65019,1,2,0:0:0:0:
256,192,65353,1,0,0:0:0:0:
256,192,65519,1,2,0:0:0:0:
256,192,65686,1,2,0:0:0:0:
256,192,65853,1,0,0:0:0:0:
256,192,66019,1,0,0:0:0:0:
256,192,66103,1,0,0:0:0:0:
256,192,66186,1,2,0:0:0:0:
256,192,66353,1,2,0:0:0:0:
256,192,66686,1,0,0:0:0:0:
256,192,66853,1,2,0:0:0:0:
256,192,67019,1,2,0:0:0:0:
256,192,67186,1,2,0:0:0:0:
256,192,67353,1,0,0:0:0:0:
256,192,67436,1,0,0:0:0:0:
256,192,67519,1,2,0:0:0:0:
256,192,67686,1,0,0:0:0:0:
256,192,68019,1,0,0:0:0:0:
256,192,68186,1,0,0:0:0:0:
256,192,68353,1,0,0:0:0:0:
256,192,68519,1,2,0:0:0:0:
256,192,68686,1,2,0:0:0:0:
256,192,69019,1,0,0:0:0:0:
256,192,69353,1,2,0:0:0:0:
256,192,69519,1,0,0:0:0:0:
256,192,69686,1,2,0:0:0:0:
256,192,69853,1,6,0:0:0:0:
256,192,70103,1,0,0:0:0:0:
256,192,70353,1,6,0:0:0:0:
256,192,70603,1,0,0:0:0:0:
256,192,70853,1,6,0:0:0:0:
256,192,71019,1,0,0:0:0:0:
256,192,71186,1,2,0:0:0:0:
256,192,71269,1,0,0:0:0:0:
256,192,71353,1,2,0:0:0:0:
256,192,71519,1,2,0:0:0:0:
256,192,71603,1,0,0:0:0:0:
256,192,71686,1,2,0:0:0:0:
256,192,71769,1,2,0:0:0:0:
256,192,71853,1,0,0:0:0:0:
256,192,71936,1,0,0:0:0:0:
256,192,72019,1,2,0:0:0:0:
256,192,72103,1,0,0:0:0:0:
256,192,72186,1,2,0:0:0:0:
256,192,72269,1,0,0:0:0:0:
256,192,72353,1,2,0:0:0:0:
256,192,72436,1,2,0:0:0:0:
256,192,72519,5,0,0:0:0:0:
256,192,72686,1,0,0:0:0:0:
256,192,72853,1,2,0:0:0:0:
256,192,72936,1,0,0:0:0:0:
256,192,73019,1,2,0:0:0:0:
256,192,73103,1,2,0:0:0:0:
256,192,73186,1,0,0:0:0:0:
256,192,73269,1,2,0:0:0:0:
256,192,73353,1,0,0:0:0:0:
256,192,73436,1,0,0:0:0:0:
256,192,73519,1,2,0:0:0:0:
256,192,73603,1,0,0:0:0:0:
256,192,73686,1,2,0:0:0:0:
256,192,73853,1,0,0:0:0:0:
256,192,73936,1,2,0:0:0:0:
256,192,74019,1,0,0:0:0:0:
256,192,74103,1,0,0:0:0:0:
256,192,74186,1,2,0:0:0:0:
256,192,74269,1,0,0:0:0:0:
256,192,74353,1,2,0:0:0:0:
256,192,74519,1,2,0:0:0:0:
256,192,74603,1,2,0:0:0:0:
256,192,74686,1,0,0:0:0:0:
256,192,74769,1,0,0:0:0:0:
256,192,74853,1,2,0:0:0:0:
256,192,74936,1,0,0:0:0:0:
256,192,75019,1,2,0:0:0:0:
256,192,75186,1,2,0:0:0:0:
256,192,75269,1,0,0:0:0:0:
256,192,75353,1,2,0:0:0:0:
256,192,75436,1,0,0:0:0:0:
256,192,75519,1,0,0:0:0:0:
256,192,75603,1,0,0:0:0:0:
256,192,75686,1,2,0:0:0:0:
256,192,75853,1,0,0:0:0:0:
256,192,75936,1,0,0:0:0:0:
256,192,76019,1,2,0:0:0:0:
256,192,76103,1,0,0:0:0:0:
256,192,76186,1,2,0:0:0:0:
256,192,76269,1,0,0:0:0:0:
256,192,76353,1,2,0:0:0:0:
256,192,76436,1,2,0:0:0:0:
256,192,76519,1,2,0:0:0:0:
256,192,76603,1,0,0:0:0:0:
256,192,76686,1,2,0:0:0:0:
256,192,76853,1,0,0:0:0:0:
256,192,76936,1,0,0:0:0:0:
256,192,77019,1,2,0:0:0:0:
256,192,77103,1,0,0:0:0:0:
256,192,77186,1,0,0:0:0:0:
256,192,77269,1,2,0:0:0:0:
256,192,77353,1,2,0:0:0:0:
256,192,77436,1,0,0:0:0:0:
256,192,77519,1,2,0:0:0:0:
256,192,77603,1,0,0:0:0:0:
256,192,77686,1,2,0:0:0:0:
256,192,77853,1,0,0:0:0:0:
256,192,77936,1,0,0:0:0:0:
256,192,78019,1,2,0:0:0:0:
256,192,78103,1,0,0:0:0:0:
256,192,78186,1,0,0:0:0:0:
256,192,78353,1,2,0:0:0:0:
256,192,78436,1,2,0:0:0:0:
256,192,78519,1,0,0:0:0:0:
256,192,78603,1,2,0:0:0:0:
256,192,78686,1,2,0:0:0:0:
256,192,78769,1,0,0:0:0:0:
256,192,78853,1,2,0:0:0:0:
256,192,78936,1,0,0:0:0:0:
256,192,79019,1,2,0:0:0:0:
256,192,79103,1,2,0:0:0:0:
256,192,79186,1,0,0:0:0:0:
256,192,79269,1,0,0:0:0:0:
256,192,79353,1,2,0:0:0:0:
256,192,79436,1,0,0:0:0:0:
256,192,79519,1,0,0:0:0:0:
256,192,79686,1,2,0:0:0:0:
256,192,79769,1,0,0:0:0:0:
256,192,79853,1,0,0:0:0:0:
256,192,79936,1,2,0:0:0:0:
256,192,80019,1,2,0:0:0:0:
256,192,80103,1,0,0:0:0:0:
256,192,80186,1,2,0:0:0:0:
256,192,80269,1,0,0:0:0:0:
256,192,80353,1,2,0:0:0:0:
256,192,80436,1,0,0:0:0:0:
256,192,80519,1,2,0:0:0:0:
256,192,80603,1,2,0:0:0:0:
256,192,80686,1,2,0:0:0:0:
256,192,80853,1,0,0:0:0:0:
256,192,80936,1,0,0:0:0:0:
256,192,81019,1,2,0:0:0:0:
256,192,81103,1,2,0:0:0:0:
256,192,81186,1,0,0:0:0:0:
256,192,81269,1,0,0:0:0:0:
256,192,81353,1,2,0:0:0:0:
256,192,81436,1,0,0:0:0:0:
256,192,81519,1,2,0:0:0:0:
256,192,81603,1,0,0:0:0:0:
256,192,81686,1,2,0:0:0:0:
256,192,81769,1,0,0:0:0:0:
256,192,81853,1,2,0:0:0:0:
256,192,81936,1,2,0:0:0:0:
256,192,82019,1,2,0:0:0:0:
256,192,82186,1,0,0:0:0:0:
256,192,82353,1,6,0:0:0:0:
256,192,82519,1,0,0:0:0:0:
256,192,82603,1,0,0:0:0:0:
256,192,82686,1,0,0:0:0:0:
256,192,82853,1,6,0:0:0:0:
256,192,83019,1,0,0:0:0:0:
256,192,83186,1,6,0:0:0:0:
256,192,83353,1,0,0:0:0:0:
256,192,83519,1,2,0:0:0:0:
256,192,83603,1,0,0:0:0:0:
256,192,83686,1,2,0:0:0:0:
256,192,83769,1,0,0:0:0:0:
256,192,83936,1,0,0:0:0:0:
256,192,84019,1,2,0:0:0:0:
256,192,84103,1,2,0:0:0:0:
256,192,84186,1,0,0:0:0:0:
256,192,84353,1,2,0:0:0:0:
256,192,84519,1,2,0:0:0:0:
256,192,84603,1,0,0:0:0:0:
256,192,84686,1,2,0:0:0:0:
256,192,84853,1,0,0:0:0:0:
256,192,84936,1,0,0:0:0:0:
256,192,85019,1,2,0:0:0:0:
256,192,85103,1,0,0:0:0:0:
256,192,85269,1,2,0:0:0:0:
256,192,85353,1,2,0:0:0:0:
256,192,85436,1,0,0:0:0:0:
256,192,85519,1,2,0:0:0:0:
256,192,85686,1,2,0:0:0:0:
256,192,85853,1,2,0:0:0:0:
256,192,85936,1,0,0:0:0:0:
256,192,86019,1,2,0:0:0:0:
256,192,86186,1,0,0:0:0:0:
256,192,86269,1,0,0:0:0:0:
256,192,86353,1,2,0:0:0:0:
256,192,86436,1,0,0:0:0:0:
256,192,86603,1,0,0:0:0:0:
256,192,86686,1,2,0:0:0:0:
256,192,86769,1,0,0:0:0:0:
256,192,86853,1,2,0:0:0:0:
256,192,86936,1,0,0:0:0:0:
256,192,87019,1,2,0:0:0:0:
256,192,87186,1,2,0:0:0:0:
256,192,87269,1,0,0:0:0:0:
256,192,87353,1,2,0:0:0:0:
256,192,87436,1,0,0:0:0:0:
256,192,87519,1,0,0:0:0:0:
256,192,87603,1,0,0:0:0:0:
256,192,87686,1,2,0:0:0:0:
256,192,87769,1,0,0:0:0:0:
256,192,87936,1,0,0:0:0:0:
256,192,88019,1,2,0:0:0:0:
256,192,88103,1,0,0:0:0:0:
256,192,88186,1,2,0:0:0:0:
256,192,88269,1,2,0:0:0:0:
256,192,88353,1,0,0:0:0:0:
256,192,88519,1,2,0:0:0:0:
256,192,88603,1,0,0:0:0:0:
256,192,88686,1,2,0:0:0:0:
256,192,88769,1,0,0:0:0:0:
256,192,88853,1,0,0:0:0:0:
256,192,89019,1,2,0:0:0:0:
256,192,89103,1,0,0:0:0:0:
256,192,89269,1,0,0:0:0:0:
256,192,89353,1,2,0:0:0:0:
256,192,89519,1,2,0:0:0:0:
256,192,89603,1,0,0:0:0:0:
256,192,89686,1,2,0:0:0:0:
256,192,89853,1,0,0:0:0:0:
256,192,89936,1,0,0:0:0:0:
256,192,90019,1,2,0:0:0:0:
256,192,90103,1,0,0:0:0:0:
256,192,90269,1,0,0:0:0:0:
256,192,90353,1,2,0:0:0:0:
256,192,90519,1,0,0:0:0:0:
256,192,90603,1,0,0:0:0:0:
256,192,90686,1,2,0:0:0:0:
256,192,90853,1,2,0:0:0:0:
256,192,90936,1,0,0:0:0:0:
256,192,91019,1,2,0:0:0:0:
256,192,91103,1,0,0:0:0:0:
256,192,91186,1,2,0:0:0:0:
256,192,91269,1,0,0:0:0:0:
256,192,91353,1,2,0:0:0:0:
256,192,91519,1,0,0:0:0:0:
256,192,91603,1,0,0:0:0:0:
256,192,91686,1,2,0:0:0:0:
256,192,91853,1,0,0:0:0:0:
256,192,91936,1,0,0:0:0:0:
256,192,92019,1,2,0:0:0:0:
256,192,92103,1,0,0:0:0:0:
256,192,92186,1,2,0:0:0:0:
256,192,92269,1,2,0:0:0:0:
256,192,92353,1,0,0:0:0:0:
256,192,92436,1,0,0:0:0:0:
256,192,92519,1,2,0:0:0:0:
256,192,92603,1,2,0:0:0:0:
256,192,92686,1,0,0:0:0:0:
256,192,92769,1,0,0:0:0:0:
256,192,92853,1,0,0:0:0:0:
256,192,93019,1,6,0:0:0:0:
256,192,93186,1,0,0:0:0:0:
256,192,93269,1,0,0:0:0:0:
256,192,93353,1,2,0:0:0:0:
256,192,93519,1,6,0:0:0:0:
256,192,93686,1,0,0:0:0:0:
256,192,93853,1,6,0:0:0:0:
