osu file format v14

[General]
AudioFilename: audio.mp3
AudioLeadIn: 0
PreviewTime: 0
Countdown: 1
SampleSet: Normal
StackLeniency: 0.3
Mode: 0
LetterboxInBreaks: 0
EpilepsyWarning: 1
WidescreenStoryboard: 1

[Editor]
Bookmarks: 5886,64061
DistanceSpacing: 1.3
BeatDivisor: 3
GridSize: 4
TimelineZoom: 1

[Metadata]
Title:Chaoz Japan
TitleUnicode:Chaoz Japan
Artist:ParagonX9
ArtistUnicode:ParagonX9
Creator:fdsfd
Version:Final
Source:Castle Crashers
Tags:newgrounds
BeatmapID:1233127
BeatmapSetID:582654

[Difficulty]
HPDrainRate:6
CircleSize:4
OverallDifficulty:8.8
ApproachRate:9.4
SliderMultiplier:1.6
SliderTickRate:1

[Events]
//Background and Video events
0,0,"castle crashers.jpg",0,0
//Break Periods
2,35340,38793
//Storyboard Layer 0 (Background)
//Storyboard Layer 1 (Fail)
//Storyboard Layer 2 (Pass)
//Storyboard Layer 3 (Foreground)
//Storyboard Sound Samples

[TimingPoints]
61,363.636363636364,4,1,1,50,1,0
5879,-80,4,1,1,65,0,0
10970,-80,4,1,1,25,0,0
11697,-80,4,1,1,65,0,0
17333,-133.333333333333,4,1,1,50,0,0
17697,-80,4,1,1,65,0,0
23333,-66.6666666666667,4,1,1,70,0,1
34970,-66.6666666666667,4,1,1,70,0,0
39333,-80,4,1,1,65,0,0
51697,-100,4,1,1,40,0,0
52424,-80,4,1,1,65,0,0

[Colours]
Combo1 : 255,128,64
Combo2 : 255,0,0
Combo3 : 128,128,255
Combo4 : 0,200,0

[HitObjects]
107,162,61,6,0,L|105:249,1,79.9999999999999
171,122,333,1,0,0:0:0:0:
104,85,424,1,8,0:0:0:0:
231,222,606,1,8,0:0:0:0:
250,220,696,1,0,0:0:0:0:
270,218,787,1,8,0:0:0:0:
290,216,878,1,8,0:0:0:0:
310,214,969,1,2,0:0:0:0:
274,37,1151,2,0,L|272:124,1,79.9999999999999,4|2,0:0|0:0,0:0:0:0:
308,294,1515,6,0,L|310:207,1,79.9999999999999,0|8,0:0|0:0,0:0:0:0:
191,224,1879,2,0,L|189:137,1,79.9999999999999,0|8,0:0|0:0,0:0:0:0:
320,57,2242,1,8,0:0:0:0:
347,127,2333,1,8,0:0:0:0:
271,114,2424,1,2,0:0:0:0:
436,56,2606,2,0,L|438:143,1,79.9999999999999,4|8,0:0|0:0,0:0:0:0:
308,294,2970,6,0,L|306:207,1,79.9999999999999,0|8,0:0|0:0,0:0:0:0:
239,83,3333,1,8,0:0:0:0:
229,158,3424,1,8,0:0:0:0:
298,128,3515,1,2,0:0:0:0:
148,100,3697,1,8,0:0:0:0:
147,119,3787,1,0,0:0:0:0:
147,139,3878,1,8,0:0:0:0:
146,159,3969,1,8,0:0:0:0:
146,179,4060,1,2,0:0:0:0:
333,167,4242,5,4,0:0:0:0:
60,190,4424,1,0,0:0:0:0:
333,167,4606,6,0,L|431:193,1,80,8|0,0:0|0:0,0:0:0:0:
209,79,4970,1,8,0:0:0:0:
196,267,5151,1,8,0:0:0:0:
261,228,5242,1,0,0:0:0:0:
244,154,5333,1,8,0:0:0:0:
168,148,5424,1,8,0:0:0:0:
139,218,5515,1,2,0:0:0:0:
341,94,5697,1,4,0:0:0:0:
341,94,5879,5,8,0:0:0:0:
374,130,5969,1,0,0:0:0:0:
385,178,6060,1,0,0:0:0:0:
372,226,6151,1,0,0:0:0:0:
337,261,6242,1,8,0:0:0:0:
290,275,6333,1,0,0:0:0:0:
241,264,6424,1,0,0:0:0:0:
204,231,6515,1,0,0:0:0:0:
188,185,6606,5,8,0:0:0:0:
218,224,6696,1,0,0:0:0:0:
220,273,6787,1,0,0:0:0:0:
193,314,6878,1,0,0:0:0:0:
147,331,6969,1,8,0:0:0:0:
100,318,7060,1,0,0:0:0:0:
69,280,7151,1,0,0:0:0:0:
67,230,7242,1,0,0:0:0:0:
93,189,7333,5,8,0:0:0:0:
125,227,7423,1,0,0:0:0:0:
166,256,7514,1,0,0:0:0:0:
213,274,7605,1,0,0:0:0:0:
262,279,7696,1,8,0:0:0:0:
312,272,7787,1,0,0:0:0:0:
357,252,7878,1,0,0:0:0:0:
397,221,7969,1,0,0:0:0:0:
427,182,8061,5,8,0:0:0:0:
381,164,8151,1,0,0:0:0:0:
333,174,8242,1,0,0:0:0:0:
299,210,8333,1,0,0:0:0:0:
291,259,8424,1,8,0:0:0:0:
311,304,8515,1,0,0:0:0:0:
353,330,8606,1,0,0:0:0:0:
402,328,8697,1,0,0:0:0:0:
441,299,8788,5,8,0:0:0:0:
394,280,8878,1,0,0:0:0:0:
345,278,8969,1,0,0:0:0:0:
297,292,9060,1,0,0:0:0:0:
253,316,9151,1,8,0:0:0:0:
207,335,9242,1,0,0:0:0:0:
157,340,9333,1,0,0:0:0:0:
109,330,9424,1,0,0:0:0:0:
65,306,9515,5,8,0:0:0:0:
93,265,9605,1,0,0:0:0:0:
133,235,9696,1,0,0:0:0:0:
180,219,9787,1,0,0:0:0:0:
230,218,9878,1,8,0:0:0:0:
278,233,9969,1,0,0:0:0:0:
318,262,10060,1,0,0:0:0:0:
348,302,10151,1,0,0:0:0:0:
364,349,10242,5,2,0:0:0:0:
321,314,10332,1,0,0:0:0:0:
292,266,10423,1,8,0:0:0:0:
283,211,10514,1,0,0:0:0:0:
294,156,10605,1,2,0:0:0:0:
324,108,10696,1,0,0:0:0:0:
368,75,10787,1,8,0:0:0:0:
422,60,10878,1,0,0:0:0:0:
478,65,10969,5,2,0:0:0:0:
424,115,11060,1,8,0:0:0:0:
353,140,11151,1,2,0:0:0:0:
279,134,11242,1,8,0:0:0:0:
214,99,11333,1,2,0:0:0:0:
214,99,11697,6,0,P|202:151|210:205,1,100,0|8,0:0|0:0,0:0:0:0:
348,326,12061,2,0,P|360:274|352:220,1,100,0|8,0:0|0:0,0:0:0:0:
178,301,12424,1,8,0:0:0:0:
178,301,12515,1,8,0:0:0:0:
178,301,12606,1,8,0:0:0:0:
315,169,12788,1,2,0:0:0:0:
397,340,12970,1,8,0:0:0:0:
230,239,13151,6,0,P|218:187|226:133,1,100,0|8,0:0|0:0,0:0:0:0:
364,12,13515,2,0,P|376:64|368:118,1,100,0|8,0:0|0:0,0:0:0:0:
187,53,13879,1,8,0:0:0:0:
187,53,13970,1,8,0:0:0:0:
187,53,14061,1,8,0:0:0:0:
153,239,14242,1,2,0:0:0:0:
325,157,14424,1,8,0:0:0:0:
164,151,14606,6,0,P|115:146|67:158,1,100,0|8,0:0|0:0,0:0:0:0:
196,298,14970,2,0,P|245:303|294:292,1,100,0|8,0:0|0:0,0:0:0:0:
244,108,15333,1,8,0:0:0:0:
244,108,15424,1,8,0:0:0:0:
244,108,15515,1,8,0:0:0:0:
377,243,15697,1,2,0:0:0:0:
196,298,15879,1,8,0:0:0:0:
325,157,16061,6,0,P|374:151|422:163,1,100,0|8,0:0|0:0,0:0:0:0:
293,304,16425,2,0,P|243:309|195:297,1,100,0|8,0:0|0:0,0:0:0:0:
355,75,16788,1,8,0:0:0:0:
386,113,16878,1,0,0:0:0:0:
401,160,16969,1,8,0:0:0:0:
397,210,17060,1,8,0:0:0:0:
375,255,17151,1,2,0:0:0:0:
130,157,17333,1,8,0:0:0:0:
135,164,17515,5,4,0:0:0:0:
397,210,17697,2,0,L|408:107,1,100,8|0,0:0|0:0,0:0:0:0:
285,260,18061,1,8,0:0:0:0:
285,260,18151,1,8,0:0:0:0:
285,260,18242,1,8,0:0:0:0:
219,81,18424,1,2,0:0:0:0:
407,111,18606,1,8,0:0:0:0:
219,81,18788,1,2,0:0:0:0:
285,260,18970,6,0,L|295:156,1,100,0|8,0:0|0:0,0:0:0:0:
451,52,19333,2,0,L|440:155,1,100,0|8,0:0|0:0,0:0:0:0:
271,62,19697,1,8,0:0:0:0:
271,62,19788,1,8,0:0:0:0:
271,62,19879,1,8,0:0:0:0:
225,243,20061,1,2,0:0:0:0:
408,193,20242,1,8,0:0:0:0:
222,150,20424,6,0,L|118:139,1,100,0|8,0:0|0:0,0:0:0:0:
245,285,20788,2,0,L|348:295,1,100,0|8,0:0|0:0,0:0:0:0:
315,107,21151,1,8,0:0:0:0:
315,107,21242,1,8,0:0:0:0:
315,107,21333,1,8,0:0:0:0:
430,258,21515,1,2,0:0:0:0:
245,285,21697,1,8,0:0:0:0:
385,157,21879,6,0,L|488:146,1,100,0|8,0:0|0:0,0:0:0:0:
362,292,22243,2,0,L|258:302,1,100,0|8,0:0|0:0,0:0:0:0:
137,172,22606,1,2,0:0:0:0:
211,164,22696,1,0,0:0:0:0:
286,157,22787,1,2,0:0:0:0:
360,150,22878,1,8,0:0:0:0:
435,143,22969,1,2,0:0:0:0:
435,143,23333,5,2,0:0:0:0:
474,187,23423,1,0,0:0:0:0:
481,245,23514,1,0,0:0:0:0:
452,297,23605,1,0,0:0:0:0:
398,322,23696,1,8,0:0:0:0:
340,310,23787,1,0,0:0:0:0:
300,268,23878,1,0,0:0:0:0:
292,209,23970,1,0,0:0:0:0:
319,157,24060,5,2,0:0:0:0:
358,200,24151,1,0,0:0:0:0:
364,259,24242,1,0,0:0:0:0:
335,311,24333,1,0,0:0:0:0:
282,335,24424,1,8,0:0:0:0:
224,324,24515,1,0,0:0:0:0:
183,282,24606,1,0,0:0:0:0:
175,223,24697,1,0,0:0:0:0:
202,171,24788,5,2,0:0:0:0:
223,115,24878,1,0,0:0:0:0:
211,57,24969,1,0,0:0:0:0:
170,15,25060,1,0,0:0:0:0:
112,3,25151,1,8,0:0:0:0:
143,54,25241,1,0,0:0:0:0:
191,89,25332,1,0,0:0:0:0:
248,105,25423,1,0,0:0:0:0:
307,98,25514,5,2,0:0:0:0:
381,96,25605,1,0,0:0:0:0:
437,143,25696,1,8,0:0:0:0:
448,215,25787,1,0,0:0:0:0:
408,277,25879,1,2,0:0:0:0:
353,227,25969,1,0,0:0:0:0:
281,212,26060,1,8,0:0:0:0:
210,236,26151,1,0,0:0:0:0:
162,293,26242,6,0,L|94:301,3,60.0000022888184,2|0|0|0,0:0|0:0|0:0|0:0,0:0:0:0:
163,201,26606,2,0,L|231:208,3,60.0000022888184,8|0|0|0,0:0|0:0|0:0|0:0,0:0:0:0:
287,112,26970,2,0,L|218:119,3,60.0000022888184,2|0|0|0,0:0|0:0|0:0|0:0,0:0:0:0:
287,20,27334,2,0,L|355:27,3,60.0000022888184,8|0|0|0,0:0|0:0|0:0|0:0,0:0:0:0:
430,103,27697,5,2,0:0:0:0:
451,157,27787,1,0,0:0:0:0:
434,213,27878,1,0,0:0:0:0:
385,245,27969,1,0,0:0:0:0:
326,239,28060,1,8,0:0:0:0:
267,232,28152,1,0,0:0:0:0:
218,264,28243,1,0,0:0:0:0:
200,320,28334,1,0,0:0:0:0:
222,375,28424,5,2,0:0:0:0:
253,307,28514,1,0,0:0:0:0:
244,234,28605,1,8,0:0:0:0:
199,175,28696,1,0,0:0:0:0:
130,149,28788,1,2,0:0:0:0:
180,204,28878,1,0,0:0:0:0:
250,226,28969,1,8,0:0:0:0:
323,209,29061,1,0,0:0:0:0:
377,159,29151,6,8,L|378:127,1,30.0000011444092,8|4,0:0|0:0,0:0:0:0:
364,216,29242,2,0,L|373:185,1,30.0000011444092,8|4,0:0|0:0,0:0:0:0:
324,261,29332,1,2,0:0:0:0:
269,281,29423,1,0,0:0:0:0:
210,273,29514,1,8,0:0:0:0:
163,237,29605,1,0,0:0:0:0:
138,183,29696,1,0,0:0:0:0:
142,124,29787,1,0,0:0:0:0:
174,74,29878,5,2,0:0:0:0:
222,109,29969,1,0,0:0:0:0:
242,165,30060,1,0,0:0:0:0:
228,222,30151,1,0,0:0:0:0:
185,263,30242,1,8,0:0:0:0:
127,273,30333,1,0,0:0:0:0:
72,250,30424,1,0,0:0:0:0:
40,200,30515,1,0,0:0:0:0:
40,141,30606,5,2,0:0:0:0:
83,182,30696,1,0,0:0:0:0:
98,239,30787,1,0,0:0:0:0:
83,296,30878,1,0,0:0:0:0:
40,338,30970,1,8,0:0:0:0:
55,281,31060,1,0,0:0:0:0:
103,247,31151,1,0,0:0:0:0:
161,252,31242,1,0,0:0:0:0:
202,294,31333,5,2,0:0:0:0:
271,309,31423,1,0,0:0:0:0:
313,251,31514,1,8,0:0:0:0:
277,190,31605,1,0,0:0:0:0:
207,198,31697,1,2,0:0:0:0:
137,212,31787,1,0,0:0:0:0:
96,155,31878,1,8,0:0:0:0:
131,94,31969,1,0,0:0:0:0:
202,102,32061,6,0,L|263:88,3,60.0000022888184,2|0|0|0,0:0|0:0|0:0|0:0,0:0:0:0:
196,183,32424,2,0,L|135:169,3,60.0000022888184,8|0|0|0,0:0|0:0|0:0|0:0,0:0:0:0:
201,265,32788,2,0,L|262:251,3,60.0000022888184,2|0|0|0,0:0|0:0|0:0|0:0,0:0:0:0:
198,347,33151,2,0,L|139:333,3,60.0000022888184,8|0|0|0,0:0|0:0|0:0|0:0,0:0:0:0:
32,291,33515,5,2,0:0:0:0:
73,230,33605,1,0,0:0:0:0:
143,206,33696,1,8,0:0:0:0:
213,229,33787,1,0,0:0:0:0:
254,290,33879,5,2,0:0:0:0:
295,350,33969,1,0,0:0:0:0:
365,374,34060,1,8,0:0:0:0:
435,351,34151,1,0,0:0:0:0:
476,290,34242,5,2,0:0:0:0:
417,245,34332,1,0,0:0:0:0:
395,174,34423,1,8,0:0:0:0:
417,104,34514,1,0,0:0:0:0:
476,59,34605,5,2,0:0:0:0:
431,127,34696,1,8,0:0:0:0:
356,160,34787,1,2,0:0:0:0:
276,149,34878,1,8,0:0:0:0:
213,97,34969,1,2,0:0:0:0:
111,291,39333,6,0,B|157:270|187:225|187:225|205:271|255:301,2,200,8|8|8,0:0|0:0|0:0,0:0:0:0:
97,196,40424,1,8,0:0:0:0:
270,203,40667,1,8,0:0:0:0:
339,254,40788,1,0,0:0:0:0:
97,196,41151,1,8,0:0:0:0:
270,203,41394,5,0,0:0:0:0:
339,254,41515,1,8,0:0:0:0:
252,281,41636,1,8,0:0:0:0:
226,190,41757,5,0,0:0:0:0:
320,165,41879,1,8,0:0:0:0:
322,340,42000,1,8,0:0:0:0:
252,105,42121,1,8,0:0:0:0:
489,194,42242,6,0,B|465:227|467:291|467:291|415:310|385:370,2,200,8|8|8,0:0|0:0|0:0,0:0:0:0:
489,194,43333,1,8,0:0:0:0:
310,93,43576,1,8,0:0:0:0:
283,175,43697,1,0,0:0:0:0:
489,194,44061,1,8,0:0:0:0:
310,93,44303,5,0,0:0:0:0:
370,155,44424,1,8,0:0:0:0:
219,189,44545,1,8,0:0:0:0:
310,93,44667,5,0,0:0:0:0:
278,253,44788,1,8,0:0:0:0:
223,104,44909,1,8,0:0:0:0:
454,134,45030,1,0,0:0:0:0:
193,269,45151,1,8,0:0:0:0:
356,214,45394,5,0,0:0:0:0:
278,253,45515,2,0,B|213:267|213:267|71:220,2,200,2|8|8,0:0|0:0|0:0,0:0:0:0:
213,91,46485,1,8,0:0:0:0:
246,170,46606,1,0,0:0:0:0:
278,253,46970,1,8,0:0:0:0:
213,91,47212,5,0,0:0:0:0:
278,253,47333,1,8,0:0:0:0:
309,106,47454,1,8,0:0:0:0:
186,238,47576,1,0,0:0:0:0:
361,194,47697,5,8,0:0:0:0:
138,151,47818,1,8,0:0:0:0:
404,114,47939,1,0,0:0:0:0:
91,233,48061,2,0,B|58:235|14:210|14:210|60:161|44:94,2,200,8|8|8,0:0|0:0|0:0,0:0:0:0:
91,233,49151,1,8,0:0:0:0:
225,122,49394,5,0,0:0:0:0:
140,141,49515,1,8,0:0:0:0:
199,203,49636,1,8,0:0:0:0:
171,63,49757,5,0,0:0:0:0:
119,220,49879,1,8,0:0:0:0:
280,185,50000,1,8,0:0:0:0:
59,153,50121,5,0,0:0:0:0:
175,278,50242,1,8,0:0:0:0:
250,46,50364,1,8,0:0:0:0:
175,278,50485,5,8,0:0:0:0:
91,74,50606,1,8,0:0:0:0:
312,113,50727,1,2,0:0:0:0:
91,296,50848,1,4,0:0:0:0:
256,232,51879,6,8,L|256:323,1,80
202,161,52424,6,0,P|172:202|183:272,1,100,0|8,0:0|0:0,0:0:0:0:
274,107,52788,2,0,P|233:77|163:88,1,100,0|8,0:0|0:0,0:0:0:0:
309,221,53151,1,8,0:0:0:0:
334,219,53241,1,0,0:0:0:0:
359,218,53332,1,8,0:0:0:0:
384,216,53423,1,8,0:0:0:0:
408,215,53514,1,2,0:0:0:0:
336,108,53697,1,8,0:0:0:0:
260,282,53879,6,0,P|205:295|150:283,1,100,0|8,0:0|0:0,0:0:0:0:
238,114,54242,2,0,P|293:101|348:113,1,100,0|8,0:0|0:0,0:0:0:0:
158,181,54606,1,8,0:0:0:0:
140,163,54696,1,0,0:0:0:0:
129,141,54787,1,8,0:0:0:0:
124,116,54878,1,8,0:0:0:0:
126,91,54969,1,2,0:0:0:0:
282,199,55151,1,8,0:0:0:0:
162,256,55333,6,0,P|155:305|170:353,1,100,0|8,0:0|0:0,0:0:0:0:
282,199,55697,2,0,P|288:149|274:102,1,100,0|8,0:0|0:0,0:0:0:0:
250,292,56061,1,8,0:0:0:0:
274,297,56151,1,0,0:0:0:0:
299,297,56242,1,8,0:0:0:0:
323,291,56333,1,8,0:0:0:0:
345,279,56424,1,2,0:0:0:0:
291,97,56606,1,8,0:0:0:0:
211,198,56788,5,0,0:0:0:0:
430,165,56970,1,8,0:0:0:0:
435,189,57060,1,8,0:0:0:0:
440,214,57151,1,8,0:0:0:0:
312,171,57333,1,8,0:0:0:0:
321,220,57423,1,8,0:0:0:0:
330,269,57514,1,8,0:0:0:0:
199,180,57697,1,8,0:0:0:0:
209,254,57787,1,8,0:0:0:0:
220,328,57878,1,8,0:0:0:0:
74,187,58061,5,0,0:0:0:0:
74,187,58242,1,0,0:0:0:0:
312,171,58424,6,0,L|329:283,1,100,8|0,0:0|0:0,0:0:0:0:
202,125,58788,1,8,0:0:0:0:
392,123,58970,1,8,0:0:0:0:
402,145,59060,1,0,0:0:0:0:
406,170,59151,1,8,0:0:0:0:
403,194,59242,1,8,0:0:0:0:
394,218,59333,1,2,0:0:0:0:
297,54,59515,1,8,0:0:0:0:
193,213,59697,6,0,P|143:234|88:228,1,100,0|8,0:0|0:0,0:0:0:0:
202,72,60061,2,0,P|252:51|307:57,1,100,0|8,0:0|0:0,0:0:0:0:
278,243,60424,1,8,0:0:0:0:
266,220,60514,1,0,0:0:0:0:
260,196,60605,1,8,0:0:0:0:
260,171,60696,1,8,0:0:0:0:
264,146,60787,1,2,0:0:0:0:
450,163,60970,1,8,0:0:0:0:
359,328,61151,6,0,L|371:226,1,100,0|8,0:0|0:0,0:0:0:0:
267,67,61515,2,0,L|279:169,1,100,0|8,0:0|0:0,0:0:0:0:
187,326,61879,1,8,0:0:0:0:
190,302,61969,1,0,0:0:0:0:
193,277,62060,1,8,0:0:0:0:
196,252,62151,1,8,0:0:0:0:
199,227,62242,1,2,0:0:0:0:
231,102,62424,1,0,0:0:0:0:
332,186,62606,5,0,0:0:0:0:
93,57,62789,1,8,0:0:0:0:
117,58,62879,1,8,0:0:0:0:
142,59,62970,1,8,0:0:0:0:
83,162,63151,1,8,0:0:0:0:
132,163,63241,1,8,0:0:0:0:
182,165,63332,1,8,0:0:0:0:
76,288,63515,1,8,0:0:0:0:
150,289,63605,1,8,0:0:0:0:
225,291,63696,1,8,0:0:0:0:
400,211,63879,1,0,0:0:0:0:
276,72,64061,5,0,0:0:0:0:
344,296,64242,1,8,0:0:0:0:
416,67,64424,5,0,0:0:0:0:
227,198,64606,1,8,0:0:0:0:
458,194,64788,5,0,0:0:0:0:
276,72,64970,1,8,0:0:0:0:
458,194,65151,5,0,0:0:0:0:
227,198,65333,1,8,0:0:0:0:
431,239,65515,5,0,0:0:0:0:
216,209,65697,1,8,0:0:0:0:
448,146,65879,5,0,0:0:0:0:
206,222,66061,1,8,0:0:0:0:
418,62,66242,5,0,0:0:0:0:
199,236,66424,1,8,0:0:0:0:
325,25,66606,5,0,0:0:0:0:
192,254,66788,1,8,0:0:0:0:
88,107,66970,5,0,0:0:0:0:
187,269,67151,1,8,0:0:0:0:
72,120,67333,5,0,0:0:0:0:
287,100,67515,1,8,0:0:0:0:
109,222,67697,5,0,0:0:0:0:
287,100,67879,1,8,0:0:0:0:
46,135,68061,5,0,0:0:0:0:
309,220,68242,1,8,0:0:0:0:
244,343,68424,5,0,0:0:0:0:
142,116,68606,1,8,0:0:0:0:
154,278,68788,5,0,0:0:0:0:
284,78,68970,1,8,0:0:0:0:
407,251,69151,5,0,0:0:0:0:
124,209,69333,1,8,0:0:0:0:
392,130,69515,5,0,0:0:0:0:
123,300,69697,1,8,0:0:0:0:
407,251,69879,6,8,L|432:237,1,25
400,244,69970,2,8,L|425:230,1,25
394,235,70061,1,4,0:0:0:0:
371,61,70242,1,0,0:0:0:0:
209,195,70424,1,8,0:0:0:0:
480,130,70606,5,0,0:0:0:0:
246,82,70788,1,8,0:0:0:0:
419,47,70970,5,0,0:0:0:0:
287,249,71151,1,8,0:0:0:0:
449,235,71333,5,0,0:0:0:0:
202,177,71515,1,8,0:0:0:0:
419,47,71697,5,0,0:0:0:0:
188,170,71879,1,8,0:0:0:0:
370,208,72061,5,0,0:0:0:0:
99,150,72242,1,8,0:0:0:0:
209,37,72424,5,0,0:0:0:0:
247,326,72606,1,8,0:0:0:0:
133,288,72788,5,0,0:0:0:0:
344,326,72970,1,8,0:0:0:0:
217,160,73151,5,0,0:0:0:0:
358,333,73333,1,8,0:0:0:0:
378,143,73515,5,0,0:0:0:0:
375,342,73697,1,8,0:0:0:0:
204,142,73879,5,0,0:0:0:0:
388,353,74061,1,8,0:0:0:0:
119,287,74242,5,0,0:0:0:0:
274,116,74424,1,8,0:0:0:0:
375,342,74606,5,0,0:0:0:0:
92,152,74788,1,8,0:0:0:0:
420,152,74970,5,0,0:0:0:0:
158,342,75151,1,8,0:0:0:0:
258,34,75333,5,0,0:0:0:0:
358,342,75515,1,8,0:0:0:0:
256,192,75697,5,0,0:0:0:0:
