osu file format v14

[General]
AudioFilename: JAPAN.mp3
AudioLeadIn: 0
PreviewTime: 0
Countdown: 0
SampleSet: Normal
StackLeniency: 0.7
Mode: 2
LetterboxInBreaks: 0
WidescreenStoryboard: 0

[Editor]
DistanceSpacing: 1.2
BeatDivisor: 4
GridSize: 16
TimelineZoom: 1.3

[Metadata]
Title:Chaoz Japan
TitleUnicode:Chaoz Japan
Artist:ParagonX9
ArtistUnicode:ParagonX9
Creator:Razor Sharp
Version:Platter
Source:
Tags:JBHyperion newgrounds Castle Crashers Dan Paladin Synj The Behemoth
BeatmapID:986937
BeatmapSetID:460789

[Difficulty]
HPDrainRate:5
CircleSize:3.5
OverallDifficulty:8.2
ApproachRate:8.2
SliderMultiplier:1.8
SliderTickRate:2

[Events]
//Background and Video events
0,0,"NeonCityscape.jpg",0,0
//Break Periods
//Storyboard Layer 0 (Background)
//Storyboard Layer 1 (Fail)
//Storyboard Layer 2 (Pass)
//Storyboard Layer 3 (Foreground)
//Storyboard Sound Samples

[TimingPoints]
0,363.636363636364,4,1,1,35,1,0
11636,-100,4,1,1,55,0,1
11681,-100,4,1,1,55,0,0
23272,-100,4,1,0,55,0,1
34909,-100,4,1,0,55,0,0
39272,-100,4,2,0,55,0,0
51818,-100,4,1,1,55,0,0
52363,-100,4,1,1,55,0,1
64000,-100,4,1,1,55,0,0
75636,-100,4,1,0,55,0,1
87272,-100,4,1,1,55,0,0
87454,-100,4,1,1,50,0,0
88000,-100,4,1,1,45,0,0
88545,-100,4,1,1,25,0,0
89090,-100,4,1,1,15,0,0
89818,-100,4,1,1,5,0,0

[Colours]
Combo1 : 255,255,255
Combo2 : 0,255,64
Combo3 : 0,128,192
Combo4 : 255,51,51

[HitObjects]
160,208,0,6,0,L|64:208,1,90,6|0,0:0|0:0,0:0:0:0:
160,160,363,2,0,L|272:160,1,90,0|0,0:0|0:0,0:0:0:0:
352,160,727,2,0,L|240:160,1,90,2|0,0:0|0:0,0:0:0:0:
352,112,1090,2,0,L|448:112,1,90,0|0,0:0|0:0,0:0:0:0:
304,112,1454,6,0,P|272:160|272:208,1,90,2|0,0:0|0:0,0:0:0:0:
384,192,1818,1,8,0:0:0:0:
240,192,2000,1,0,0:0:0:0:
352,192,2181,2,0,P|384:240|384:288,1,90,2|0,0:0|0:0,0:0:0:0:
272,272,2545,1,0,0:0:0:0:
416,272,2727,1,0,0:0:0:0:
240,272,2909,6,0,L|128:272,1,90,2|0,0:0|0:0,0:0:0:0:
48,272,3272,2,0,L|32:176,1,90,0|0,0:0|0:0,0:0:0:0:
144,176,3636,2,0,L|160:80,1,90,2|0,0:0|0:0,0:0:0:0:
16,96,4000,2,0,L|128:96,1,90,0|0,0:0|0:0,0:0:0:0:
272,96,4363,6,0,L|384:96,1,90,2|0,0:0|0:0,0:0:0:0:
192,144,4727,2,0,L|304:144,1,90,8|0,0:0|0:0,0:0:0:0:
112,208,5090,2,0,L|16:208,3,90,2|0|8|0,0:0|0:0|0:0|0:0,0:0:0:0:
192,208,5818,6,0,L|384:208,1,180,6|8,0:0|0:0,0:0:0:0:
224,144,6363,1,0,0:0:0:0:
400,144,6545,2,0,L|208:144,1,180,2|8,0:0|0:0,0:0:0:0:
368,80,7090,1,0,0:0:0:0:
192,80,7272,6,0,P|144:96|80:224,1,180,2|8,0:0|0:0,0:0:0:0:
224,192,7818,1,0,0:0:0:0:
400,192,8000,2,0,P|448:176|512:48,1,180,2|8,0:0|0:0,0:0:0:0:
368,80,8546,1,0,0:0:0:0:
192,80,8727,6,0,L|384:80,1,180,2|8,0:0|0:0,0:0:0:0:
192,144,9272,1,0,0:0:0:0:
80,208,9454,2,0,L|272:208,1,180,2|8,0:0|0:0,0:0:0:0:
112,272,10000,1,0,0:0:0:0:
256,272,10181,6,0,L|288:160,1,90,2|0,0:0|0:0,0:0:0:0:
128,192,10545,2,0,L|96:80,1,90,8|0,0:0|0:0,0:0:0:0:
288,96,10909,1,2,0:0:0:0:
320,96,11636,6,0,P|368:112|432:224,2,180,6|8|2,0:0|0:0|0:0,0:0:0:0:
176,96,12545,1,2,0:0:0:0:
272,128,12727,1,8,0:0:0:0:
112,176,12909,1,8,0:0:0:0:
288,224,13090,6,0,P|336:224|432:128,2,180,2|8|2,0:0|0:0|0:0,0:0:0:0:
128,224,14000,2,0,L|0:224,2,90,2|8|0,0:0|0:0|0:0,0:0:0:0:
448,224,14545,6,0,L|464:128,1,90,6|0,0:0|0:0,0:0:0:0:
352,128,14909,2,0,L|336:224,1,90,8|0,0:0|0:0,0:0:0:0:
480,224,15272,2,0,P|384:224|352:320,1,180,2|8,0:0|0:0,0:0:0:0:
464,304,15818,1,8,0:0:0:0:
32,160,16000,6,0,L|16:256,1,90,2|0,0:0|0:0,0:0:0:0:
160,256,16364,2,0,L|176:160,1,90,8|0,0:0|0:0,0:0:0:0:
48,160,16727,2,0,L|256:160,1,180,2|8,0:0|0:0,0:0:0:0:
272,256,17273,1,8,0:0:0:0:
384,224,17454,6,0,L|448:320,1,90,2|4,0:0|0:0,0:0:0:0:
336,256,17818,2,0,L|256:160,1,90,8|8,0:0|0:0,0:0:0:0:
464,208,18181,1,2,0:0:0:0:
304,192,18363,2,0,L|272:160,2,45,2|2|8,0:0|0:0|0:0,0:0:0:0:
416,192,18727,1,8,0:0:0:0:
208,320,18909,5,2,0:0:0:0:
124,325,19090,1,0,0:0:0:0:
98,246,19272,1,8,0:0:0:0:
169,201,19454,1,0,0:0:0:0:
336,192,19636,1,2,0:0:0:0:
176,192,19818,1,2,0:0:0:0:
155,151,19908,1,2,0:0:0:0:
135,111,19999,1,8,0:0:0:0:
240,112,20181,1,8,0:0:0:0:
16,128,20363,6,0,L|80:208,1,90,6|0,0:0|0:0,0:0:0:0:
176,208,20727,2,0,L|112:288,1,90,8|0,0:0|0:0,0:0:0:0:
16,288,21090,2,0,L|80:208,1,90,2|2,0:0|0:0,0:0:0:0:
128,224,21363,1,0,0:0:0:0:
176,208,21454,2,0,L|112:128,1,90,8|8,0:0|0:0,0:0:0:0:
288,128,21818,6,0,L|384:128,1,90,2|0,0:0|0:0,0:0:0:0:
208,176,22181,2,0,L|304:176,1,90,8|0,0:0|0:0,0:0:0:0:
128,240,22545,1,2,0:0:0:0:
240,240,22727,1,2,0:0:0:0:
272,240,23000,1,8,0:0:0:0:
304,240,23181,1,8,0:0:0:0:
256,240,23272,6,0,L|144:240,1,90,6|0,0:0|0:0,0:0:0:0:
320,160,23636,1,8,0:0:0:0:
362,170,23726,1,0,0:0:0:0:
381,209,23817,1,0,0:0:0:0:
363,249,23908,1,0,0:0:0:0:
322,262,23999,5,2,0:0:0:0:
272,256,24090,2,0,L|256:320,1,45,0|0,0:0|0:0,0:0:0:0:
320,304,24272,2,0,L|384:304,1,45,0|8,0:0|0:0,0:0:0:0:
368,304,24454,2,0,L|416:304,1,45
80,304,24727,6,0,L|48:208,1,90,6|0,0:0|0:0,0:0:0:0:
224,208,25090,2,0,L|208:160,1,45,8|0,0:0|0:0,0:0:0:0:
256,160,25272,2,0,L|320:160,1,45,0|0,0:0|0:0,0:0:0:0:
352,160,25454,6,0,P|395:158|464:96,2,135,2|0|0,0:0|0:0|0:0,0:0:0:0:
32,64,26181,6,0,L|144:64,1,90,6|0,0:0|0:0,0:0:0:0:
160,112,26545,1,8,0:0:0:0:
203,114,26635,1,0,0:0:0:0:
235,144,26726,1,0,0:0:0:0:
239,188,26817,1,0,0:0:0:0:
192,224,26909,6,0,L|112:224,3,45,2|0|0|0,0:0|0:0|0:0|0:0,0:0:0:0:
96,224,27272,2,0,L|32:224,1,45,8|0,0:0|0:0,0:0:0:0:
0,224,27454,2,0,L|64:224,1,45,0|0,0:0|0:0,0:0:0:0:
112,224,27636,6,0,L|224:224,1,90,6|0,0:0|0:0,0:0:0:0:
400,224,28000,2,0,L|416:176,1,45,8|0,0:0|0:0,0:0:0:0:
368,176,28181,2,0,L|304:176,1,45,0|0,0:0|0:0,0:0:0:0:
256,176,28363,6,0,L|112:176,2,135,2|0|0,0:0|0:0|0:0,0:0:0:0:
128,80,29090,6,0,L|16:80,1,90,6|0,0:0|0:0,0:0:0:0:
432,144,29454,2,0,L|480:144,1,45,8|0,0:0|0:0,0:0:0:0:
432,160,29636,1,0,0:0:0:0:
387,162,29726,1,0,0:0:0:0:
355,192,29817,5,2,0:0:0:0:
348,236,29908,1,0,0:0:0:0:
370,274,29999,1,0,0:0:0:0:
412,290,30090,1,0,0:0:0:0:
464,288,30181,2,0,L|480:240,1,45,8|0,0:0|0:0,0:0:0:0:
416,240,30363,2,0,L|400:192,1,45,0|0,0:0|0:0,0:0:0:0:
448,192,30545,6,0,P|480:160|496:112,1,90,6|0,0:0|0:0,0:0:0:0:
176,128,30909,2,0,L|112:128,1,45,8|0,0:0|0:0,0:0:0:0:
80,80,31090,2,0,L|144:80,1,45,0|0,0:0|0:0,0:0:0:0:
176,80,31272,6,0,L|336:80,2,135,2|0|0,0:0|0:0|0:0,0:0:0:0:
368,80,32000,6,0,P|384:160|368:176,1,90,6|0,0:0|0:0,0:0:0:0:
112,176,32363,2,0,L|192:176,1,45,8|0,0:0|0:0,0:0:0:0:
208,176,32545,1,0,0:0:0:0:
252,178,32635,1,0,0:0:0:0:
284,208,32726,5,2,0:0:0:0:
291,252,32817,1,0,0:0:0:0:
269,290,32908,1,0,0:0:0:0:
227,306,32999,1,0,0:0:0:0:
176,304,33090,2,0,L|96:304,1,45,8|0,0:0|0:0,0:0:0:0:
80,304,33272,1,0,0:0:0:0:
272,272,33454,6,0,L|384:272,1,90,6|0,0:0|0:0,0:0:0:0:
48,160,33818,2,0,L|32:96,1,45,8|0,0:0|0:0,0:0:0:0:
96,112,34000,1,0,0:0:0:0:
138,102,34090,1,0,0:0:0:0:
173,128,34181,6,0,L|320:112,2,135,2|0|0,0:0|0:0|0:0,0:0:0:0:
272,176,34909,1,6,0:0:0:0:
256,192,35090,12,0,39090,0:0:0:0:
256,112,39272,6,0,P|208:160|224:208,1,120,6|0,0:0|0:0,0:0:0:0:
288,208,39636,2,0,P|336:256|320:304,1,120,2|0,0:0|0:0,0:0:0:0:
240,304,40000,2,0,P|192:256|208:208,1,120,2|0,0:0|0:0,0:0:0:0:
304,208,40363,2,0,P|352:160|336:112,1,120,2|0,0:0|0:0,0:0:0:0:
240,112,40727,6,0,L|112:112,1,120,6|0,0:0|0:0,0:0:0:0:
208,64,41090,2,0,L|336:64,1,120,2|0,0:0|0:0,0:0:0:0:
432,64,41454,1,8,0:0:0:0:
482,95,41575,1,8,0:0:0:0:
510,147,41696,1,8,0:0:0:0:
509,206,41817,1,8,0:0:0:0:
478,257,41938,1,0,0:0:0:0:
427,285,42060,1,8,0:0:0:0:
320,288,42181,6,0,L|192:288,1,120,6|0,0:0|0:0,0:0:0:0:
96,288,42545,2,0,P|48:240|32:176,1,120,2|0,0:0|0:0,0:0:0:0:
139,188,42909,2,0,L|267:188,1,120,0|0,0:0|0:0,0:0:0:0:
363,188,43273,2,0,P|411:236|427:300,1,120,2|0,0:0|0:0,0:0:0:0:
320,288,43636,6,0,L|176:288,1,120,6|0,0:0|0:0,0:0:0:0:
304,240,44000,2,0,P|336:192|304:144,1,120,2|0,0:0|0:0,0:0:0:0:
208,144,44363,1,8,0:0:0:0:
203,203,44484,1,0,0:0:0:0:
225,258,44605,1,0,0:0:0:0:
270,296,44726,1,8,0:0:0:0:
328,310,44847,1,0,0:0:0:0:
386,296,44969,1,0,0:0:0:0:
432,240,45090,6,0,L|432:112,1,120,6|0,0:0|0:0,0:0:0:0:
224,96,45454,2,0,P|160:128|128:192,1,120,2|0,0:0|0:0,0:0:0:0:
224,176,45818,2,0,P|288:208|320:272,1,120,2|0,0:0|0:0,0:0:0:0:
400,256,46181,2,0,P|464:288|496:352,1,120,2|0,0:0|0:0,0:0:0:0:
384,320,46545,6,0,L|256:320,1,120,6|0,0:0|0:0,0:0:0:0:
160,320,46909,2,0,L|16:320,1,120,2|0,0:0|0:0,0:0:0:0:
144,272,47272,1,8,0:0:0:0:
201,259,47393,1,8,0:0:0:0:
238,213,47514,1,8,0:0:0:0:
239,155,47635,1,8,0:0:0:0:
202,109,47756,1,8,0:0:0:0:
145,95,47878,1,8,0:0:0:0:
48,96,48000,5,6,0:0:0:0:
176,96,48242,1,8,0:0:0:0:
304,96,48484,1,2,0:0:0:0:
80,288,48727,1,2,0:0:0:0:
208,288,48969,1,8,0:0:0:0:
336,288,49211,1,2,0:0:0:0:
112,288,49454,6,0,L|96:224,1,60,6|0,0:0|0:0,0:0:0:0:
176,224,49696,1,0,0:0:0:0:
272,224,49818,2,0,L|288:160,1,60,2|0,0:0|0:0,0:0:0:0:
208,160,50060,1,0,0:0:0:0:
112,112,50181,2,0,L|256:112,2,120,8|8|8,0:0|0:0|0:0,0:0:0:0:
112,112,51818,5,4,0:0:0:0:
112,112,52000,1,4,0:0:0:0:
320,112,52363,5,6,0:0:0:0:
432,128,52545,1,0,0:0:0:0:
256,144,52727,2,0,P|224:192|256:224,1,90,8|0,0:0|0:0,0:0:0:0:
336,224,53090,1,2,0:0:0:0:
192,256,53272,1,0,0:0:0:0:
147,256,53362,1,0,0:0:0:0:
102,256,53453,1,8,0:0:0:0:
240,192,53636,2,0,L|256:144,1,45,0|0,0:0|0:0,0:0:0:0:
160,144,53818,6,0,L|96:64,2,90,2|0|8,0:0|0:0|0:0,0:0:0:0:
304,144,54363,2,0,L|320:240,1,90,0|2,0:0|0:0,0:0:0:0:
160,192,54727,2,0,L|112:192,2,45,0|0|8,0:0|0:0|0:0,0:0:0:0:
304,192,55090,2,0,L|352:192,1,45,0|0,0:0|0:0,0:0:0:0:
256,240,55272,6,0,L|160:240,1,90,2|0,0:0|0:0,0:0:0:0:
320,240,55636,1,8,0:0:0:0:
432,240,55818,1,0,0:0:0:0:
384,192,56000,1,2,0:0:0:0:
224,192,56181,2,0,L|208:128,1,45,0|0,0:0|0:0,0:0:0:0:
272,144,56363,1,8,0:0:0:0:
144,112,56545,2,0,L|96:112,1,45,0|0,0:0|0:0,0:0:0:0:
144,64,56727,6,0,L|256:64,1,90,6|0,0:0|0:0,0:0:0:0:
304,64,57000,1,0,0:0:0:0:
368,64,57090,2,0,P|400:80|368:112,1,90,12|0,0:0|0:0,0:0:0:0:
304,112,57363,1,0,0:0:0:0:
240,112,57454,2,0,L|128:112,1,90,6|0,0:0|0:0,0:0:0:0:
96,144,57727,1,0,0:0:0:0:
48,160,57818,2,0,P|14:181|43:208,1,90,12|0,0:0|0:0,0:0:0:0:
304,240,58181,5,2,0:0:0:0:
448,240,58363,1,4,0:0:0:0:
320,240,58545,2,0,P|256:192|256:160,1,90,8|0,0:0|0:0,0:0:0:0:
336,160,58908,1,2,0:0:0:0:
192,128,59090,1,0,0:0:0:0:
147,128,59180,1,0,0:0:0:0:
102,128,59271,1,8,0:0:0:0:
240,192,59454,2,0,L|256:240,1,45,0|0,0:0|0:0,0:0:0:0:
160,240,59636,6,0,L|96:320,2,90,2|0|8,0:0|0:0|0:0,0:0:0:0:
304,240,60181,2,0,L|320:144,1,90,0|2,0:0|0:0,0:0:0:0:
160,192,60545,2,0,L|112:192,2,45,0|0|8,0:0|0:0|0:0,0:0:0:0:
304,192,60909,2,0,L|352:192,1,45
256,144,61090,6,0,L|160:144,1,90,2|4,0:0|0:0,0:0:0:0:
320,144,61454,1,8,0:0:0:0:
432,144,61636,1,0,0:0:0:0:
384,192,61818,1,2,0:0:0:0:
224,192,61999,2,0,L|208:256,1,45,0|0,0:0|0:0,0:0:0:0:
272,240,62181,1,8,0:0:0:0:
144,272,62363,2,0,L|96:272,1,45,0|0,0:0|0:0,0:0:0:0:
144,320,62545,6,0,L|256:320,1,90,6|0,0:0|0:0,0:0:0:0:
304,320,62818,1,0,0:0:0:0:
368,320,62908,2,0,P|400:304|368:272,1,90,12|0,0:0|0:0,0:0:0:0:
304,272,63181,1,0,0:0:0:0:
240,272,63272,2,0,L|128:272,1,90,6|0,0:0|0:0,0:0:0:0:
224,208,63545,5,0,0:0:0:0:
288,208,63636,2,0,P|321:187|293:159,1,90,12|0,0:0|0:0,0:0:0:0:
176,160,64000,6,0,L|160:48,1,90,6|8,0:0|0:0,0:0:0:0:
48,80,64363,2,0,L|160:80,1,90,8|8,0:0|0:0,0:0:0:0:
32,256,64727,1,2,0:0:0:0:
176,256,64909,1,8,0:0:0:0:
48,208,65090,1,8,0:0:0:0:
160,208,65272,1,8,0:0:0:0:
304,160,65454,6,0,L|320:272,1,90,6|8,0:0|0:0,0:0:0:0:
208,256,65818,2,0,L|192:144,1,90,8|8,0:0|0:0,0:0:0:0:
320,176,66181,1,2,0:0:0:0:
176,176,66363,1,8,0:0:0:0:
304,224,66544,1,8,0:0:0:0:
192,224,66726,1,8,0:0:0:0:
464,112,66909,6,0,L|480:224,1,90,6|8,0:0|0:0,0:0:0:0:
368,208,67272,2,0,L|352:96,1,90,8|8,0:0|0:0,0:0:0:0:
480,128,67636,1,2,0:0:0:0:
336,128,67818,1,8,0:0:0:0:
464,176,67999,1,8,0:0:0:0:
352,176,68181,1,8,0:0:0:0:
208,224,68363,6,0,L|192:112,1,90,6|8,0:0|0:0,0:0:0:0:
304,128,68727,2,0,L|320:240,1,90,8|8,0:0|0:0,0:0:0:0:
192,208,69090,1,2,0:0:0:0:
336,208,69272,1,8,0:0:0:0:
208,160,69453,1,8,0:0:0:0:
320,160,69635,1,8,0:0:0:0:
32,176,69818,5,6,0:0:0:0:
58,261,69999,1,8,0:0:0:0:
117,328,70181,1,8,0:0:0:0:
198,366,70363,1,8,0:0:0:0:
0,208,70545,1,2,0:0:0:0:
26,122,70726,1,8,0:0:0:0:
85,55,70908,1,8,0:0:0:0:
166,17,71090,1,8,0:0:0:0:
480,208,71272,5,6,0:0:0:0:
453,122,71453,1,8,0:0:0:0:
394,55,71635,1,8,0:0:0:0:
313,17,71817,1,8,0:0:0:0:
512,176,71999,1,2,0:0:0:0:
485,261,72180,1,0,0:0:0:0:
426,328,72362,1,0,0:0:0:0:
345,366,72544,1,8,0:0:0:0:
48,336,72727,6,0,P|32:272|64:240,1,90,6|0,0:0|0:0,0:0:0:0:
96,224,73000,1,0,0:0:0:0:
160,224,73090,2,0,L|288:224,1,90,8|0,0:0|0:0,0:0:0:0:
320,224,73363,1,0,0:0:0:0:
384,224,73454,2,0,P|400:160|368:112,1,90,2|0,0:0|0:0,0:0:0:0:
336,128,73727,1,0,0:0:0:0:
272,112,73817,2,0,L|144:112,1,90,8|0,0:0|0:0,0:0:0:0:
160,160,74090,1,0,0:0:0:0:
224,160,74181,6,0,L|336:160,3,90,6|8|8|8,0:0|0:0|0:0|0:0,0:0:0:0:
144,208,74909,2,0,L|256:208,3,90,2|8|8|8,0:0|0:0|0:0|0:0,0:0:0:0:
480,208,75636,5,6,0:0:0:0:
432,128,75818,1,0,0:0:0:0:
256,144,76000,2,0,P|224:192|256:224,1,90,8|0,0:0|0:0,0:0:0:0:
288,224,76273,1,0,0:0:0:0:
336,224,76363,1,2,0:0:0:0:
192,256,76545,1,0,0:0:0:0:
147,256,76635,1,0,0:0:0:0:
102,256,76726,1,8,0:0:0:0:
240,192,76909,2,0,L|256:144,1,45,0|0,0:0|0:0,0:0:0:0:
160,144,77091,6,0,L|96:64,2,90,2|0|8,0:0|0:0|0:0,0:0:0:0:
304,144,77636,2,0,L|352:144,2,45,0|0|2,0:0|0:0|0:0,0:0:0:0:
160,192,78000,2,0,L|112:192,2,45,0|0|8,0:0|0:0|0:0,0:0:0:0:
304,192,78363,2,0,L|352:192,1,45,0|0,0:0|0:0,0:0:0:0:
256,240,78545,6,0,L|160:240,1,90,2|0,0:0|0:0,0:0:0:0:
320,240,78909,1,8,0:0:0:0:
432,240,79091,2,0,L|448:176,1,45,0|0,0:0|0:0,0:0:0:0:
368,192,79273,1,2,0:0:0:0:
224,192,79454,2,0,L|208:128,1,45,0|0,0:0|0:0,0:0:0:0:
288,144,79636,1,8,0:0:0:0:
144,112,79818,2,0,L|96:112,1,45,0|0,0:0|0:0,0:0:0:0:
160,112,80000,6,0,L|176:176,1,45,6|0,0:0|0:0,0:0:0:0:
240,160,80181,2,0,L|256:224,1,45,0|0,0:0|0:0,0:0:0:0:
176,208,80363,1,8,0:0:0:0:
64,208,80545,1,0,0:0:0:0:
176,240,80727,2,0,L|224:240,1,45,2|0,0:0|0:0,0:0:0:0:
272,240,80909,2,0,L|352:240,1,45,0|0,0:0|0:0,0:0:0:0:
368,240,81090,2,0,L|400:208,1,45,8|0,0:0|0:0,0:0:0:0:
432,176,81272,2,0,L|432:128,1,45,0|0,0:0|0:0,0:0:0:0:
416,80,81454,5,2,0:0:0:0:
496,224,81636,1,4,0:0:0:0:
221,240,81818,2,0,P|224:192|256:160,1,90,8|0,0:0|0:0,0:0:0:0:
288,160,82091,1,0,0:0:0:0:
336,160,82181,1,2,0:0:0:0:
192,128,82363,1,0,0:0:0:0:
147,128,82453,1,0,0:0:0:0:
102,128,82544,1,8,0:0:0:0:
240,192,82727,2,0,L|256:240,1,45,0|0,0:0|0:0,0:0:0:0:
160,240,82909,6,0,L|96:320,2,90,2|0|8,0:0|0:0|0:0,0:0:0:0:
304,240,83454,2,0,L|352:240,2,45,0|0|2,0:0|0:0|0:0,0:0:0:0:
160,192,83818,2,0,L|112:192,2,45,0|0|8,0:0|0:0|0:0,0:0:0:0:
304,192,84181,2,0,L|352:192,1,45,0|0,0:0|0:0,0:0:0:0:
288,192,84454,6,0,L|192:192,1,90,2|0,0:0|0:0,0:0:0:0:
0,128,84818,2,0,L|96:128,1,90,2|0,0:0|0:0,0:0:0:0:
208,128,85181,2,0,L|320:128,1,90,0|0,0:0|0:0,0:0:0:0:
208,64,85545,2,0,L|96:64,1,90,0|0,0:0|0:0,0:0:0:0:
128,128,85818,6,0,P|64:128|48:176,1,90,6|0,0:0|0:0,0:0:0:0:
48,176,86060,2,0,L|64:224,1,30,0|0,0:0|0:0,0:0:0:0:
96,224,86181,2,0,L|144:256,1,45,8|0,0:0|0:0,0:0:0:0:
192,256,86363,2,0,L|272:256,1,60,0|0,0:0|0:0,0:0:0:0:
320,256,86606,2,0,L|416:256,1,90,0|0,0:0|0:0,0:0:0:0:
480,256,86909,2,0,P|448:192|384:160,1,120,0|0,0:0|0:0,0:0:0:0:
176,176,87272,5,4,0:0:0:0:
256,192,87454,12,0,89818,0:0:0:0:
