osu file format v14

[General]
AudioFilename: audio.mp3
AudioLeadIn: 0
PreviewTime: 51636
Countdown: 0
SampleSet: Normal
StackLeniency: 0.7
Mode: 3
LetterboxInBreaks: 0
SpecialStyle: 0
WidescreenStoryboard: 0

[Editor]
DistanceSpacing: 1.2
BeatDivisor: 4
GridSize: 16
TimelineZoom: 1.9

[Metadata]
Title:Chaoz Japan
TitleUnicode:Chaoz Japan
Artist:ParagonX9
ArtistUnicode:ParagonX9
Creator:Mage
Version:Chaos
Source:Castle Crashers
Tags:Myle semyon422 newgrounds
BeatmapID:1187856
BeatmapSetID:561887

[Difficulty]
HPDrainRate:8
CircleSize:6
OverallDifficulty:8
ApproachRate:9.2
SliderMultiplier:2
SliderTickRate:2

[Events]
//Background and Video events
0,0,"bg.jpg",0,0
//Break Periods
//Storyboard Layer 0 (Background)
//Storyboard Layer 1 (Fail)
//Storyboard Layer 2 (Pass)
//Storyboard Layer 3 (Foreground)
//Storyboard Sound Samples

[TimingPoints]
0,363.636363636364,4,1,1,50,1,0
23272,-100,4,1,1,50,0,1
34909,-100,4,1,1,50,0,0
64000,-100,4,1,1,50,0,1
75636,-100,4,1,1,50,0,0

[HitObjects]
469,192,0,5,0,0:0:0:0:
42,192,181,1,0,0:0:0:0:
128,192,272,1,0,0:0:0:0:
213,192,363,1,0,0:0:0:0:
469,192,545,1,0,0:0:0:0:
42,192,727,1,0,0:0:0:0:
469,192,909,1,0,0:0:0:0:
384,192,1000,1,0,0:0:0:0:
298,192,1090,1,0,0:0:0:0:
128,192,1272,1,0,0:0:0:0:
384,192,1454,1,0,0:0:0:0:
213,192,1636,1,0,0:0:0:0:
42,192,1818,1,0,0:0:0:0:
384,192,2000,1,0,0:0:0:0:
128,192,2181,1,0,0:0:0:0:
298,192,2363,1,0,0:0:0:0:
469,192,2545,1,0,0:0:0:0:
128,192,2727,1,0,0:0:0:0:
384,192,2909,1,0,0:0:0:0:
128,192,3090,1,0,0:0:0:0:
213,192,3181,1,0,0:0:0:0:
298,192,3272,1,0,0:0:0:0:
469,192,3454,1,0,0:0:0:0:
42,192,3636,1,0,0:0:0:0:
384,192,3818,1,0,0:0:0:0:
298,192,3909,1,0,0:0:0:0:
213,192,4000,1,0,0:0:0:0:
469,192,4181,1,0,0:0:0:0:
42,192,4363,1,0,0:0:0:0:
384,192,4545,1,0,0:0:0:0:
128,192,4727,1,0,0:0:0:0:
298,192,4909,1,0,0:0:0:0:
213,192,5090,1,0,0:0:0:0:
384,192,5272,1,0,0:0:0:0:
128,192,5454,1,0,0:0:0:0:
298,192,5636,1,0,0:0:0:0:
42,192,5818,1,0,0:0:0:0:
469,192,5818,1,8,0:0:0:0:
298,192,6000,1,0,0:0:0:0:
213,192,6090,1,0,0:0:0:0:
42,192,6181,1,0,0:0:0:0:
128,192,6181,1,8,0:0:0:0:
298,192,6363,1,0,0:0:0:0:
42,192,6545,1,0,0:0:0:0:
469,192,6545,1,8,0:0:0:0:
298,192,6727,1,0,0:0:0:0:
213,192,6818,1,2,0:0:0:0:
42,192,6818,1,0,0:0:0:0:
469,192,6909,1,8,0:0:0:0:
384,192,7090,1,0,0:0:0:0:
42,192,7272,1,0,0:0:0:0:
128,192,7272,1,8,0:0:0:0:
298,192,7454,1,0,0:0:0:0:
42,192,7636,1,0,0:0:0:0:
469,192,7636,1,8,0:0:0:0:
213,192,7818,1,0,0:0:0:0:
42,192,8000,1,0,0:0:0:0:
384,192,8000,1,8,0:0:0:0:
298,192,8181,1,0,0:0:0:0:
469,192,8272,1,0,0:0:0:0:
42,192,8272,1,2,0:0:0:0:
128,192,8363,1,8,0:0:0:0:
213,192,8545,1,2,0:0:0:0:
469,192,8545,1,0,0:0:0:0:
42,192,8727,1,0,0:0:0:0:
384,192,8727,1,8,0:0:0:0:
213,192,8909,1,0,0:0:0:0:
298,192,9000,1,0,0:0:0:0:
42,192,9090,1,0,0:0:0:0:
384,192,9090,1,8,0:0:0:0:
469,192,9272,1,0,0:0:0:0:
42,192,9454,1,0,0:0:0:0:
128,192,9454,1,8,0:0:0:0:
298,192,9636,1,0,0:0:0:0:
213,192,9727,1,2,0:0:0:0:
42,192,9727,1,0,0:0:0:0:
469,192,9818,1,8,0:0:0:0:
298,192,10000,1,0,0:0:0:0:
384,192,10090,1,2,0:0:0:0:
42,192,10090,1,0,0:0:0:0:
128,192,10181,1,8,0:0:0:0:
384,192,10363,1,0,0:0:0:0:
213,192,10454,1,2,0:0:0:0:
42,192,10454,1,0,0:0:0:0:
469,192,10545,1,8,0:0:0:0:
298,192,10727,1,0,0:0:0:0:
128,192,10818,1,2,0:0:0:0:
42,192,10818,1,0,0:0:0:0:
469,192,10909,1,0,0:0:0:0:
213,192,10909,1,8,0:0:0:0:
384,192,11090,1,0,0:0:0:0:
42,192,11636,1,0,0:0:0:0:
128,192,11636,1,2,0:0:0:0:
384,192,11636,1,4,0:0:0:0:
469,192,11636,1,0,0:0:0:0:
298,192,11818,1,0,0:0:0:0:
213,192,11909,1,0,0:0:0:0:
128,192,12000,1,2,0:0:0:0:
42,192,12000,1,0,0:0:0:0:
469,192,12000,1,0,0:0:0:0:
384,192,12181,1,0,0:0:0:0:
213,192,12363,1,0,0:0:0:0:
42,192,12363,1,0,0:0:0:0:
298,192,12363,1,2,0:0:0:0:
128,192,12545,1,0,0:0:0:0:
213,192,12636,1,0,0:0:0:0:
298,192,12727,1,2,0:0:0:0:
42,192,12727,1,0,0:0:0:0:
469,192,12727,1,0,0:0:0:0:
384,192,12909,1,0,0:0:0:0:
213,192,12909,1,8,0:0:0:0:
128,192,13090,1,0,0:0:0:0:
298,192,13090,1,2,0:0:0:0:
42,192,13090,1,0,0:0:0:0:
384,192,13272,1,0,0:0:0:0:
213,192,13454,1,2,0:0:0:0:
469,192,13454,1,0,0:0:0:0:
128,192,13454,1,0,0:0:0:0:
42,192,13636,1,0,0:0:0:0:
384,192,13818,1,2,0:0:0:0:
213,192,13818,1,0,0:0:0:0:
469,192,13818,1,0,0:0:0:0:
128,192,14000,1,0,0:0:0:0:
213,192,14090,1,0,0:0:0:0:
469,192,14181,1,0,0:0:0:0:
42,192,14181,1,0,0:0:0:0:
298,192,14181,1,2,0:0:0:0:
384,192,14363,1,0,0:0:0:0:
128,192,14363,1,8,0:0:0:0:
42,192,14545,1,0,0:0:0:0:
469,192,14545,1,0,0:0:0:0:
298,192,14545,1,2,0:0:0:0:
213,192,14545,1,4,0:0:0:0:
128,192,14727,1,0,0:0:0:0:
213,192,14818,1,0,0:0:0:0:
298,192,14909,1,2,0:0:0:0:
42,192,14909,1,0,0:0:0:0:
384,192,14909,1,0,0:0:0:0:
213,192,15090,1,0,0:0:0:0:
128,192,15272,1,2,0:0:0:0:
469,192,15272,1,0,0:0:0:0:
384,192,15272,1,0,0:0:0:0:
298,192,15454,1,0,0:0:0:0:
213,192,15545,1,0,0:0:0:0:
128,192,15636,1,2,0:0:0:0:
42,192,15636,1,0,0:0:0:0:
469,192,15636,1,0,0:0:0:0:
384,192,15818,1,0,0:0:0:0:
298,192,16000,1,4,0:0:0:0:
213,192,16000,1,2,0:0:0:0:
42,192,16000,1,0,0:0:0:0:
469,192,16000,1,0,0:0:0:0:
128,192,16181,1,0,0:0:0:0:
42,192,16363,1,0,0:0:0:0:
469,192,16363,1,0,0:0:0:0:
384,192,16363,1,2,0:0:0:0:
298,192,16545,1,0,0:0:0:0:
42,192,16727,1,0,0:0:0:0:
213,192,16727,1,2,0:0:0:0:
469,192,16727,1,0,0:0:0:0:
384,192,16909,1,8,0:0:0:0:
128,192,16909,1,0,0:0:0:0:
128,192,17272,1,0,0:0:0:0:
384,192,17272,1,8,0:0:0:0:
42,192,17636,1,0,0:0:0:0:
298,192,17636,1,4,0:0:0:0:
469,192,17636,1,0,0:0:0:0:
213,192,17636,1,0,0:0:0:0:
128,192,17818,1,0,0:0:0:0:
384,192,17818,1,0,0:0:0:0:
213,192,17818,1,2,0:0:0:0:
298,192,18000,1,0,0:0:0:0:
42,192,18181,1,0,0:0:0:0:
469,192,18181,1,0,0:0:0:0:
384,192,18181,1,2,0:0:0:0:
128,192,18363,1,0,0:0:0:0:
213,192,18454,1,0,0:0:0:0:
298,192,18545,1,2,0:0:0:0:
42,192,18545,1,0,0:0:0:0:
384,192,18545,1,0,0:0:0:0:
128,192,18727,1,0,0:0:0:0:
213,192,18727,1,8,0:0:0:0:
469,192,18909,1,0,0:0:0:0:
384,192,18909,1,2,0:0:0:0:
42,192,18909,1,0,0:0:0:0:
298,192,19090,1,0,0:0:0:0:
213,192,19272,1,2,0:0:0:0:
128,192,19272,1,0,0:0:0:0:
469,192,19272,1,0,0:0:0:0:
384,192,19454,1,0,0:0:0:0:
213,192,19636,1,0,0:0:0:0:
42,192,19636,1,0,0:0:0:0:
298,192,19636,1,2,0:0:0:0:
128,192,19818,1,0,0:0:0:0:
213,192,19909,1,0,0:0:0:0:
469,192,20000,1,0,0:0:0:0:
298,192,20000,1,2,0:0:0:0:
42,192,20000,1,0,0:0:0:0:
128,192,20181,1,8,0:0:0:0:
384,192,20181,1,0,0:0:0:0:
213,192,20363,1,2,0:0:0:0:
469,192,20363,1,0,0:0:0:0:
298,192,20363,1,4,0:0:0:0:
42,192,20363,1,0,0:0:0:0:
384,192,20545,1,0,0:0:0:0:
298,192,20636,1,0,0:0:0:0:
213,192,20727,1,2,0:0:0:0:
128,192,20727,1,0,0:0:0:0:
469,192,20727,1,0,0:0:0:0:
384,192,20909,1,0,0:0:0:0:
42,192,21090,1,0,0:0:0:0:
298,192,21090,1,2,0:0:0:0:
213,192,21090,1,0,0:0:0:0:
128,192,21272,1,0,0:0:0:0:
213,192,21363,1,0,0:0:0:0:
384,192,21454,1,2,0:0:0:0:
42,192,21454,1,0,0:0:0:0:
298,192,21454,1,0,0:0:0:0:
128,192,21636,1,0,0:0:0:0:
298,192,21818,1,4,0:0:0:0:
42,192,21818,1,0,0:0:0:0:
469,192,21818,1,0,0:0:0:0:
213,192,21818,1,2,0:0:0:0:
384,192,22000,1,0,0:0:0:0:
298,192,22181,1,2,0:0:0:0:
469,192,22181,1,0,0:0:0:0:
128,192,22181,1,0,0:0:0:0:
384,192,22363,1,0,0:0:0:0:
298,192,22454,1,8,0:0:0:0:
42,192,22545,1,0,0:0:0:0:
469,192,22545,1,0,0:0:0:0:
213,192,22545,1,2,0:0:0:0:
384,192,22727,1,8,0:0:0:0:
128,192,22727,1,0,0:0:0:0:
298,192,23000,1,8,0:0:0:0:
213,192,23000,1,0,0:0:0:0:
213,192,23181,1,8,0:0:0:0:
298,192,23181,1,0,0:0:0:0:
128,192,23272,1,4,0:0:0:0:
384,192,23272,1,2,0:0:0:0:
42,192,23272,1,0,0:0:0:0:
469,192,23272,1,0,0:0:0:0:
213,192,23454,1,2,0:0:0:0:
128,192,23454,1,0,0:0:0:0:
298,192,23545,1,0,0:0:0:0:
384,192,23636,1,8,0:0:0:0:
42,192,23636,1,0,0:0:0:0:
128,192,23727,1,0,0:0:0:0:
298,192,23818,1,0,0:0:0:0:
469,192,23818,1,0,0:0:0:0:
213,192,23909,1,0,0:0:0:0:
128,192,24000,1,0,0:0:0:0:
384,192,24000,1,0,0:0:0:0:
298,192,24090,1,0,0:0:0:0:
469,192,24181,1,2,0:0:0:0:
42,192,24181,1,0,0:0:0:0:
213,192,24272,1,0,0:0:0:0:
384,192,24272,1,2,0:0:0:0:
128,192,24363,1,0,0:0:0:0:
298,192,24363,1,8,0:0:0:0:
469,192,24454,1,0,0:0:0:0:
384,192,24545,1,0,0:0:0:0:
213,192,24545,1,0,0:0:0:0:
128,192,24636,1,0,0:0:0:0:
298,192,24727,1,2,0:0:0:0:
42,192,24727,1,0,0:0:0:0:
384,192,24818,1,0,0:0:0:0:
469,192,24909,1,0,0:0:0:0:
128,192,24909,1,2,0:0:0:0:
298,192,25000,1,0,0:0:0:0:
213,192,25090,1,8,0:0:0:0:
42,192,25090,1,0,0:0:0:0:
384,192,25181,1,0,0:0:0:0:
298,192,25272,1,0,0:0:0:0:
128,192,25272,1,0,0:0:0:0:
469,192,25363,1,0,0:0:0:0:
384,192,25454,1,0,0:0:0:0:
213,192,25454,1,0,0:0:0:0:
128,192,25545,1,0,0:0:0:0:
298,192,25636,1,2,0:0:0:0:
42,192,25636,1,0,0:0:0:0:
213,192,25727,1,2,0:0:0:0:
469,192,25727,1,0,0:0:0:0:
128,192,25818,1,8,0:0:0:0:
384,192,25818,1,0,0:0:0:0:
298,192,25909,1,0,0:0:0:0:
42,192,26000,1,0,0:0:0:0:
213,192,26000,1,0,0:0:0:0:
384,192,26090,1,0,0:0:0:0:
128,192,26181,1,2,0:0:0:0:
469,192,26181,1,0,0:0:0:0:
213,192,26272,1,0,0:0:0:0:
298,192,26363,1,2,0:0:0:0:
42,192,26363,1,0,0:0:0:0:
128,192,26454,1,0,0:0:0:0:
213,192,26545,1,0,0:0:0:0:
384,192,26545,1,8,0:0:0:0:
42,192,26636,1,0,0:0:0:0:
469,192,26727,1,0,0:0:0:0:
128,192,26727,1,0,0:0:0:0:
384,192,26818,1,0,0:0:0:0:
298,192,26909,1,0,0:0:0:0:
42,192,26909,1,0,0:0:0:0:
469,192,27000,1,0,0:0:0:0:
384,192,27090,1,2,0:0:0:0:
213,192,27090,1,0,0:0:0:0:
128,192,27181,1,0,0:0:0:0:
298,192,27181,1,2,0:0:0:0:
42,192,27272,1,0,0:0:0:0:
213,192,27272,1,8,0:0:0:0:
384,192,27363,1,0,0:0:0:0:
128,192,27454,1,0,0:0:0:0:
298,192,27454,1,0,0:0:0:0:
469,192,27545,1,0,0:0:0:0:
298,192,27636,1,2,0:0:0:0:
384,192,27636,1,4,0:0:0:0:
42,192,27636,1,0,0:0:0:0:
128,192,27727,1,0,0:0:0:0:
469,192,27818,1,0,0:0:0:0:
213,192,27818,1,0,0:0:0:0:
42,192,27909,1,0,0:0:0:0:
128,192,28000,1,0,0:0:0:0:
298,192,28000,1,8,0:0:0:0:
384,192,28090,1,0,0:0:0:0:
469,192,28181,1,0,0:0:0:0:
213,192,28181,1,0,0:0:0:0:
298,192,28272,1,0,0:0:0:0:
42,192,28363,1,0,0:0:0:0:
384,192,28363,1,2,0:0:0:0:
128,192,28454,1,0,0:0:0:0:
213,192,28454,1,2,0:0:0:0:
384,192,28545,1,8,0:0:0:0:
469,192,28545,1,0,0:0:0:0:
298,192,28636,1,0,0:0:0:0:
128,192,28727,1,0,0:0:0:0:
42,192,28727,1,0,0:0:0:0:
298,192,28818,1,0,0:0:0:0:
469,192,28909,1,0,0:0:0:0:
213,192,28909,1,0,0:0:0:0:
384,192,29000,1,0,0:0:0:0:
298,192,29090,1,0,0:0:0:0:
42,192,29090,128,0,29272:0:0:0:0:
128,192,29090,128,0,29272:0:0:0:0:
213,192,29272,1,6,0:0:0:0:
469,192,29272,1,0,0:0:0:0:
384,192,29272,1,0,0:0:0:0:
298,192,29363,1,0,0:0:0:0:
128,192,29454,1,0,0:0:0:0:
384,192,29454,1,8,0:0:0:0:
213,192,29545,1,0,0:0:0:0:
42,192,29636,1,0,0:0:0:0:
298,192,29636,1,0,0:0:0:0:
469,192,29727,1,0,0:0:0:0:
384,192,29818,1,0,0:0:0:0:
213,192,29818,1,2,0:0:0:0:
298,192,29909,1,0,0:0:0:0:
128,192,29909,1,2,0:0:0:0:
42,192,30000,1,8,0:0:0:0:
469,192,30000,1,0,0:0:0:0:
213,192,30090,1,0,0:0:0:0:
128,192,30181,1,0,0:0:0:0:
384,192,30181,1,0,0:0:0:0:
298,192,30272,1,0,0:0:0:0:
469,192,30363,1,0,0:0:0:0:
213,192,30363,1,0,0:0:0:0:
384,192,30454,1,0,0:0:0:0:
298,192,30545,1,2,0:0:0:0:
42,192,30545,1,0,0:0:0:0:
469,192,30636,1,0,0:0:0:0:
128,192,30727,1,0,0:0:0:0:
384,192,30727,1,0,0:0:0:0:
213,192,30818,1,0,0:0:0:0:
42,192,30909,1,0,0:0:0:0:
298,192,30909,1,8,0:0:0:0:
128,192,31000,1,0,0:0:0:0:
384,192,31090,1,0,0:0:0:0:
213,192,31090,1,0,0:0:0:0:
469,192,31181,1,0,0:0:0:0:
298,192,31272,1,2,0:0:0:0:
42,192,31272,1,0,0:0:0:0:
213,192,31363,1,2,0:0:0:0:
384,192,31363,1,0,0:0:0:0:
469,192,31454,1,0,0:0:0:0:
298,192,31454,1,8,0:0:0:0:
128,192,31545,1,0,0:0:0:0:
384,192,31636,1,0,0:0:0:0:
213,192,31636,1,0,0:0:0:0:
42,192,31727,1,0,0:0:0:0:
298,192,31818,1,0,0:0:0:0:
128,192,31818,1,0,0:0:0:0:
384,192,31909,1,0,0:0:0:0:
42,192,32000,1,0,0:0:0:0:
213,192,32000,1,2,0:0:0:0:
298,192,32090,1,0,0:0:0:0:
469,192,32181,1,0,0:0:0:0:
128,192,32181,1,0,0:0:0:0:
384,192,32272,1,0,0:0:0:0:
42,192,32363,1,0,0:0:0:0:
298,192,32363,1,8,0:0:0:0:
128,192,32454,1,0,0:0:0:0:
384,192,32545,1,0,0:0:0:0:
213,192,32545,1,0,0:0:0:0:
469,192,32636,1,0,0:0:0:0:
128,192,32727,1,2,0:0:0:0:
298,192,32727,1,0,0:0:0:0:
42,192,32818,1,2,0:0:0:0:
384,192,32818,1,0,0:0:0:0:
213,192,32909,1,8,0:0:0:0:
469,192,32909,1,0,0:0:0:0:
128,192,33000,1,0,0:0:0:0:
42,192,33090,1,0,0:0:0:0:
298,192,33090,1,0,0:0:0:0:
469,192,33181,1,0,0:0:0:0:
384,192,33272,1,0,0:0:0:0:
128,192,33272,1,0,0:0:0:0:
213,192,33363,1,0,0:0:0:0:
42,192,33454,1,0,0:0:0:0:
469,192,33454,1,0,0:0:0:0:
298,192,33454,1,6,0:0:0:0:
128,192,33545,1,0,0:0:0:0:
213,192,33636,1,0,0:0:0:0:
384,192,33636,1,0,0:0:0:0:
42,192,33727,1,0,0:0:0:0:
128,192,33818,1,0,0:0:0:0:
298,192,33818,1,8,0:0:0:0:
469,192,33909,1,0,0:0:0:0:
384,192,34000,1,0,0:0:0:0:
213,192,34000,1,0,0:0:0:0:
128,192,34090,1,0,0:0:0:0:
298,192,34181,1,2,0:0:0:0:
42,192,34181,1,0,0:0:0:0:
384,192,34272,1,0,0:0:0:0:
213,192,34272,1,2,0:0:0:0:
298,192,34363,1,8,0:0:0:0:
469,192,34363,1,0,0:0:0:0:
42,192,34363,1,0,0:0:0:0:
128,192,34454,1,0,0:0:0:0:
213,192,34545,1,0,0:0:0:0:
469,192,34545,1,0,0:0:0:0:
384,192,34636,1,0,0:0:0:0:
42,192,34727,1,0,0:0:0:0:
298,192,34727,1,8,0:0:0:0:
469,192,34818,1,0,0:0:0:0:
213,192,34909,128,4,39272:0:0:0:0:
384,192,34909,1,0,0:0:0:0:
128,192,34909,1,0,0:0:0:0:
298,192,34909,128,8,39272:0:0:0:0:
42,192,39272,1,0,0:0:0:0:
128,192,39272,1,4,0:0:0:0:
384,192,39272,1,0,0:0:0:0:
469,192,39272,1,2,0:0:0:0:
298,192,39393,1,0,0:0:0:0:
213,192,39515,1,0,0:0:0:0:
469,192,39636,1,2,0:0:0:0:
384,192,39636,1,0,0:0:0:0:
128,192,39636,1,0,0:0:0:0:
298,192,39757,1,0,0:0:0:0:
213,192,39878,1,0,0:0:0:0:
128,192,40000,1,0,0:0:0:0:
384,192,40000,1,0,0:0:0:0:
469,192,40000,1,2,0:0:0:0:
298,192,40121,1,0,0:0:0:0:
213,192,40242,1,0,0:0:0:0:
469,192,40363,1,2,0:0:0:0:
384,192,40363,1,0,0:0:0:0:
128,192,40363,1,0,0:0:0:0:
298,192,40484,1,0,0:0:0:0:
213,192,40606,1,0,0:0:0:0:
42,192,40606,1,0,0:0:0:0:
213,192,40727,1,2,0:0:0:0:
42,192,40727,1,0,0:0:0:0:
469,192,40727,1,0,0:0:0:0:
213,192,40969,1,0,0:0:0:0:
128,192,41090,1,0,0:0:0:0:
298,192,41090,1,2,0:0:0:0:
469,192,41090,1,0,0:0:0:0:
213,192,41212,1,0,0:0:0:0:
469,192,41333,1,0,0:0:0:0:
384,192,41454,1,0,0:0:0:0:
298,192,41454,1,2,0:0:0:0:
42,192,41454,1,0,0:0:0:0:
128,192,41575,1,0,0:0:0:0:
213,192,41696,1,0,0:0:0:0:
469,192,41818,1,0,0:0:0:0:
298,192,41818,1,2,0:0:0:0:
42,192,41939,1,0,0:0:0:0:
128,192,41939,1,0,0:0:0:0:
298,192,42060,1,0,0:0:0:0:
213,192,42060,1,0,0:0:0:0:
384,192,42181,1,2,0:0:0:0:
469,192,42181,1,0,0:0:0:0:
42,192,42181,1,0,0:0:0:0:
128,192,42303,1,0,0:0:0:0:
213,192,42424,1,0,0:0:0:0:
384,192,42545,1,2,0:0:0:0:
42,192,42545,1,0,0:0:0:0:
298,192,42545,1,0,0:0:0:0:
128,192,42666,1,0,0:0:0:0:
213,192,42787,1,0,0:0:0:0:
42,192,42909,1,0,0:0:0:0:
384,192,42909,1,2,0:0:0:0:
298,192,42909,1,0,0:0:0:0:
128,192,43030,1,0,0:0:0:0:
213,192,43151,1,0,0:0:0:0:
42,192,43272,1,0,0:0:0:0:
298,192,43272,1,0,0:0:0:0:
384,192,43272,1,2,0:0:0:0:
128,192,43393,1,0,0:0:0:0:
469,192,43515,1,0,0:0:0:0:
213,192,43515,1,0,0:0:0:0:
213,192,43636,1,2,0:0:0:0:
469,192,43636,1,0,0:0:0:0:
42,192,43636,1,0,0:0:0:0:
298,192,43878,1,0,0:0:0:0:
42,192,44000,1,0,0:0:0:0:
213,192,44000,1,2,0:0:0:0:
384,192,44000,1,0,0:0:0:0:
298,192,44121,1,0,0:0:0:0:
128,192,44242,1,0,0:0:0:0:
42,192,44363,1,0,0:0:0:0:
469,192,44363,1,0,0:0:0:0:
298,192,44363,1,2,0:0:0:0:
384,192,44484,1,0,0:0:0:0:
128,192,44606,1,0,0:0:0:0:
298,192,44727,1,0,0:0:0:0:
213,192,44848,1,0,0:0:0:0:
384,192,44969,1,0,0:0:0:0:
469,192,44969,1,0,0:0:0:0:
128,192,45090,1,0,0:0:0:0:
42,192,45090,1,0,0:0:0:0:
298,192,45090,1,0,0:0:0:0:
213,192,45333,1,0,0:0:0:0:
298,192,45333,1,0,0:0:0:0:
128,192,45454,1,0,0:0:0:0:
469,192,45454,1,0,0:0:0:0:
384,192,45454,1,2,0:0:0:0:
42,192,45454,1,0,0:0:0:0:
298,192,45575,1,0,0:0:0:0:
213,192,45696,1,0,0:0:0:0:
384,192,45818,1,2,0:0:0:0:
469,192,45818,1,0,0:0:0:0:
128,192,45818,1,0,0:0:0:0:
298,192,45939,1,0,0:0:0:0:
213,192,46060,1,0,0:0:0:0:
469,192,46181,1,0,0:0:0:0:
384,192,46181,1,2,0:0:0:0:
128,192,46181,1,0,0:0:0:0:
298,192,46303,1,0,0:0:0:0:
213,192,46424,1,8,0:0:0:0:
42,192,46424,1,0,0:0:0:0:
42,192,46545,1,0,0:0:0:0:
469,192,46545,1,0,0:0:0:0:
213,192,46545,1,2,0:0:0:0:
213,192,46787,1,0,0:0:0:0:
298,192,46909,1,2,0:0:0:0:
128,192,46909,1,0,0:0:0:0:
469,192,46909,1,0,0:0:0:0:
213,192,47030,1,0,0:0:0:0:
42,192,47151,1,0,0:0:0:0:
384,192,47272,1,0,0:0:0:0:
128,192,47272,1,0,0:0:0:0:
298,192,47272,1,2,0:0:0:0:
469,192,47393,1,0,0:0:0:0:
213,192,47515,1,0,0:0:0:0:
298,192,47636,1,2,0:0:0:0:
128,192,47636,1,0,0:0:0:0:
42,192,47757,1,0,0:0:0:0:
384,192,47878,1,8,0:0:0:0:
213,192,47878,1,0,0:0:0:0:
42,192,48000,1,0,0:0:0:0:
298,192,48000,1,2,0:0:0:0:
128,192,48000,1,0,0:0:0:0:
384,192,48242,1,2,0:0:0:0:
469,192,48242,1,0,0:0:0:0:
213,192,48363,1,0,0:0:0:0:
42,192,48484,1,0,0:0:0:0:
128,192,48484,1,2,0:0:0:0:
469,192,48727,1,0,0:0:0:0:
384,192,48727,1,0,0:0:0:0:
213,192,48727,1,2,0:0:0:0:
42,192,48969,1,0,0:0:0:0:
128,192,48969,1,2,0:0:0:0:
213,192,49090,1,0,0:0:0:0:
384,192,49212,1,2,0:0:0:0:
469,192,49212,1,0,0:0:0:0:
213,192,49333,1,0,0:0:0:0:
42,192,49454,1,0,0:0:0:0:
128,192,49454,1,0,0:0:0:0:
298,192,49454,1,2,0:0:0:0:
384,192,49575,1,2,0:0:0:0:
469,192,49575,1,0,0:0:0:0:
213,192,49696,1,2,0:0:0:0:
128,192,49696,1,0,0:0:0:0:
298,192,49818,1,2,0:0:0:0:
384,192,49818,1,0,0:0:0:0:
469,192,49818,1,0,0:0:0:0:
42,192,49939,1,0,0:0:0:0:
128,192,49939,1,2,0:0:0:0:
298,192,50060,1,0,0:0:0:0:
213,192,50060,1,2,0:0:0:0:
469,192,50181,1,0,0:0:0:0:
384,192,50181,1,2,0:0:0:0:
42,192,50181,1,0,0:0:0:0:
213,192,50303,1,0,0:0:0:0:
128,192,50424,1,0,0:0:0:0:
298,192,50424,1,2,0:0:0:0:
384,192,50545,1,0,0:0:0:0:
213,192,50666,1,2,0:0:0:0:
42,192,50666,1,0,0:0:0:0:
298,192,50787,1,0,0:0:0:0:
42,192,51818,1,0,0:0:0:0:
469,192,51818,1,8,0:0:0:0:
469,192,52000,1,8,0:0:0:0:
42,192,52000,1,0,0:0:0:0:
384,192,52181,1,0,0:0:0:0:
42,192,52363,1,0,0:0:0:0:
213,192,52363,1,4,0:0:0:0:
469,192,52363,1,0,0:0:0:0:
298,192,52363,1,2,0:0:0:0:
298,192,52545,128,0,52727:0:0:0:0:
128,192,52545,1,2,0:0:0:0:
384,192,52545,1,0,0:0:0:0:
213,192,52727,1,8,0:0:0:0:
42,192,52727,1,0,0:0:0:0:
469,192,52727,1,0,0:0:0:0:
298,192,52909,128,0,53090:0:0:0:0:
42,192,52909,1,0,0:0:0:0:
128,192,53000,1,0,0:0:0:0:
469,192,53090,1,0,0:0:0:0:
213,192,53090,1,2,0:0:0:0:
384,192,53272,1,2,0:0:0:0:
298,192,53363,1,2,0:0:0:0:
213,192,53454,1,8,0:0:0:0:
469,192,53454,1,0,0:0:0:0:
42,192,53454,1,0,0:0:0:0:
128,192,53636,1,0,0:0:0:0:
213,192,53727,1,0,0:0:0:0:
469,192,53818,1,0,0:0:0:0:
42,192,53818,1,0,0:0:0:0:
298,192,53818,1,2,0:0:0:0:
42,192,54000,1,0,0:0:0:0:
384,192,54000,1,2,0:0:0:0:
469,192,54181,1,0,0:0:0:0:
128,192,54181,1,0,0:0:0:0:
298,192,54181,1,8,0:0:0:0:
213,192,54363,1,0,0:0:0:0:
128,192,54454,1,0,0:0:0:0:
42,192,54545,1,0,0:0:0:0:
384,192,54545,1,2,0:0:0:0:
298,192,54727,1,2,0:0:0:0:
384,192,54818,1,2,0:0:0:0:
469,192,54909,1,0,0:0:0:0:
42,192,54909,1,0,0:0:0:0:
213,192,54909,1,8,0:0:0:0:
384,192,55090,1,0,0:0:0:0:
298,192,55181,1,0,0:0:0:0:
213,192,55272,128,2,55454:0:0:0:0:
469,192,55272,1,0,0:0:0:0:
42,192,55272,1,0,0:0:0:0:
298,192,55454,128,2,55636:0:0:0:0:
384,192,55454,1,0,0:0:0:0:
128,192,55454,1,0,0:0:0:0:
469,192,55636,1,0,0:0:0:0:
213,192,55636,128,8,55818:0:0:0:0:
42,192,55636,1,0,0:0:0:0:
384,192,55636,1,0,0:0:0:0:
298,192,55818,128,0,56000:0:0:0:0:
42,192,55818,1,0,0:0:0:0:
128,192,55909,1,0,0:0:0:0:
469,192,56000,1,2,0:0:0:0:
213,192,56000,1,0,0:0:0:0:
298,192,56181,1,2,0:0:0:0:
128,192,56181,1,0,0:0:0:0:
384,192,56272,1,2,0:0:0:0:
42,192,56363,1,0,0:0:0:0:
469,192,56363,1,0,0:0:0:0:
213,192,56363,1,8,0:0:0:0:
128,192,56545,1,0,0:0:0:0:
213,192,56636,1,0,0:0:0:0:
298,192,56727,1,2,0:0:0:0:
384,192,56727,1,4,0:0:0:0:
469,192,56727,1,0,0:0:0:0:
42,192,56727,1,0,0:0:0:0:
213,192,56909,1,8,0:0:0:0:
128,192,56909,1,0,0:0:0:0:
298,192,57000,1,8,0:0:0:0:
384,192,57000,1,0,0:0:0:0:
213,192,57090,1,2,0:0:0:0:
128,192,57090,1,0,0:0:0:0:
42,192,57090,1,0,0:0:0:0:
384,192,57272,1,0,0:0:0:0:
298,192,57272,1,8,0:0:0:0:
128,192,57363,1,0,0:0:0:0:
213,192,57363,1,8,0:0:0:0:
298,192,57454,1,2,0:0:0:0:
384,192,57454,1,0,0:0:0:0:
469,192,57454,1,0,0:0:0:0:
42,192,57636,1,0,0:0:0:0:
128,192,57636,1,8,0:0:0:0:
384,192,57727,1,8,0:0:0:0:
469,192,57727,1,0,0:0:0:0:
128,192,57818,1,0,0:0:0:0:
213,192,57818,1,2,0:0:0:0:
298,192,57909,1,2,0:0:0:0:
384,192,57909,1,0,0:0:0:0:
213,192,58000,1,8,0:0:0:0:
128,192,58000,1,0,0:0:0:0:
384,192,58181,1,0,0:0:0:0:
213,192,58363,128,2,58545:0:0:0:0:
469,192,58363,1,0,0:0:0:0:
298,192,58363,1,4,0:0:0:0:
42,192,58363,1,0,0:0:0:0:
128,192,58545,1,0,0:0:0:0:
384,192,58545,1,0,0:0:0:0:
298,192,58545,1,8,0:0:0:0:
213,192,58727,128,0,58909:0:0:0:0:
42,192,58727,1,0,0:0:0:0:
469,192,58727,1,0,0:0:0:0:
384,192,58818,1,0,0:0:0:0:
128,192,58909,1,0,0:0:0:0:
298,192,58909,1,2,0:0:0:0:
213,192,59090,1,2,0:0:0:0:
469,192,59090,1,0,0:0:0:0:
298,192,59181,1,2,0:0:0:0:
42,192,59272,1,0,0:0:0:0:
384,192,59272,1,8,0:0:0:0:
128,192,59272,1,0,0:0:0:0:
298,192,59454,1,0,0:0:0:0:
213,192,59545,1,0,0:0:0:0:
42,192,59636,1,0,0:0:0:0:
128,192,59636,1,2,0:0:0:0:
384,192,59636,1,0,0:0:0:0:
42,192,59818,1,0,0:0:0:0:
298,192,59818,1,2,0:0:0:0:
128,192,60000,1,0,0:0:0:0:
384,192,60000,1,8,0:0:0:0:
469,192,60000,1,0,0:0:0:0:
213,192,60181,1,0,0:0:0:0:
298,192,60272,1,0,0:0:0:0:
384,192,60363,1,2,0:0:0:0:
128,192,60363,1,0,0:0:0:0:
469,192,60545,1,0,0:0:0:0:
213,192,60545,1,2,0:0:0:0:
128,192,60636,1,2,0:0:0:0:
42,192,60727,1,0,0:0:0:0:
298,192,60727,1,8,0:0:0:0:
384,192,60727,1,0,0:0:0:0:
213,192,60909,1,0,0:0:0:0:
298,192,61000,1,0,0:0:0:0:
384,192,61090,1,2,0:0:0:0:
128,192,61090,1,0,0:0:0:0:
42,192,61090,1,0,0:0:0:0:
298,192,61272,128,4,61454:0:0:0:0:
213,192,61272,1,2,0:0:0:0:
42,192,61272,1,0,0:0:0:0:
384,192,61454,1,0,0:0:0:0:
469,192,61454,1,0,0:0:0:0:
128,192,61454,1,8,0:0:0:0:
298,192,61636,128,0,61818:0:0:0:0:
42,192,61636,1,0,0:0:0:0:
128,192,61727,1,0,0:0:0:0:
213,192,61818,1,2,0:0:0:0:
384,192,61818,1,0,0:0:0:0:
469,192,62000,1,2,0:0:0:0:
128,192,62000,1,0,0:0:0:0:
384,192,62090,1,2,0:0:0:0:
298,192,62181,1,8,0:0:0:0:
42,192,62181,1,0,0:0:0:0:
213,192,62181,1,0,0:0:0:0:
128,192,62363,1,0,0:0:0:0:
213,192,62454,1,0,0:0:0:0:
469,192,62545,1,0,0:0:0:0:
298,192,62545,1,6,0:0:0:0:
384,192,62545,1,0,0:0:0:0:
42,192,62545,1,0,0:0:0:0:
128,192,62727,1,0,0:0:0:0:
213,192,62727,1,8,0:0:0:0:
298,192,62818,1,8,0:0:0:0:
384,192,62818,1,0,0:0:0:0:
213,192,62909,1,2,0:0:0:0:
128,192,62909,1,0,0:0:0:0:
42,192,62909,1,0,0:0:0:0:
384,192,63090,1,0,0:0:0:0:
298,192,63090,1,8,0:0:0:0:
213,192,63181,1,8,0:0:0:0:
128,192,63181,1,0,0:0:0:0:
298,192,63272,1,2,0:0:0:0:
384,192,63272,1,0,0:0:0:0:
469,192,63272,1,0,0:0:0:0:
213,192,63454,1,8,0:0:0:0:
128,192,63454,1,0,0:0:0:0:
298,192,63545,1,8,0:0:0:0:
384,192,63545,1,0,0:0:0:0:
213,192,63636,1,2,0:0:0:0:
128,192,63636,1,0,0:0:0:0:
469,192,63727,1,0,0:0:0:0:
384,192,63727,1,2,0:0:0:0:
42,192,63818,1,0,0:0:0:0:
128,192,63818,1,8,0:0:0:0:
298,192,64000,128,2,64090:0:0:0:0:
469,192,64000,1,0,0:0:0:0:
213,192,64000,1,4,0:0:0:0:
42,192,64000,1,0,0:0:0:0:
128,192,64181,128,2,64272:0:0:0:0:
213,192,64181,1,0,0:0:0:0:
384,192,64181,1,0,0:0:0:0:
298,192,64363,128,8,64454:0:0:0:0:
469,192,64363,1,0,0:0:0:0:
42,192,64363,1,0,0:0:0:0:
213,192,64545,128,0,64636:0:0:0:0:
42,192,64545,1,0,0:0:0:0:
384,192,64545,1,0,0:0:0:0:
469,192,64727,128,0,64818:0:0:0:0:
298,192,64727,1,0,0:0:0:0:
128,192,64727,1,0,0:0:0:0:
469,192,64909,1,0,0:0:0:0:
42,192,64909,128,2,65000:0:0:0:0:
213,192,64909,1,0,0:0:0:0:
384,192,65090,128,8,65181:0:0:0:0:
298,192,65090,1,0,0:0:0:0:
128,192,65090,1,0,0:0:0:0:
128,192,65272,128,0,65363:0:0:0:0:
213,192,65272,1,0,0:0:0:0:
469,192,65272,1,0,0:0:0:0:
42,192,65454,1,0,0:0:0:0:
384,192,65454,128,2,65545:0:0:0:0:
298,192,65454,1,0,0:0:0:0:
298,192,65636,128,2,65727:0:0:0:0:
213,192,65636,1,0,0:0:0:0:
469,192,65636,1,0,0:0:0:0:
128,192,65818,128,8,65909:0:0:0:0:
384,192,65818,1,0,0:0:0:0:
42,192,65818,1,0,0:0:0:0:
213,192,66000,128,0,66090:0:0:0:0:
42,192,66000,1,0,0:0:0:0:
298,192,66000,1,0,0:0:0:0:
469,192,66181,128,0,66272:0:0:0:0:
384,192,66181,1,0,0:0:0:0:
128,192,66181,1,0,0:0:0:0:
298,192,66363,128,2,66454:0:0:0:0:
469,192,66363,1,0,0:0:0:0:
213,192,66363,1,0,0:0:0:0:
42,192,66545,128,8,66636:0:0:0:0:
384,192,66545,1,0,0:0:0:0:
128,192,66545,1,0,0:0:0:0:
213,192,66727,128,0,66818:0:0:0:0:
42,192,66727,1,0,0:0:0:0:
298,192,66727,1,0,0:0:0:0:
384,192,66909,128,2,67000:0:0:0:0:
469,192,66909,1,0,0:0:0:0:
128,192,66909,1,0,0:0:0:0:
128,192,67090,128,2,67181:0:0:0:0:
298,192,67090,1,0,0:0:0:0:
42,192,67090,1,0,0:0:0:0:
469,192,67272,128,8,67363:0:0:0:0:
384,192,67272,1,0,0:0:0:0:
213,192,67272,1,0,0:0:0:0:
213,192,67454,128,0,67545:0:0:0:0:
42,192,67454,1,0,0:0:0:0:
128,192,67454,1,0,0:0:0:0:
298,192,67636,128,0,67727:0:0:0:0:
469,192,67636,1,0,0:0:0:0:
384,192,67636,1,0,0:0:0:0:
42,192,67818,128,2,67909:0:0:0:0:
128,192,67818,1,0,0:0:0:0:
298,192,67818,1,0,0:0:0:0:
384,192,68000,128,8,68090:0:0:0:0:
469,192,68000,1,0,0:0:0:0:
213,192,68000,1,0,0:0:0:0:
128,192,68181,128,0,68272:0:0:0:0:
384,192,68181,1,0,0:0:0:0:
298,192,68181,1,0,0:0:0:0:
298,192,68363,128,2,68454:0:0:0:0:
213,192,68363,1,4,0:0:0:0:
42,192,68363,1,0,0:0:0:0:
469,192,68363,1,0,0:0:0:0:
469,192,68545,128,0,68636:0:0:0:0:
128,192,68545,1,0,0:0:0:0:
384,192,68545,1,0,0:0:0:0:
213,192,68727,128,8,68818:0:0:0:0:
298,192,68727,1,0,0:0:0:0:
42,192,68727,1,0,0:0:0:0:
42,192,68909,128,0,69000:0:0:0:0:
128,192,68909,1,0,0:0:0:0:
384,192,68909,1,0,0:0:0:0:
298,192,69090,128,2,69181:0:0:0:0:
469,192,69090,1,0,0:0:0:0:
213,192,69090,1,0,0:0:0:0:
384,192,69272,128,8,69363:0:0:0:0:
128,192,69272,1,0,0:0:0:0:
469,192,69272,1,0,0:0:0:0:
213,192,69454,128,0,69545:0:0:0:0:
298,192,69454,1,0,0:0:0:0:
42,192,69454,1,0,0:0:0:0:
128,192,69636,128,0,69727:0:0:0:0:
213,192,69636,1,0,0:0:0:0:
469,192,69636,1,0,0:0:0:0:
469,192,69818,128,0,70000:0:0:0:0:
384,192,69818,128,0,70000:0:0:0:0:
298,192,69818,1,0,0:0:0:0:
42,192,70000,1,0,0:0:0:0:
128,192,70000,128,2,70090:0:0:0:0:
213,192,70000,1,4,0:0:0:0:
298,192,70181,128,8,70272:0:0:0:0:
469,192,70181,1,0,0:0:0:0:
128,192,70181,1,0,0:0:0:0:
213,192,70363,128,0,70454:0:0:0:0:
42,192,70363,1,0,0:0:0:0:
298,192,70363,1,0,0:0:0:0:
469,192,70545,128,2,70636:0:0:0:0:
128,192,70545,1,0,0:0:0:0:
384,192,70545,1,0,0:0:0:0:
42,192,70727,128,8,70818:0:0:0:0:
213,192,70727,1,0,0:0:0:0:
469,192,70727,1,0,0:0:0:0:
384,192,70909,128,0,71000:0:0:0:0:
128,192,70909,1,0,0:0:0:0:
298,192,70909,1,0,0:0:0:0:
128,192,71090,128,0,71181:0:0:0:0:
213,192,71090,1,0,0:0:0:0:
384,192,71090,1,0,0:0:0:0:
298,192,71272,128,2,71363:0:0:0:0:
469,192,71272,1,0,0:0:0:0:
42,192,71272,1,0,0:0:0:0:
384,192,71454,128,0,71545:0:0:0:0:
213,192,71454,1,0,0:0:0:0:
469,192,71454,1,0,0:0:0:0:
128,192,71636,128,8,71727:0:0:0:0:
298,192,71636,1,0,0:0:0:0:
42,192,71636,1,0,0:0:0:0:
42,192,71818,128,0,71909:0:0:0:0:
213,192,71818,1,0,0:0:0:0:
469,192,71818,1,0,0:0:0:0:
384,192,72000,128,2,72090:0:0:0:0:
298,192,72000,1,0,0:0:0:0:
128,192,72000,1,0,0:0:0:0:
298,192,72181,128,8,72272:0:0:0:0:
42,192,72181,1,0,0:0:0:0:
469,192,72181,1,0,0:0:0:0:
128,192,72363,128,0,72454:0:0:0:0:
213,192,72363,1,0,0:0:0:0:
384,192,72363,1,0,0:0:0:0:
213,192,72545,128,0,72636:0:0:0:0:
42,192,72545,1,0,0:0:0:0:
298,192,72545,1,0,0:0:0:0:
469,192,72727,128,2,72818:0:0:0:0:
128,192,72727,1,0,0:0:0:0:
384,192,72727,1,0,0:0:0:0:
42,192,72909,128,0,73000:0:0:0:0:
213,192,72909,1,0,0:0:0:0:
469,192,72909,1,0,0:0:0:0:
298,192,72909,1,0,0:0:0:0:
298,192,73090,128,8,73181:0:0:0:0:
384,192,73090,1,0,0:0:0:0:
128,192,73090,1,0,0:0:0:0:
128,192,73272,128,0,73363:0:0:0:0:
469,192,73272,1,0,0:0:0:0:
213,192,73272,1,0,0:0:0:0:
384,192,73454,128,2,73545:0:0:0:0:
298,192,73454,1,0,0:0:0:0:
42,192,73454,1,0,0:0:0:0:
213,192,73636,128,8,73727:0:0:0:0:
128,192,73636,1,0,0:0:0:0:
384,192,73636,1,0,0:0:0:0:
469,192,73818,128,0,73909:0:0:0:0:
298,192,73818,1,0,0:0:0:0:
42,192,73818,1,0,0:0:0:0:
42,192,74000,128,0,74090:0:0:0:0:
128,192,74000,1,0,0:0:0:0:
384,192,74000,1,0,0:0:0:0:
298,192,74181,128,2,74272:0:0:0:0:
213,192,74181,1,4,0:0:0:0:
469,192,74181,1,0,0:0:0:0:
42,192,74181,1,0,0:0:0:0:
384,192,74363,128,0,74454:0:0:0:0:
469,192,74363,1,0,0:0:0:0:
128,192,74363,1,0,0:0:0:0:
213,192,74545,128,8,74636:0:0:0:0:
298,192,74545,1,0,0:0:0:0:
42,192,74545,1,0,0:0:0:0:
128,192,74727,128,0,74818:0:0:0:0:
384,192,74727,1,0,0:0:0:0:
213,192,74727,1,0,0:0:0:0:
469,192,74909,128,2,75000:0:0:0:0:
42,192,74909,1,0,0:0:0:0:
298,192,74909,1,0,0:0:0:0:
384,192,75090,128,8,75181:0:0:0:0:
469,192,75090,1,0,0:0:0:0:
213,192,75090,1,0,0:0:0:0:
42,192,75272,128,0,75363:0:0:0:0:
128,192,75272,1,0,0:0:0:0:
298,192,75272,1,0,0:0:0:0:
128,192,75454,128,8,75545:0:0:0:0:
213,192,75454,1,0,0:0:0:0:
384,192,75454,1,0,0:0:0:0:
42,192,75636,1,0,0:0:0:0:
469,192,75636,1,0,0:0:0:0:
213,192,75636,1,4,0:0:0:0:
298,192,75636,1,2,0:0:0:0:
128,192,75818,1,0,0:0:0:0:
298,192,75818,1,2,0:0:0:0:
469,192,76000,1,0,0:0:0:0:
213,192,76000,1,0,0:0:0:0:
384,192,76000,1,8,0:0:0:0:
298,192,76181,1,0,0:0:0:0:
128,192,76272,1,0,0:0:0:0:
384,192,76363,1,0,0:0:0:0:
213,192,76454,1,0,0:0:0:0:
469,192,76545,1,0,0:0:0:0:
384,192,76545,1,2,0:0:0:0:
42,192,76636,1,0,0:0:0:0:
128,192,76636,1,2,0:0:0:0:
384,192,76727,1,0,0:0:0:0:
298,192,76727,1,8,0:0:0:0:
213,192,76727,1,0,0:0:0:0:
128,192,76909,1,0,0:0:0:0:
384,192,77000,1,0,0:0:0:0:
298,192,77090,1,2,0:0:0:0:
42,192,77090,1,0,0:0:0:0:
213,192,77272,1,0,0:0:0:0:
384,192,77363,1,0,0:0:0:0:
469,192,77363,1,2,0:0:0:0:
42,192,77454,1,8,0:0:0:0:
128,192,77454,1,0,0:0:0:0:
298,192,77454,1,0,0:0:0:0:
213,192,77636,1,0,0:0:0:0:
384,192,77727,1,0,0:0:0:0:
128,192,77818,1,0,0:0:0:0:
298,192,77909,1,0,0:0:0:0:
42,192,78000,1,0,0:0:0:0:
128,192,78000,1,2,0:0:0:0:
384,192,78090,1,0,0:0:0:0:
469,192,78090,1,2,0:0:0:0:
213,192,78181,1,8,0:0:0:0:
128,192,78181,1,0,0:0:0:0:
298,192,78181,1,0,0:0:0:0:
384,192,78363,1,0,0:0:0:0:
213,192,78454,1,0,0:0:0:0:
384,192,78545,1,2,0:0:0:0:
469,192,78545,1,0,0:0:0:0:
42,192,78545,1,0,0:0:0:0:
213,192,78727,1,0,0:0:0:0:
298,192,78727,1,2,0:0:0:0:
42,192,78909,1,0,0:0:0:0:
469,192,78909,1,8,0:0:0:0:
128,192,78909,1,0,0:0:0:0:
213,192,79090,1,0,0:0:0:0:
384,192,79181,1,0,0:0:0:0:
128,192,79272,1,0,0:0:0:0:
298,192,79363,1,0,0:0:0:0:
42,192,79454,1,0,0:0:0:0:
128,192,79454,1,2,0:0:0:0:
469,192,79545,1,0,0:0:0:0:
384,192,79545,1,2,0:0:0:0:
298,192,79636,1,8,0:0:0:0:
213,192,79636,1,0,0:0:0:0:
42,192,79636,1,0,0:0:0:0:
128,192,79818,1,0,0:0:0:0:
384,192,79909,1,0,0:0:0:0:
128,192,80000,1,8,0:0:0:0:
213,192,80000,1,0,0:0:0:0:
298,192,80090,1,0,0:0:0:0:
384,192,80090,1,8,0:0:0:0:
42,192,80181,1,0,0:0:0:0:
128,192,80181,1,8,0:0:0:0:
384,192,80272,1,8,0:0:0:0:
469,192,80272,1,0,0:0:0:0:
213,192,80363,1,0,0:0:0:0:
128,192,80363,1,8,0:0:0:0:
298,192,80545,128,0,80727:0:0:0:0:
384,192,80727,1,8,0:0:0:0:
469,192,80727,1,0,0:0:0:0:
42,192,80818,1,0,0:0:0:0:
128,192,80818,1,8,0:0:0:0:
298,192,80909,1,0,0:0:0:0:
384,192,80909,1,8,0:0:0:0:
213,192,81000,1,0,0:0:0:0:
128,192,81000,1,8,0:0:0:0:
384,192,81090,1,8,0:0:0:0:
469,192,81090,1,0,0:0:0:0:
42,192,81181,1,0,0:0:0:0:
128,192,81181,1,8,0:0:0:0:
298,192,81272,1,0,0:0:0:0:
384,192,81272,1,8,0:0:0:0:
213,192,81454,128,0,81636:0:0:0:0:
42,192,81454,1,0,0:0:0:0:
128,192,81636,1,2,0:0:0:0:
298,192,81636,1,4,0:0:0:0:
469,192,81636,1,0,0:0:0:0:
384,192,81818,1,0,0:0:0:0:
213,192,81818,1,8,0:0:0:0:
42,192,81818,1,0,0:0:0:0:
298,192,82000,1,0,0:0:0:0:
213,192,82090,1,0,0:0:0:0:
384,192,82181,1,2,0:0:0:0:
128,192,82181,1,0,0:0:0:0:
298,192,82363,1,2,0:0:0:0:
213,192,82363,1,0,0:0:0:0:
42,192,82454,1,2,0:0:0:0:
128,192,82454,1,0,0:0:0:0:
469,192,82545,1,8,0:0:0:0:
384,192,82545,1,0,0:0:0:0:
298,192,82545,1,0,0:0:0:0:
384,192,82727,128,0,82909:0:0:0:0:
213,192,82909,1,2,0:0:0:0:
42,192,82909,1,0,0:0:0:0:
128,192,82909,1,0,0:0:0:0:
469,192,83090,128,0,83272:0:0:0:0:
128,192,83272,1,0,0:0:0:0:
298,192,83272,1,2,0:0:0:0:
213,192,83272,1,0,0:0:0:0:
469,192,83454,128,0,83636:0:0:0:0:
213,192,83636,1,2,0:0:0:0:
42,192,83636,1,0,0:0:0:0:
128,192,83636,1,0,0:0:0:0:
469,192,83818,128,0,84000:0:0:0:0:
128,192,84000,1,0,0:0:0:0:
298,192,84000,1,2,0:0:0:0:
213,192,84000,1,0,0:0:0:0:
469,192,84181,128,0,84363:0:0:0:0:
42,192,84181,1,0,0:0:0:0:
128,192,84242,1,0,0:0:0:0:
213,192,84303,1,0,0:0:0:0:
298,192,84363,1,2,0:0:0:0:
384,192,84363,1,0,0:0:0:0:
42,192,84454,1,0,0:0:0:0:
128,192,84454,1,8,0:0:0:0:
469,192,84636,1,0,0:0:0:0:
384,192,84636,1,8,0:0:0:0:
128,192,84818,1,8,0:0:0:0:
42,192,84818,1,0,0:0:0:0:
384,192,85000,1,8,0:0:0:0:
469,192,85000,1,0,0:0:0:0:
42,192,85181,1,0,0:0:0:0:
128,192,85181,1,8,0:0:0:0:
469,192,85363,1,0,0:0:0:0:
384,192,85363,1,8,0:0:0:0:
42,192,85545,1,0,0:0:0:0:
128,192,85545,1,8,0:0:0:0:
384,192,85727,1,8,0:0:0:0:
469,192,85727,1,0,0:0:0:0:
213,192,85818,1,4,0:0:0:0:
128,192,85818,1,2,0:0:0:0:
42,192,85818,1,0,0:0:0:0:
42,192,86000,1,8,0:0:0:0:
128,192,86060,1,8,0:0:0:0:
213,192,86121,1,8,0:0:0:0:
298,192,86181,1,8,0:0:0:0:
384,192,86272,1,8,0:0:0:0:
469,192,86363,1,8,0:0:0:0:
42,192,86484,1,8,0:0:0:0:
128,192,86606,1,8,0:0:0:0:
213,192,86757,1,8,0:0:0:0:
298,192,86909,1,8,0:0:0:0:
384,192,87151,1,8,0:0:0:0:
213,192,87272,1,8,0:0:0:0:
42,192,87272,1,0,0:0:0:0:
298,192,87272,1,4,0:0:0:0:
469,192,87272,1,2,0:0:0:0:
