osu file format v14

[General]
AudioFilename: 37040_newgrounds_parago.mp3
AudioLeadIn: 1500
PreviewTime: 39272
Countdown: 0
SampleSet: None
StackLeniency: 0
Mode: 0
LetterboxInBreaks: 0
WidescreenStoryboard: 0

[Editor]
DistanceSpacing: 1.1
BeatDivisor: 4
GridSize: 32
TimelineZoom: 2.4

[Metadata]
Title:Chaoz Japan
TitleUnicode:Chaoz Japan
Artist:ParagonX9
ArtistUnicode:ParagonX9
Creator:MEK
Version:Turmoil
Source:
Tags:
BeatmapID:911612
BeatmapSetID:421502

[Difficulty]
HPDrainRate:5
CircleSize:4.3
OverallDifficulty:8
ApproachRate:9.2
SliderMultiplier:1.4
SliderTickRate:1

[Events]
//Background and Video events
0,0,"japan_wallpaper_by_horizonpl-3d28c8.jpg",0,0
//Break Periods
2,35108,38702
//Storyboard Layer 0 (Background)
//Storyboard Layer 1 (Fail)
//Storyboard Layer 2 (Pass)
//Storyboard Layer 3 (Foreground)
//Storyboard Sound Samples

[TimingPoints]
0,363.636363636364,4,1,0,35,1,0
0,-100,4,1,0,35,0,0
5818,-100,4,3,0,35,0,0
11636,-100,4,1,0,35,0,0
16000,-66.6666666666667,4,1,0,35,0,0
17636,-100,4,1,0,35,0,0
22909,-100,4,2,0,35,0,0
23272,-100,4,2,0,35,0,1
34909,-100,4,2,0,35,0,0
39272,-100,4,3,0,35,0,0
48242,-50,4,2,0,35,0,0
49454,-100,4,2,0,35,0,0
51818,-100,4,1,0,35,0,0
58000,-200,4,2,0,5,0,0
58363,-50,4,1,0,35,0,0
58727,-100,4,1,0,35,0,0
63818,-200,4,2,0,5,0,0
64181,-100,4,1,0,35,0,0
69818,-100,4,2,0,5,0,0
70181,-100,4,1,0,35,0,0
81454,-100,4,2,0,5,0,0
81818,-100,4,1,0,35,0,0
82727,-50,4,1,0,35,0,0
83090,-100,4,1,0,35,0,0
87272,-100,4,3,0,55,0,0

[HitObjects]
312,177,0,5,0,0:0:0:0:
436,201,181,5,12,0:0:0:0:
449,129,272,1,12,0:0:0:0:
505,176,363,1,12,0:0:0:0:
268,59,545,5,8,0:0:0:0:
229,276,727,1,8,0:0:0:0:
436,201,909,5,12,0:0:0:0:
380,154,1000,1,12,0:0:0:0:
367,226,1090,1,12,0:0:0:0:
354,298,1272,5,8,0:0:0:0:
341,370,1454,1,8,0:0:0:0:
367,226,1636,5,8,0:0:0:0:
311,179,1818,1,8,0:0:0:0:
255,132,2000,1,8,0:0:0:0:
199,85,2181,1,8,0:0:0:0:
143,38,2363,5,8,0:0:0:0:
104,255,2545,1,8,0:0:0:0:
311,180,2727,1,8,0:0:0:0:
143,38,2909,1,8,0:0:0:0:
199,85,3090,5,12,0:0:0:0:
130,110,3181,1,12,0:0:0:0:
143,38,3272,1,12,0:0:0:0:
130,110,3454,5,8,0:0:0:0:
117,182,3636,1,8,0:0:0:0:
91,326,3818,5,12,0:0:0:0:
104,254,3909,1,12,0:0:0:0:
160,301,4000,1,12,0:0:0:0:
91,326,4181,5,8,0:0:0:0:
189,290,4363,1,8,0:0:0:0:
109,222,4545,1,8,0:0:0:0:
91,326,4727,5,8,0:0:0:0:
116,177,4909,1,8,0:0:0:0:
231,274,5090,1,8,0:0:0:0:
91,326,5272,5,8,0:0:0:0:
291,251,5454,1,8,0:0:0:0:
126,112,5636,1,8,0:0:0:0:
329,69,5818,5,0,0:0:0:0:
399,69,6181,1,0,0:0:0:0:
258,69,6545,1,0,0:0:0:0:
152,69,6727,5,2,0:0:0:0:
258,69,6818,1,2,0:0:0:0:
152,69,6909,1,2,0:0:0:0:
399,69,7090,5,0,0:0:0:0:
185,251,7272,5,0,0:0:0:0:
185,153,7636,1,0,0:0:0:0:
254,222,8000,1,0,0:0:0:0:
413,222,8181,5,2,0:0:0:0:
255,208,8272,1,2,0:0:0:0:
411,236,8363,1,2,0:0:0:0:
99,180,8545,5,0,0:0:0:0:
171,103,8727,6,0,P|218:130|255:136,1,70
224,186,9000,1,0,0:0:0:0:
225,196,9090,2,0,P|275:214|313:213,1,70
291,268,9454,1,0,0:0:0:0:
126,137,9636,5,2,0:0:0:0:
126,242,9727,1,2,0:0:0:0:
216,189,9818,1,2,0:0:0:0:
30,189,10000,5,0,0:0:0:0:
207,291,10181,5,0,0:0:0:0:
226,253,10545,1,0,0:0:0:0:
244,231,10909,1,0,0:0:0:0:
119,135,11636,6,0,P|128:98|155:63,1,70
215,59,11909,1,0,0:0:0:0:
201,127,12000,2,0,P|213:176|212:212,1,70
83,247,12363,5,0,0:0:0:0:
259,80,12545,5,8,0:0:0:0:
224,213,12636,1,8,0:0:0:0:
355,183,12727,1,8,0:0:0:0:
83,247,12909,6,8,L|87:220,1,17.5,8|0,0:0|0:0,0:0:0:0:
166,126,13090,5,0,0:0:0:0:
300,13,13272,1,0,0:0:0:0:
413,147,13454,1,0,0:0:0:0:
279,260,13636,5,0,0:0:0:0:
300,13,13818,1,0,0:0:0:0:
279,260,14000,5,8,0:0:0:0:
289,136,14090,1,8,0:0:0:0:
300,13,14181,1,8,0:0:0:0:
279,260,14363,6,8,L|283:233,1,17.5,8|0,0:0|0:0,0:0:0:0:
123,233,14545,5,0,0:0:0:0:
401,199,14727,5,8,0:0:0:0:
262,182,14818,1,8,0:0:0:0:
408,164,14909,1,8,0:0:0:0:
102,193,15090,5,0,0:0:0:0:
418,130,15272,1,0,0:0:0:0:
89,153,15454,5,8,0:0:0:0:
213,136,15545,1,8,0:0:0:0:
82,118,15636,1,8,0:0:0:0:
424,91,15818,5,0,0:0:0:0:
148,111,16000,2,0,P|259:123|362:94,2,210.000008010865
289,257,16909,6,8,L|293:230,1,17.5,8|0,0:0|0:0,0:0:0:0:
479,200,17272,6,8,L|483:173,1,17.5,8|0,0:0|0:0,0:0:0:0:
279,109,17636,6,0,L|265:186,1,70
109,145,18000,1,0,0:0:0:0:
128,283,18181,1,0,0:0:0:0:
248,354,18363,5,8,0:0:0:0:
333,336,18454,1,8,0:0:0:0:
398,277,18545,1,8,0:0:0:0:
109,145,18727,6,8,L|113:118,1,17.5,8|0,0:0|0:0,0:0:0:0:
227,19,18909,5,0,0:0:0:0:
191,225,19090,1,0,0:0:0:0:
84,43,19272,1,0,0:0:0:0:
290,79,19454,5,0,0:0:0:0:
225,280,19636,1,0,0:0:0:0:
189,74,19818,5,8,0:0:0:0:
225,280,19909,1,8,0:0:0:0:
189,74,20000,1,8,0:0:0:0:
221,303,20181,6,8,L|225:276,1,17.5,8|0,0:0|0:0,0:0:0:0:
427,231,20363,5,0,0:0:0:0:
91,333,20545,5,8,0:0:0:0:
135,163,20636,1,8,0:0:0:0:
91,333,20727,1,8,0:0:0:0:
162,63,20909,5,0,0:0:0:0:
427,231,21090,1,0,0:0:0:0:
135,163,21272,5,8,0:0:0:0:
91,333,21363,1,8,0:0:0:0:
135,163,21454,1,8,0:0:0:0:
503,250,21636,5,0,0:0:0:0:
470,204,21818,1,0,0:0:0:0:
433,182,22000,1,0,0:0:0:0:
405,177,22181,1,0,0:0:0:0:
394,186,22363,1,0,0:0:0:0:
394,193,22545,1,0,0:0:0:0:
387,195,22727,2,8,L|383:222,1,17.5,8|0,0:0|0:0,0:0:0:0:
263,245,23000,5,8,0:0:0:0:
166,345,23090,5,8,0:0:0:0:
137,324,23272,1,8,0:0:0:0:
57,255,23454,5,0,0:0:0:0:
37,191,23545,1,0,0:0:0:0:
81,145,23636,1,0,0:0:0:0:
99,203,23727,1,0,0:0:0:0:
152,218,23818,5,0,0:0:0:0:
136,166,23909,1,0,0:0:0:0:
171,129,24000,1,0,0:0:0:0:
186,176,24090,1,0,0:0:0:0:
202,217,24181,5,0,0:0:0:0:
236,241,24272,1,0,0:0:0:0:
274,241,24363,1,0,0:0:0:0:
305,226,24454,1,0,0:0:0:0:
319,198,24545,5,0,0:0:0:0:
306,172,24636,1,0,0:0:0:0:
281,172,24727,1,0,0:0:0:0:
270,190,24818,1,0,0:0:0:0:
273,170,24909,5,2,0:0:0:0:
277,191,25000,1,0,0:0:0:0:
267,174,25090,1,0,0:0:0:0:
283,187,25181,1,0,0:0:0:0:
264,180,25272,5,0,0:0:0:0:
286,181,25363,1,0,0:0:0:0:
267,187,25454,1,0,0:0:0:0:
283,174,25545,1,0,0:0:0:0:
303,160,25636,5,0,0:0:0:0:
329,152,25727,1,0,0:0:0:0:
359,158,25818,1,0,0:0:0:0:
386,179,25909,1,0,0:0:0:0:
400,214,26000,5,0,0:0:0:0:
376,248,26090,1,0,0:0:0:0:
330,251,26181,1,0,0:0:0:0:
297,214,26272,1,0,0:0:0:0:
294,161,26363,5,2,0:0:0:0:
317,110,26454,1,0,0:0:0:0:
290,56,26545,1,0,0:0:0:0:
232,31,26636,1,0,0:0:0:0:
165,39,26727,5,0,0:0:0:0:
126,97,26818,1,0,0:0:0:0:
114,169,26909,1,0,2:0:0:0:
149,226,27000,1,0,2:0:0:0:
154,162,27090,5,0,2:0:0:0:
190,218,27181,1,0,2:0:0:0:
187,151,27272,1,0,2:0:0:0:
226,204,27363,1,0,2:0:0:0:
221,137,27454,5,0,2:0:0:0:
262,187,27545,1,0,2:0:0:0:
251,120,27636,1,0,2:0:0:0:
294,167,27727,1,2,2:0:0:0:
317,233,27818,5,2,0:0:0:0:
323,226,27909,1,0,0:0:0:0:
329,220,28000,1,0,0:0:0:0:
335,214,28090,1,0,0:0:0:0:
404,220,28181,5,0,0:0:0:0:
408,203,28272,1,0,0:0:0:0:
413,186,28363,1,0,0:0:0:0:
418,169,28454,1,0,0:0:0:0:
357,134,28545,5,0,0:0:0:0:
352,108,28636,1,0,0:0:0:0:
347,82,28727,1,0,0:0:0:0:
342,56,28818,1,0,0:0:0:0:
276,82,28909,5,0,0:0:0:0:
242,74,29000,1,0,0:0:0:0:
208,67,29090,1,0,0:0:0:0:
174,59,29181,1,4,0:0:0:0:
191,126,29272,5,2,0:0:0:0:
197,127,29363,1,2,0:0:0:0:
204,128,29454,1,2,0:0:0:0:
210,130,29545,1,2,0:0:0:0:
186,196,29636,5,0,0:0:0:0:
174,193,29727,1,0,0:0:0:0:
161,190,29818,1,0,0:0:0:0:
148,187,29909,1,0,0:0:0:0:
135,255,30000,5,0,0:0:0:0:
118,251,30090,1,0,0:0:0:0:
101,246,30181,1,0,0:0:0:0:
84,242,30272,1,0,0:0:0:0:
51,179,30363,5,0,0:0:0:0:
29,192,30454,1,0,0:0:0:0:
12,212,30545,1,0,0:0:0:0:
2,236,30636,1,2,0:0:0:0:
0,263,30727,5,2,0:0:0:0:
5,288,30818,1,0,0:0:0:0:
18,311,30909,1,0,0:0:0:0:
39,327,31000,1,0,0:0:0:0:
108,322,31090,5,0,0:0:0:0:
124,327,31181,1,0,0:0:0:0:
141,332,31272,1,0,0:0:0:0:
158,335,31363,1,0,0:0:0:0:
175,338,31454,5,0,0:0:0:0:
184,352,31545,1,0,0:0:0:0:
194,337,31636,1,0,0:0:0:0:
203,351,31727,1,0,0:0:0:0:
236,331,31818,5,0,0:0:0:0:
250,352,31909,1,0,0:0:0:0:
265,329,32000,1,0,0:0:0:0:
279,351,32090,1,2,0:0:0:0:
294,316,32181,5,2,0:0:0:0:
297,366,32272,1,0,0:0:0:0:
348,309,32363,1,2,0:3:0:0:
357,356,32454,1,0,0:3:0:0:
399,292,32545,5,2,0:3:0:0:
415,336,32636,1,0,0:3:0:0:
375,269,32727,1,2,0:0:0:0:
372,319,32818,1,0,0:0:0:0:
321,262,32909,5,2,0:3:0:0:
312,309,33000,1,0,0:3:0:0:
270,245,33091,1,2,0:3:0:0:
254,289,33182,1,0,0:3:0:0:
227,360,33272,5,0,0:0:0:0:
192,359,33363,1,0,0:0:0:0:
158,351,33454,1,0,0:0:0:0:
126,335,33545,1,2,0:0:0:0:
151,310,33636,5,2,0:0:0:0:
121,293,33727,1,0,0:0:0:0:
95,270,33818,1,0,0:0:0:0:
74,242,33909,1,0,0:0:0:0:
114,214,34000,5,0,0:0:0:0:
128,237,34090,1,0,0:0:0:0:
148,256,34181,1,0,0:0:0:0:
175,266,34272,1,0,0:0:0:0:
208,219,34363,5,0,0:0:0:0:
186,215,34453,1,0,0:0:0:0:
169,204,34544,1,0,0:0:0:0:
155,187,34635,1,0,0:0:0:0:
201,175,34727,5,0,0:0:0:0:
209,163,34817,1,0,0:0:0:0:
217,151,34908,1,12,0:0:0:0:
82,88,39272,5,0,0:0:0:0:
85,101,39636,1,0,0:0:0:0:
92,112,40000,1,0,0:0:0:0:
101,121,40363,1,0,0:0:0:0:
79,223,40636,5,8,0:0:0:0:
114,123,40727,1,8,0:0:0:0:
127,121,41090,5,0,0:0:0:0:
140,116,41363,1,8,0:0:0:0:
162,182,41454,5,4,0:0:0:0:
162,290,41575,1,4,0:0:0:0:
99,203,41696,1,4,0:0:0:0:
201,236,41818,1,4,0:0:0:0:
99,269,41939,1,4,0:0:0:0:
216,193,42060,1,4,0:0:0:0:
82,278,42181,1,4,0:0:0:0:
212,329,42545,5,0,0:0:0:0:
276,301,42909,1,0,0:0:0:0:
303,236,43272,1,0,0:0:0:0:
401,200,43545,5,8,0:0:0:0:
302,165,43636,1,8,0:0:0:0:
330,100,44000,5,0,0:0:0:0:
384,56,44272,1,8,0:0:0:0:
394,167,44363,5,4,0:0:0:0:
319,54,44484,1,4,0:0:0:0:
319,165,44606,1,4,0:0:0:0:
254,46,44727,1,4,0:0:0:0:
245,157,44848,1,4,0:0:0:0:
244,46,44969,1,4,0:0:0:0:
254,156,45090,1,4,0:0:0:0:
468,336,45454,5,0,0:0:0:0:
209,227,45818,1,0,0:0:0:0:
193,331,46181,1,0,0:0:0:0:
233,148,46454,5,8,0:0:0:0:
217,44,46545,1,8,0:0:0:0:
387,224,46909,5,0,0:0:0:0:
398,198,47181,1,8,0:0:0:0:
399,137,47272,5,4,0:0:0:0:
328,73,47393,1,4,0:0:0:0:
244,28,47514,1,4,0:0:0:0:
379,136,47636,1,4,0:0:0:0:
322,85,47757,1,4,0:0:0:0:
255,53,47878,1,4,0:0:0:0:
361,137,48000,1,4,0:0:0:0:
267,285,48242,6,0,L|172:310,1,93.3333333333333,2|0,0:0|0:0,0:0:0:0:
288,202,48484,2,0,L|200:169,1,93.3333333333333,2|0,0:0|0:0,0:0:0:0:
351,151,48727,2,0,L|301:71,1,93.3333333333333,2|0,0:0|0:0,0:0:0:0:
415,142,48969,2,0,L|419:44,1,93.3333333333333,2|0,0:0|0:0,0:0:0:0:
482,154,49212,2,0,L|529:74,1,93.3333333333333,2|0,0:0|0:0,0:0:0:0:
418,252,49454,5,0,0:0:0:0:
414,161,49575,1,0,0:0:0:0:
348,99,49696,1,0,0:0:0:0:
257,103,49817,1,0,0:0:0:0:
196,170,49938,1,0,0:0:0:0:
201,261,50060,1,0,0:0:0:0:
269,321,50181,1,0,0:0:0:0:
248,341,50424,1,0,0:0:0:0:
220,339,50666,1,0,0:0:0:0:
29,85,51818,6,8,L|31:67,1,17.5,8|0,0:0|0:0,0:0:0:0:
110,210,52000,6,8,L|112:192,1,17.5,8|0,0:0|0:0,0:0:0:0:
323,67,52363,5,0,0:0:0:0:
279,200,52545,1,0,0:0:0:0:
412,244,52727,1,0,0:0:0:0:
456,111,52909,1,0,0:0:0:0:
385,330,53090,5,0,0:0:0:0:
166,259,53272,1,0,0:0:0:0:
237,40,53454,1,0,0:0:0:0:
456,111,53636,5,8,0:0:0:0:
346,75,53727,1,8,0:0:0:0:
236,40,53818,1,8,0:0:0:0:
77,114,54000,5,0,0:0:0:0:
112,284,54181,1,0,0:0:0:0:
294,220,54363,5,4,0:0:0:0:
124,185,54454,1,4,0:0:0:0:
288,206,54545,1,4,0:0:0:0:
183,346,54727,5,4,0:0:0:0:
148,176,54818,1,4,0:0:0:0:
169,340,54909,1,4,0:0:0:0:
22,246,55090,5,4,0:0:0:0:
167,151,55181,1,4,0:0:0:0:
37,252,55272,1,4,0:0:0:0:
144,113,55454,5,0,0:0:0:0:
299,194,55636,1,0,0:0:0:0:
380,39,55818,1,0,0:0:0:0:
246,115,56000,5,0,0:0:0:0:
354,172,56182,1,0,0:0:0:0:
411,63,56364,1,0,0:0:0:0:
306,63,56545,5,4,0:0:0:0:
358,63,56636,1,4,0:0:0:0:
410,63,56727,1,4,0:0:0:0:
295,63,56909,5,8,0:0:0:0:
358,63,57000,1,8,0:0:0:0:
420,63,57091,1,8,0:0:0:0:
432,62,57272,5,8,0:0:0:0:
358,62,57363,1,8,0:0:0:0:
283,62,57454,1,8,0:0:0:0:
268,62,57636,5,8,0:0:0:0:
358,62,57727,1,8,0:0:0:0:
447,62,57818,1,8,0:0:0:0:
318,190,58000,6,0,L|260:202,1,52.5
234,248,58363,6,0,L|380:217,1,140
191,184,58727,5,0,0:0:0:0:
337,292,58909,1,0,0:0:0:0:
162,342,59090,1,0,0:0:0:0:
308,234,59272,1,0,0:0:0:0:
164,80,59454,5,8,0:0:0:0:
133,180,59545,1,8,0:0:0:0:
102,80,59636,1,8,0:0:0:0:
135,287,59818,5,0,0:0:0:0:
354,360,60000,1,0,0:0:0:0:
448,177,60181,5,4,0:0:0:0:
299,104,60272,1,4,0:0:0:0:
342,88,60363,1,4,0:0:0:0:
439,150,60545,5,4,0:0:0:0:
246,197,60636,1,4,0:0:0:0:
272,150,60727,1,4,0:0:0:0:
430,123,60909,5,4,0:0:0:0:
289,315,61000,1,4,0:0:0:0:
277,251,61091,1,4,0:0:0:0:
420,86,61272,5,0,0:0:0:0:
410,49,61454,1,0,0:0:0:0:
410,49,61636,5,4,0:0:0:0:
420,86,61727,1,4,0:0:0:0:
430,123,61818,1,4,0:0:0:0:
284,275,62000,5,4,0:0:0:0:
267,309,62091,1,4,0:0:0:0:
251,344,62182,1,4,0:0:0:0:
43,366,62363,5,4,0:0:0:0:
77,350,62454,1,4,0:0:0:0:
112,334,62545,1,4,0:0:0:0:
18,69,62727,5,8,0:0:0:0:
117,168,62818,1,8,0:0:0:0:
257,168,62909,1,8,0:0:0:0:
105,28,63090,5,8,0:0:0:0:
117,168,63181,1,8,0:0:0:0:
257,168,63272,1,8,0:0:0:0:
198,54,63454,5,8,0:0:0:0:
117,168,63545,1,8,0:0:0:0:
257,168,63636,1,8,0:0:0:0:
176,282,63818,6,0,L|128:297,1,35
352,310,64181,5,0,0:0:0:0:
148,362,64363,1,0,0:0:0:0:
96,158,64545,1,0,0:0:0:0:
250,119,64727,1,0,0:0:0:0:
279,234,64909,5,0,0:0:0:0:
164,263,65090,1,0,0:0:0:0:
135,148,65272,1,0,0:0:0:0:
179,321,65454,1,0,0:0:0:0:
120,90,65636,5,0,0:0:0:0:
194,379,65818,1,0,0:0:0:0:
105,32,66000,1,0,0:0:0:0:
282,209,66181,1,0,0:0:0:0:
51,268,66363,5,0,0:0:0:0:
322,198,66545,1,0,0:0:0:0:
91,257,66727,1,0,0:0:0:0:
226,220,66909,5,0,0:0:0:0:
239,358,67090,1,0,0:0:0:0:
274,222,67272,1,0,0:0:0:0:
299,360,67453,1,0,0:0:0:0:
325,221,67636,5,0,0:0:0:0:
239,358,67818,1,0,0:0:0:0:
362,254,68000,1,0,0:0:0:0:
213,317,68182,1,0,0:0:0:0:
393,302,68363,5,0,0:0:0:0:
317,105,68545,1,0,0:0:0:0:
227,295,68727,1,0,0:0:0:0:
303,98,68909,1,0,0:0:0:0:
311,348,69090,5,0,0:0:0:0:
317,81,69272,1,0,0:0:0:0:
303,360,69454,1,0,0:0:0:0:
298,65,69636,1,0,0:0:0:0:
323,105,69818,6,0,L|294:113,4,17.5
118,153,70181,5,0,0:0:0:0:
148,238,70363,1,0,0:0:0:0:
225,283,70545,1,0,0:0:0:0:
313,268,70727,1,0,0:0:0:0:
371,200,70909,5,0,0:0:0:0:
339,284,71090,1,0,0:0:0:0:
262,328,71272,1,0,0:0:0:0:
262,36,71454,5,0,0:0:0:0:
366,286,71636,1,0,0:0:0:0:
159,79,71818,1,0,0:0:0:0:
408,182,72000,1,0,0:0:0:0:
116,182,72181,5,0,0:0:0:0:
366,79,72363,1,0,0:0:0:0:
159,285,72545,1,0,0:0:0:0:
437,255,72727,1,0,0:0:0:0:
236,58,72909,5,0,0:0:0:0:
214,335,73090,1,0,0:0:0:0:
415,138,73272,1,0,0:0:0:0:
160,254,73454,1,0,0:0:0:0:
361,57,73636,5,0,0:0:0:0:
383,334,73817,1,0,0:0:0:0:
182,137,73999,1,0,0:0:0:0:
493,30,74181,1,0,0:0:0:0:
168,84,74363,5,0,0:0:0:0:
378,363,74545,1,0,0:0:0:0:
53,309,74727,1,0,0:0:0:0:
397,372,74909,1,0,0:0:0:0:
88,256,75091,5,0,0:0:0:0:
347,23,75273,1,0,0:0:0:0:
18,16,75455,1,0,0:0:0:0:
325,277,75636,5,0,0:0:0:0:
390,177,75818,1,0,0:0:0:0:
303,95,76000,2,0,P|345:64|392:54,1,70
242,206,76363,5,0,0:0:0:0:
110,251,76545,1,0,0:0:0:0:
76,225,76636,1,0,0:0:0:0:
42,200,76727,2,0,L|35:270,1,70
130,106,77090,6,0,P|178:102|238:55,1,105
279,117,77454,6,0,P|258:160|269:236,1,105
195,243,77818,6,0,P|167:203|96:174,1,105
200,152,78181,6,0,L|172:50,1,105
284,93,78545,6,0,L|364:78,2,70
377,197,79090,5,0,0:0:0:0:
283,301,79272,1,0,0:0:0:0:
143,286,79454,2,0,B|125:236,1,35
146,222,79636,2,0,B|132:175|132:175|156:181,1,70
54,78,80000,5,0,0:0:0:0:
0,155,80121,1,0,0:0:0:0:
76,208,80242,1,0,0:0:0:0:
130,131,80363,1,0,0:0:0:0:
331,67,80545,6,0,L|298:124,1,35
380,121,80727,5,0,0:0:0:0:
293,107,80817,1,0,0:0:0:0:
206,94,80908,1,0,0:0:0:0:
120,81,80999,1,0,0:0:0:0:
33,68,81090,1,0,0:0:0:0:
127,82,81181,1,0,0:0:0:0:
27,67,81272,1,0,0:0:0:0:
206,94,81454,6,0,L|225:97,4,17.5
139,218,81818,6,0,L|201:232,1,35
207,287,82000,1,0,0:0:0:0:
226,242,82090,1,0,0:0:0:0:
268,216,82181,1,0,0:0:0:0:
198,146,82363,5,0,0:0:0:0:
249,115,82454,1,0,0:0:0:0:
271,61,82544,1,0,0:0:0:0:
346,122,82727,6,0,L|360:304,1,140
268,216,83090,5,0,0:0:0:0:
254,240,83272,5,0,0:0:0:0:
227,250,83454,5,0,0:0:0:0:
230,277,83636,5,0,0:0:0:0:
258,277,83818,5,0,0:0:0:0:
272,301,84000,5,0,0:0:0:0:
300,301,84181,5,0,0:0:0:0:
314,325,84363,5,0,0:0:0:0:
345,264,84454,6,0,L|360:250,1,17.5
253,238,84636,6,0,L|268:224,1,17.5
366,194,84818,6,0,L|381:180,1,17.5
274,168,85000,6,0,L|289:154,1,17.5
183,171,85181,6,0,L|198:157,1,17.5
91,145,85363,6,0,L|106:131,1,17.5
177,58,85545,6,0,L|192:44,1,17.5
85,32,85727,5,0,0:0:0:0:
70,40,85818,2,0,L|63:81,1,35
139,121,86000,6,0,L|168:125,4,17.5
96,197,86242,6,0,L|117:182,3,23.3333333333333
194,270,86545,6,0,L|167:224,2,46.6666666666667
219,155,86909,6,0,L|300:85,1,93.3333333333333
318,206,87272,1,4,0:0:0:0:
