osu file format v14

[General]
AudioFilename: audio.mp3
AudioLeadIn: 1500
PreviewTime: 39272
Countdown: 0
SampleSet: Soft
StackLeniency: 0.3
Mode: 0
LetterboxInBreaks: 1
WidescreenStoryboard: 1

[Editor]
DistanceSpacing: 1
BeatDivisor: 4
GridSize: 32
TimelineZoom: 2.1

[Metadata]
Title:Chaoz Japan
TitleUnicode:Chaoz Japan
Artist:ParagonX9
ArtistUnicode:ParagonX9
Creator:AJT
Version:Wanpachi's Normal
Source:Castle Crashers
Tags:chaos newgrounds audio portal japanese video game instrumental folk oriental electronic uberfazz aistre alphabet venax wanpachi ioexception ceo_of_osu deadcode
BeatmapID:3274956
BeatmapSetID:1595646

[Difficulty]
HPDrainRate:4
CircleSize:3.5
OverallDifficulty:4
ApproachRate:5.5
SliderMultiplier:1.1
SliderTickRate:1

[Events]
//Background and Video events
0,0,"bg2.png",0,0
//Break Periods
2,35675,38638
//Storyboard Layer 0 (Background)
//Storyboard Layer 1 (Fail)
//Storyboard Layer 2 (Pass)
//Storyboard Layer 3 (Foreground)
//Storyboard Layer 4 (Overlay)
//Storyboard Sound Samples
Sample,35475,2,"whoa.wav",100
Sample,35475,1,"shadow.wav",100

[TimingPoints]
566,363.636363636364,4,2,1,30,1,0
6384,-100,4,2,1,45,0,0
12202,-100,4,2,1,55,0,0
18338,-100,4,2,1,5,0,0
18384,-100,4,2,1,55,0,0
23838,-90.9090909090909,4,2,1,60,0,0
35475,-100,4,2,1,60,0,0
35656,-100,4,2,1,5,0,0
39747,-100,4,2,1,5,0,0
39838,-100,4,2,2,35,0,0
48566,-100,4,2,2,40,0,0
52384,-90.9090909090909,4,2,1,60,0,0
64566,-100,4,2,1,60,0,0
70702,-100,4,2,1,5,0,0
70747,-100,4,2,1,60,0,0
76202,-90.9090909090909,4,2,1,55,0,0
82338,-100,4,2,1,5,0,0
82384,-100,4,2,1,55,0,0
86566,-100,4,2,2,55,0,0
87838,-100,4,2,37,55,0,0
88020,-100,4,2,1,50,0,0
88566,-100,4,2,1,45,0,0
89111,-100,4,2,1,25,0,0
89656,-100,4,2,1,15,0,0
90384,-100,4,2,1,5,0,0

[Colours]
Combo1 : 63,63,63
Combo2 : 191,191,191
Combo3 : 128,64,0
Combo4 : 221,221,0

[HitObjects]
256,192,6384,12,2,11475,0:2:0:0:
318,33,12202,6,0,P|376:40|439:77,1,110,6|8,0:2|0:0,0:0:0:0:
500,139,12929,2,0,L|504:250,1,110,2|8,0:2|0:0,0:0:0:0:
471,293,13475,1,8,0:0:0:0:
429,329,13656,2,0,P|379:352|325:358,1,110,2|8,0:2|0:0,0:0:0:0:
220,324,14384,1,2,0:2:0:0:
120,353,14747,1,8,0:0:0:0:
120,353,14929,1,0,0:0:0:0:
120,353,15111,6,0,P|105:284|108:213,1,110,6|8,0:2|0:0,0:0:0:0:
148,144,15838,2,0,L|276:139,1,110,2|8,0:2|0:0,0:0:0:0:
299,103,16384,1,8,0:0:0:0:
348,78,16566,2,0,P|402:80|456:93,1,110,2|8,0:2|0:0,0:0:0:0:
461,207,17293,1,2,0:2:0:0:
461,207,17475,2,0,P|458:261|445:315,1,110,8|8,0:0|0:0,0:0:0:0:
341,351,18202,6,0,B|330:326|330:326|335:292,1,55,6|8,0:1|0:0,0:0:0:0:
347,189,18747,2,0,L|347:65,1,110,2|8,0:2|0:0,0:0:0:0:
302,45,19293,1,8,0:0:0:0:
249,29,19475,2,0,P|175:59|122:95,1,110,2|8,0:2|0:0,0:0:0:0:
69,150,20202,1,2,0:2:0:0:
102,265,20566,1,8,0:0:0:0:
102,265,20747,1,8,0:0:0:0:
102,265,20929,6,0,L|224:270,1,110,6|8,0:2|0:0,0:0:0:0:
297,338,21656,2,0,P|362:328|416:291,1,110,2|8,0:2|0:0,0:0:0:0:
438,267,22202,1,8,0:0:0:0:
439,211,22384,1,6,0:2:0:0:
458,102,22747,1,8,0:0:0:0:
369,46,23111,1,2,0:2:0:0:
369,46,23293,1,8,0:0:0:0:
256,187,23838,6,0,L|255:315,1,121.000003692627,6|8,0:1|0:0,0:0:0:0:
212,351,24384,1,0,0:0:0:0:
151,358,24566,2,0,P|125:346|89:315,1,60.5000018463135,2|0,0:1|0:0,0:0:0:0:
115,268,24929,1,8,0:0:0:0:
34,177,25293,2,0,P|28:156|33:56,1,121.000003692627,2|8,0:1|0:1,0:0:0:0:
92,65,25838,1,0,0:0:0:0:
128,17,26020,2,0,P|194:32|253:78,1,121.000003692627,2|10,0:1|0:1,0:0:0:0:
280,104,26566,1,0,0:0:0:0:
340,104,26747,5,2,0:1:0:0:
453,145,27111,2,0,L|452:216,1,60.5000018463135,8|0,0:0|0:0,0:0:0:0:
481,258,27475,1,2,0:1:0:0:
382,328,27838,2,0,P|340:334|308:318,1,60.5000018463135,8|0,0:0|0:0,0:0:0:0:
303,271,28202,1,6,0:1:0:0:
193,316,28566,1,8,0:0:0:0:
193,316,28747,1,0,0:0:0:0:
193,316,28929,2,0,L|49:316,1,121.000003692627,2|10,0:1|0:1,0:0:0:0:
11,315,29475,1,0,0:0:0:0:
9,194,29838,6,0,B|33:175|33:175|63:179,1,60.5000018463135,0|8,0:1|0:0,0:0:0:0:
122,189,30202,1,0,0:0:0:0:
170,225,30384,2,0,P|197:236|227:242,1,60.5000018463135,2|0,0:1|0:0,0:0:0:0:
285,225,30747,1,8,0:0:0:0:
305,342,31111,2,0,L|438:336,1,121.000003692627,6|8,0:1|0:0,0:0:0:0:
468,293,31656,1,0,0:0:0:0:
468,232,31838,2,0,P|457:158|415:93,1,121.000003692627,2|10,0:1|0:1,0:0:0:0:
392,74,32384,1,0,0:0:0:0:
331,74,32566,5,6,0:1:0:0:
221,125,32929,2,0,L|143:124,1,60.5000018463135,8|0,0:0|0:0,0:0:0:0:
102,107,33293,1,2,0:1:0:0:
59,149,33475,2,0,P|56:230|80:294,1,121.000003692627
119,298,34020,1,6,0:1:0:0:
247,298,34384,1,8,0:0:0:0:
247,298,34566,1,0,0:0:0:0:
247,298,34747,2,0,P|328:301|392:277,1,121.000003692627,2|8,0:1|0:0,0:0:0:0:
399,239,35293,1,0,0:0:0:0:
398,183,35475,5,6,0:2:0:0:
256,0,39838,5,6,0:0:0:0:
256,110,40202,1,2,0:0:0:0:
256,220,40566,1,2,0:0:0:0:
256,329,40929,1,2,0:0:0:0:
149,300,41293,1,2,0:0:0:0:
83,212,41656,1,2,0:0:0:0:
102,103,42020,2,0,P|105:66|116:31,1,73.3333333333333,2|2,0:3|0:3,0:0:0:0:
147,12,42384,2,0,L|225:5,1,73.3333333333333,2|2,0:3|0:3,0:0:0:0:
256,0,42747,5,2,0:0:0:0:
365,12,43111,1,2,0:0:0:0:
410,103,43475,1,2,0:0:0:0:
429,212,43838,1,2,0:0:0:0:
363,300,44201,1,2,0:0:0:0:
256,329,44565,1,2,0:0:0:0:
256,218,44929,2,0,P|261:165|257:117,1,73.3333333333333,2|2,0:3|0:3,0:0:0:0:
249,109,45293,2,0,L|248:8,1,73.3333333333333,2|2,0:3|0:3,0:0:0:0:
142,6,45899,6,0,B|132:21|132:21|137:39,1,36.6666666666667,2|6,0:1|0:0,0:0:0:0:
144,148,46384,1,2,0:0:0:0:
34,136,46747,1,2,0:0:0:0:
7,242,47111,1,2,0:0:0:0:
60,338,47475,1,2,0:0:0:0:
166,365,47838,2,0,P|177:330|181:293,1,73.3333333333333,2|2,0:3|0:3,0:0:0:0:
164,261,48202,2,0,L|257:258,1,73.3333333333333,2|2,0:3|0:3,0:0:0:0:
274,258,48566,6,0,L|421:263,1,146.666666666667,6|8,0:0|2:0,0:0:0:0:
473,211,49293,2,0,P|465:138|442:68,1,146.666666666667,6|8,0:0|2:0,0:0:0:0:
390,16,50020,2,0,B|316:9|316:9|246:31|246:31|170:26,1,220,6|8,0:3|0:0,0:0:0:0:
101,15,50990,1,8,0:0:0:0:
49,66,51232,1,8,0:0:0:0:
256,256,52384,6,0,L|259:318,1,60.5000018463135,4|4,0:0|0:0,0:0:0:0:
145,358,52929,6,0,P|120:307|113:228,1,121.000003692627,6|8,3:0|0:0,0:0:0:0:
111,182,53475,1,0,0:0:0:0:
153,139,53656,2,0,L|144:68,1,60.5000018463135,0|0,3:0|0:0,0:0:0:0:
145,18,54020,1,8,0:0:0:0:
253,71,54384,2,0,P|325:61|383:34,1,121.000003692627,0|8,3:2|0:0,0:0:0:0:
411,0,54929,1,0,0:0:0:0:
462,41,55111,1,0,3:2:0:0:
462,41,55293,2,0,L|455:105,1,60.5000018463135,0|8,0:0|0:0,0:0:0:0:
508,216,55838,5,0,3:2:0:0:
508,216,56020,1,0,0:0:0:0:
489,273,56202,2,0,P|433:296|373:296,1,121.000003692627,8|0,0:0|3:2,0:0:0:0:
312,296,56747,1,0,0:0:0:0:
269,253,56929,1,8,0:0:0:0:
162,306,57293,5,6,3:1:0:0:
162,306,57475,2,0,L|85:315,1,60.5000018463135,2|14,0:3|3:1,0:0:0:0:
48,284,57838,2,0,P|33:243|31:202,1,60.5000018463135,2|6,0:3|3:1,0:0:0:0:
30,165,58202,2,0,P|35:135|47:107,1,60.5000018463135,2|14,0:3|3:1,0:0:0:0:
101,79,58566,1,0,0:0:0:0:
207,135,58929,6,0,B|201:166|201:166|162:184,1,60.5000018463135,6|8,3:1|0:0,0:0:0:0:
116,197,59293,1,0,0:0:0:0:
73,239,59475,2,0,P|79:278|101:323,1,60.5000018463135,0|0,3:2|0:0,0:0:0:0:
129,340,59838,1,8,0:0:0:0:
249,324,60202,2,0,L|391:318,1,121.000003692627,2|8,3:2|0:0,0:0:0:0:
423,346,60747,1,0,0:0:0:0:
479,320,60929,1,0,3:2:0:0:
479,320,61111,2,0,P|471:289|460:261,1,60.5000018463135,0|8,0:0|0:0,0:0:0:0:
480,142,61656,5,0,3:2:0:0:
425,115,61838,1,2,0:0:0:0:
364,115,62020,2,0,L|229:116,1,121.000003692627,8|0,0:0|3:2,0:0:0:0:
182,115,62566,1,0,0:0:0:0:
139,72,62747,1,8,0:0:0:0:
35,131,63111,5,6,3:1:0:0:
35,131,63293,2,0,P|38:163|53:210,1,60.5000018463135,2|14,0:3|3:1,0:0:0:0:
78,240,63656,2,0,L|80:313,1,60.5000018463135,2|6,0:3|3:1,0:0:0:0:
127,338,64020,2,0,P|159:335|206:320,1,60.5000018463135,2|14,0:3|3:1,0:0:0:0:
244,309,64384,1,0,0:0:0:0:
298,320,64566,5,6,3:1:0:0:
329,214,64929,1,8,0:0:0:0:
252,135,65293,2,0,P|242:108|234:65,1,55,2|8,0:1|0:0,0:0:0:0:
268,37,65656,2,0,L|337:37,1,55,8|8,0:0|0:0,0:0:0:0:
378,37,66020,2,0,P|395:88|408:142,1,110,6|8,0:1|0:0,0:0:0:0:
430,250,66747,2,0,L|430:316,1,55,2|8,0:1|0:0,0:0:0:0:
398,349,67111,2,0,P|369:358|327:362,1,55,8|8,0:0|0:0,0:0:0:0:
293,341,67475,5,6,0:1:0:0:
186,364,67838,1,8,0:0:0:0:
115,279,68202,2,0,L|115:204,1,55,2|8,0:1|0:0,0:0:0:0:
94,172,68566,2,0,P|94:144|111:107,1,55,8|8,0:0|0:0,0:0:0:0:
151,92,68929,2,0,P|210:98|269:129,1,110,6|8,0:1|0:0,0:0:0:0:
338,200,69656,1,2,0:1:0:0:
338,200,69838,2,0,L|465:190,1,110,8|8,0:0|0:0,0:0:0:0:
462,81,70566,6,0,B|438:71|438:71|408:90,1,55,10|8,0:1|0:0,0:0:0:0:
312,41,71111,2,0,P|304:67|298:94,1,55,2|8,0:1|0:0,0:0:0:0:
299,149,71475,2,0,L|240:151,1,55,8|8,0:0|0:0,0:0:0:0:
192,134,71838,2,0,L|75:128,1,110,6|8,0:1|0:0,0:0:0:0:
26,224,72566,2,0,P|49:237|75:246,1,55,2|8,0:1|0:0,0:0:0:0:
128,231,72929,2,0,L|182:228,1,55,8|8,0:0|0:0,0:0:0:0:
238,222,73293,5,6,0:1:0:0:
303,309,73656,1,8,0:0:0:0:
407,273,74020,2,0,P|413:239|413:199,1,55,2|8,0:1|0:0,0:0:0:0:
383,172,74384,2,0,B|385:143|385:143|359:101,1,55,8|8,0:0|0:0,0:0:0:0:
321,98,74747,2,0,L|204:98,1,110,6|8,0:1|0:0,0:0:0:0:
115,160,75475,1,2,0:1:0:0:
115,160,75656,2,0,B|82:206|82:206|122:251,1,110,8|8,0:0|0:0,0:0:0:0:
169,277,76202,6,0,P|243:284|293:276,1,121.000003692627,6|8,0:2|0:0,0:0:0:0:
348,251,76747,1,0,0:0:0:0:
350,189,76929,2,0,P|341:153|324:114,1,60.5000018463135,2|0,0:2|0:0,0:0:0:0:
273,115,77293,1,8,0:0:0:0:
320,4,77656,2,0,L|447:6,1,121.000003692627,2|8,0:2|0:0,0:0:0:0:
501,5,78202,1,0,0:0:0:0:
504,69,78384,1,2,0:2:0:0:
504,69,78566,2,0,P|496:98|483:125,1,60.5000018463135,0|8,0:0|0:0,0:0:0:0:
460,247,79111,5,2,0:2:0:0:
460,247,79293,1,0,0:0:0:0:
417,289,79475,2,0,L|278:288,1,121.000003692627,8|2,0:0|0:2,0:0:0:0:
235,293,80020,1,0,0:0:0:0:
183,261,80202,1,8,0:0:0:0:
208,145,80566,1,2,0:3:0:0:
208,145,80747,2,0,P|200:115|185:81,1,60.5000018463135,2|2,0:3|0:3,0:0:0:0:
76,128,81293,1,2,0:3:0:0:
76,128,81474,2,0,P|83:157|99:192,2,60.5000018463135,2|2|2,0:3|0:3|0:3,0:0:0:0:
34,14,82202,6,0,B|64:4|64:4|104:20,1,60.5000018463135,6|8,0:1|0:0,0:0:0:0:
140,38,82566,1,0,0:0:0:0:
182,72,82747,2,0,B|210:125|210:125|170:187,1,110,0|8,0:0|0:0,0:0:0:0:
199,219,83293,1,10,0:3:0:0:
204,329,83656,2,0,P|270:326|346:291,1,110,2|2,0:1|0:1,0:0:0:0:
397,243,84384,2,0,P|439:196|435:69,1,192.5,2|10,0:1|0:2,0:0:0:0:
403,30,85202,6,0,L|334:21,1,55,10|10,0:2|0:2,0:0:0:0:
302,54,85566,2,0,L|233:45,1,55,10|10,0:2|0:2,0:0:0:0:
197,70,85929,2,0,L|128:61,2,55,10|10|10,0:2|0:2|0:2,0:0:0:0:
256,192,86566,12,4,87838,1:1:0:0:
