osu file format v14

[General]
AudioFilename: ParagonX9 - Chaoz Fantasy [Nightcore].mp3
AudioLeadIn: 0
PreviewTime: -1
Countdown: 0
SampleSet: None
StackLeniency: 0.7
Mode: 3
LetterboxInBreaks: 0
SpecialStyle: 0
WidescreenStoryboard: 1

[Editor]
DistanceSpacing: 1
BeatDivisor: 4
GridSize: 4
TimelineZoom: 1.7

[Metadata]
Title:Chaoz Fantasy (Nightcore)
TitleUnicode:Chaoz Fantasy (Nightcore)
Artist:ParagonX9
ArtistUnicode:ParagonX9
Creator:Mat
Version:Anarchy
Source:Newgrounds
Tags:
BeatmapID:1759584
BeatmapSetID:840663

[Difficulty]
HPDrainRate:8
CircleSize:4
OverallDifficulty:7.5
ApproachRate:5
SliderMultiplier:1.4
SliderTickRate:1

[Events]
//Background and Video events
0,0,"maxresdefault.jpg",0,0
//Break Periods
//Storyboard Layer 0 (Background)
//Storyboard Layer 1 (Fail)
//Storyboard Layer 2 (Pass)
//Storyboard Layer 3 (Foreground)
//Storyboard Sound Samples

[TimingPoints]
432,246.406570841889,4,2,0,30,1,0

[HitObjects]
64,192,432,5,0,0:0:0:0:
192,192,555,1,0,0:0:0:0:
320,192,678,1,0,0:0:0:0:
64,192,801,1,0,0:0:0:0:
192,192,924,1,0,0:0:0:0:
320,192,1048,1,0,0:0:0:0:
64,192,1171,1,0,0:0:0:0:
192,192,1294,1,0,0:0:0:0:
448,192,1417,1,0,0:0:0:0:
64,192,1540,1,0,0:0:0:0:
192,192,1664,1,0,0:0:0:0:
448,192,1787,1,0,0:0:0:0:
64,192,1910,1,0,0:0:0:0:
320,192,2033,1,0,0:0:0:0:
448,192,2156,1,0,0:0:0:0:
448,192,2280,1,0,0:0:0:0:
192,192,2403,1,0,0:0:0:0:
320,192,2526,1,0,0:0:0:0:
448,192,2649,1,0,0:0:0:0:
64,192,2772,1,0,0:0:0:0:
192,192,2896,1,0,0:0:0:0:
320,192,3019,1,0,0:0:0:0:
64,192,3142,1,0,0:0:0:0:
320,192,3265,1,0,0:0:0:0:
448,192,3388,1,0,0:0:0:0:
64,192,3512,1,0,0:0:0:0:
192,192,3635,1,0,0:0:0:0:
448,192,3758,1,0,0:0:0:0:
192,192,3881,1,0,0:0:0:0:
320,192,4004,1,0,0:0:0:0:
448,192,4128,1,0,0:0:0:0:
192,192,4251,1,0,0:0:0:0:
64,192,4374,1,0,0:0:0:0:
192,192,4497,1,0,0:0:0:0:
320,192,4620,1,0,0:0:0:0:
64,192,4744,1,0,0:0:0:0:
192,192,4867,1,0,0:0:0:0:
320,192,4990,1,0,0:0:0:0:
64,192,5113,1,0,0:0:0:0:
192,192,5236,1,0,0:0:0:0:
448,192,5360,1,0,0:0:0:0:
64,192,5483,1,0,0:0:0:0:
192,192,5606,1,0,0:0:0:0:
448,192,5729,1,0,0:0:0:0:
64,192,5852,1,0,0:0:0:0:
320,192,5976,1,0,0:0:0:0:
448,192,6099,1,0,0:0:0:0:
320,192,6222,1,0,0:0:0:0:
64,192,6345,1,0,0:0:0:0:
192,192,6468,1,0,0:0:0:0:
320,192,6592,1,0,0:0:0:0:
64,192,6715,1,0,0:0:0:0:
192,192,6838,1,0,0:0:0:0:
320,192,6961,1,0,0:0:0:0:
64,192,7084,1,0,0:0:0:0:
192,192,7208,1,0,0:0:0:0:
448,192,7331,1,0,0:0:0:0:
64,192,7454,1,0,0:0:0:0:
192,192,7577,1,0,0:0:0:0:
448,192,7700,1,0,0:0:0:0:
64,192,7824,1,0,0:0:0:0:
320,192,7947,1,0,0:0:0:0:
448,192,8070,1,0,0:0:0:0:
448,192,8193,1,0,0:0:0:0:
64,192,8317,1,0,0:0:0:0:
192,192,8317,1,0,0:0:0:0:
448,192,8440,1,0,0:0:0:0:
320,192,8501,1,0,0:0:0:0:
192,192,8563,1,0,0:0:0:0:
64,192,8686,1,0,0:0:0:0:
320,192,8686,1,0,0:0:0:0:
192,192,8809,1,0,0:0:0:0:
320,192,8871,1,0,0:0:0:0:
448,192,8933,1,0,0:0:0:0:
64,192,9056,1,0,0:0:0:0:
192,192,9056,1,0,0:0:0:0:
192,192,9179,1,0,0:0:0:0:
320,192,9179,1,0,0:0:0:0:
448,192,9302,1,0,0:0:0:0:
320,192,9302,1,0,0:0:0:0:
64,192,9425,1,0,0:0:0:0:
192,192,9487,1,0,0:0:0:0:
320,192,9549,1,0,0:0:0:0:
448,192,9672,1,0,0:0:0:0:
192,192,9672,1,0,0:0:0:0:
320,192,9795,1,0,0:0:0:0:
192,192,9857,1,0,0:0:0:0:
64,192,9918,1,0,0:0:0:0:
192,192,10041,1,0,0:0:0:0:
320,192,10041,1,0,0:0:0:0:
448,192,10165,1,0,0:0:0:0:
320,192,10165,1,0,0:0:0:0:
64,192,10288,1,0,0:0:0:0:
192,192,10288,1,0,0:0:0:0:
320,192,10411,1,0,0:0:0:0:
192,192,10473,1,0,0:0:0:0:
64,192,10534,1,0,0:0:0:0:
192,192,10657,1,0,0:0:0:0:
448,192,10657,1,0,0:0:0:0:
320,192,10781,1,0,0:0:0:0:
192,192,10842,1,0,0:0:0:0:
64,192,10904,1,0,0:0:0:0:
320,192,11027,1,0,0:0:0:0:
192,192,11027,1,0,0:0:0:0:
64,192,11150,1,0,0:0:0:0:
448,192,11150,1,0,0:0:0:0:
192,192,11273,1,0,0:0:0:0:
320,192,11273,1,0,0:0:0:0:
64,192,11397,1,0,0:0:0:0:
192,192,11458,1,0,0:0:0:0:
320,192,11520,1,0,0:0:0:0:
448,192,11643,1,0,0:0:0:0:
192,192,11643,1,0,0:0:0:0:
64,192,11766,1,0,0:0:0:0:
192,192,11828,1,0,0:0:0:0:
320,192,11889,1,0,0:0:0:0:
192,192,12013,1,0,0:0:0:0:
64,192,12013,1,0,0:0:0:0:
448,192,12136,1,0,0:0:0:0:
320,192,12136,1,0,0:0:0:0:
64,192,12259,1,0,0:0:0:0:
192,192,12259,1,0,0:0:0:0:
448,192,12382,1,0,0:0:0:0:
320,192,12444,1,0,0:0:0:0:
192,192,12505,1,0,0:0:0:0:
64,192,12629,1,0,0:0:0:0:
320,192,12629,1,0,0:0:0:0:
448,192,12752,1,0,0:0:0:0:
320,192,12813,1,0,0:0:0:0:
192,192,12875,1,0,0:0:0:0:
320,192,12998,1,0,0:0:0:0:
448,192,12998,1,0,0:0:0:0:
192,192,13121,1,0,0:0:0:0:
64,192,13121,1,0,0:0:0:0:
448,192,13245,1,0,0:0:0:0:
320,192,13245,1,0,0:0:0:0:
192,192,13368,1,0,0:0:0:0:
320,192,13429,1,0,0:0:0:0:
448,192,13491,1,0,0:0:0:0:
192,192,13614,1,0,0:0:0:0:
320,192,13614,1,0,0:0:0:0:
64,192,13737,1,0,0:0:0:0:
192,192,13799,1,0,0:0:0:0:
320,192,13861,1,0,0:0:0:0:
64,192,13984,1,0,0:0:0:0:
192,192,13984,1,0,0:0:0:0:
448,192,14107,1,0,0:0:0:0:
320,192,14107,1,0,0:0:0:0:
64,192,14230,1,0,0:0:0:0:
192,192,14230,1,0,0:0:0:0:
448,192,14353,1,0,0:0:0:0:
320,192,14415,1,0,0:0:0:0:
192,192,14477,1,0,0:0:0:0:
64,192,14600,1,0,0:0:0:0:
448,192,14600,1,0,0:0:0:0:
320,192,14723,1,0,0:0:0:0:
192,192,14785,1,0,0:0:0:0:
64,192,14846,1,0,0:0:0:0:
192,192,14969,1,0,0:0:0:0:
448,192,14969,1,0,0:0:0:0:
320,192,15093,1,0,0:0:0:0:
64,192,15093,1,0,0:0:0:0:
192,192,15216,1,0,0:0:0:0:
320,192,15216,1,0,0:0:0:0:
192,192,15401,1,0,0:0:0:0:
64,192,15401,1,0,0:0:0:0:
320,192,15586,1,0,0:0:0:0:
448,192,15586,1,0,0:0:0:0:
192,192,15770,1,0,0:0:0:0:
64,192,15770,1,0,0:0:0:0:
320,192,15894,1,0,0:0:0:0:
448,192,15955,1,0,0:0:0:0:
192,192,16017,1,0,0:0:0:0:
64,192,16078,1,0,0:0:0:0:
192,192,16202,1,0,0:0:0:0:
448,192,16202,1,0,0:0:0:0:
320,192,16263,1,0,0:0:0:0:
192,192,16325,1,0,0:0:0:0:
64,192,16386,1,0,0:0:0:0:
448,192,16448,1,0,0:0:0:0:
320,192,16448,1,0,0:0:0:0:
192,192,16510,1,0,0:0:0:0:
320,192,16571,1,0,0:0:0:0:
448,192,16633,1,0,0:0:0:0:
64,192,16694,1,0,0:0:0:0:
192,192,16756,1,0,0:0:0:0:
448,192,16818,1,0,0:0:0:0:
320,192,16818,1,0,0:0:0:0:
64,192,16879,1,0,0:0:0:0:
192,192,16941,1,0,0:0:0:0:
448,192,16941,1,0,0:0:0:0:
320,192,17002,1,0,0:0:0:0:
192,192,17064,1,0,0:0:0:0:
64,192,17126,1,0,0:0:0:0:
320,192,17187,1,0,0:0:0:0:
448,192,17187,1,0,0:0:0:0:
192,192,17249,1,0,0:0:0:0:
64,192,17310,1,0,0:0:0:0:
448,192,17372,1,0,0:0:0:0:
320,192,17434,1,0,0:0:0:0:
192,192,17434,1,0,0:0:0:0:
64,192,17495,1,0,0:0:0:0:
192,192,17557,1,0,0:0:0:0:
320,192,17618,1,0,0:0:0:0:
448,192,17680,1,0,0:0:0:0:
64,192,17742,1,0,0:0:0:0:
320,192,17803,1,0,0:0:0:0:
192,192,17803,1,0,0:0:0:0:
448,192,17865,1,0,0:0:0:0:
320,192,17926,1,0,0:0:0:0:
64,192,17926,1,0,0:0:0:0:
192,192,17988,1,0,0:0:0:0:
448,192,18050,1,0,0:0:0:0:
320,192,18050,1,0,0:0:0:0:
192,192,18111,1,0,0:0:0:0:
448,192,18173,1,0,0:0:0:0:
64,192,18173,1,0,0:0:0:0:
320,192,18234,1,0,0:0:0:0:
192,192,18296,1,0,0:0:0:0:
64,192,18358,1,0,0:0:0:0:
192,192,18419,1,0,0:0:0:0:
320,192,18419,1,0,0:0:0:0:
448,192,18481,1,0,0:0:0:0:
320,192,18542,1,0,0:0:0:0:
64,192,18604,1,0,0:0:0:0:
192,192,18666,1,0,0:0:0:0:
320,192,18727,1,0,0:0:0:0:
448,192,18789,1,0,0:0:0:0:
64,192,18789,1,0,0:0:0:0:
192,192,18850,1,0,0:0:0:0:
448,192,18912,1,0,0:0:0:0:
320,192,18912,1,0,0:0:0:0:
64,192,18974,1,0,0:0:0:0:
192,192,19035,1,0,0:0:0:0:
320,192,19097,1,0,0:0:0:0:
448,192,19158,1,0,0:0:0:0:
64,192,19158,1,0,0:0:0:0:
320,192,19220,1,0,0:0:0:0:
192,192,19282,1,0,0:0:0:0:
64,192,19343,1,0,0:0:0:0:
448,192,19405,1,0,0:0:0:0:
192,192,19405,1,0,0:0:0:0:
320,192,19466,1,0,0:0:0:0:
64,192,19528,1,0,0:0:0:0:
192,192,19590,1,0,0:0:0:0:
320,192,19590,1,0,0:0:0:0:
448,192,19651,1,0,0:0:0:0:
320,192,19713,1,0,0:0:0:0:
192,192,19774,1,0,0:0:0:0:
64,192,19774,1,0,0:0:0:0:
320,192,19836,1,0,0:0:0:0:
64,192,19898,1,0,0:0:0:0:
448,192,19898,1,0,0:0:0:0:
192,192,19959,1,0,0:0:0:0:
320,192,20021,1,0,0:0:0:0:
448,192,20082,1,0,0:0:0:0:
64,192,20144,1,0,0:0:0:0:
192,192,20144,1,0,0:0:0:0:
320,192,20206,1,0,0:0:0:0:
448,192,20267,1,0,0:0:0:0:
320,192,20329,1,0,0:0:0:0:
64,192,20390,1,0,0:0:0:0:
192,192,20390,1,0,0:0:0:0:
448,192,20452,1,0,0:0:0:0:
320,192,20514,1,0,0:0:0:0:
64,192,20575,1,0,0:0:0:0:
192,192,20637,1,0,0:0:0:0:
320,192,20698,1,0,0:0:0:0:
448,192,20760,1,0,0:0:0:0:
192,192,20760,1,0,0:0:0:0:
64,192,20822,1,0,0:0:0:0:
192,192,20883,1,0,0:0:0:0:
320,192,20883,1,0,0:0:0:0:
448,192,20945,1,0,0:0:0:0:
320,192,21006,1,0,0:0:0:0:
192,192,21068,1,0,0:0:0:0:
448,192,21130,1,0,0:0:0:0:
64,192,21130,1,0,0:0:0:0:
320,192,21191,1,0,0:0:0:0:
192,192,21253,1,0,0:0:0:0:
64,192,21314,1,0,0:0:0:0:
448,192,21376,1,0,0:0:0:0:
192,192,21376,1,0,0:0:0:0:
320,192,21438,1,0,0:0:0:0:
192,192,21499,1,0,0:0:0:0:
64,192,21561,1,0,0:0:0:0:
320,192,21622,1,0,0:0:0:0:
448,192,21684,1,0,0:0:0:0:
64,192,21746,1,0,0:0:0:0:
192,192,21746,1,0,0:0:0:0:
320,192,21807,1,0,0:0:0:0:
448,192,21869,1,0,0:0:0:0:
192,192,21869,1,0,0:0:0:0:
64,192,21930,1,0,0:0:0:0:
192,192,21992,1,0,0:0:0:0:
320,192,21992,1,0,0:0:0:0:
448,192,22054,1,0,0:0:0:0:
320,192,22115,1,0,0:0:0:0:
64,192,22115,1,0,0:0:0:0:
192,192,22177,1,0,0:0:0:0:
320,192,22238,1,0,0:0:0:0:
448,192,22300,1,0,0:0:0:0:
192,192,22362,1,0,0:0:0:0:
64,192,22362,1,0,0:0:0:0:
320,192,22423,1,0,0:0:0:0:
448,192,22485,1,0,0:0:0:0:
320,192,22546,1,0,0:0:0:0:
192,192,22608,1,0,0:0:0:0:
64,192,22670,1,0,0:0:0:0:
192,192,22731,1,0,0:0:0:0:
320,192,22731,1,0,0:0:0:0:
448,192,22793,1,0,0:0:0:0:
320,192,22854,1,0,0:0:0:0:
64,192,22854,1,0,0:0:0:0:
192,192,22916,1,0,0:0:0:0:
448,192,22978,1,0,0:0:0:0:
320,192,23039,1,0,0:0:0:0:
64,192,23101,1,0,0:0:0:0:
192,192,23101,1,0,0:0:0:0:
320,192,23163,1,0,0:0:0:0:
448,192,23224,1,0,0:0:0:0:
192,192,23286,1,0,0:0:0:0:
320,192,23286,1,0,0:0:0:0:
64,192,23347,1,0,0:0:0:0:
192,192,23409,1,0,0:0:0:0:
320,192,23471,1,0,0:0:0:0:
448,192,23471,1,0,0:0:0:0:
192,192,23532,1,0,0:0:0:0:
64,192,23594,1,0,0:0:0:0:
448,192,23655,1,0,0:0:0:0:
192,192,23717,1,0,0:0:0:0:
320,192,23717,1,0,0:0:0:0:
64,192,23779,1,0,0:0:0:0:
448,192,23840,1,0,0:0:0:0:
192,192,23840,1,0,0:0:0:0:
320,192,23902,1,0,0:0:0:0:
192,192,23963,1,0,0:0:0:0:
64,192,24025,1,0,0:0:0:0:
448,192,24087,1,0,0:0:0:0:
320,192,24087,1,0,0:0:0:0:
192,192,24148,1,0,0:0:0:0:
320,192,24210,1,0,0:0:0:0:
448,192,24271,1,0,0:0:0:0:
64,192,24333,1,0,0:0:0:0:
192,192,24333,1,0,0:0:0:0:
320,192,24395,1,0,0:0:0:0:
448,192,24456,1,0,0:0:0:0:
64,192,24518,1,0,0:0:0:0:
192,192,24579,1,0,0:0:0:0:
320,192,24641,1,0,0:0:0:0:
448,192,24703,1,0,0:0:0:0:
64,192,24703,1,0,0:0:0:0:
192,192,24764,1,0,0:0:0:0:
448,192,24826,1,0,0:0:0:0:
320,192,24826,1,0,0:0:0:0:
64,192,24887,1,0,0:0:0:0:
192,192,24949,1,0,0:0:0:0:
320,192,25011,1,0,0:0:0:0:
448,192,25072,1,0,0:0:0:0:
192,192,25072,1,0,0:0:0:0:
64,192,25134,1,0,0:0:0:0:
320,192,25195,1,0,0:0:0:0:
448,192,25257,1,0,0:0:0:0:
192,192,25319,1,0,0:0:0:0:
320,192,25319,1,0,0:0:0:0:
64,192,25380,1,0,0:0:0:0:
448,192,25442,1,0,0:0:0:0:
320,192,25503,1,0,0:0:0:0:
192,192,25565,1,0,0:0:0:0:
64,192,25627,1,0,0:0:0:0:
448,192,25688,1,0,0:0:0:0:
320,192,25688,1,0,0:0:0:0:
192,192,25750,1,0,0:0:0:0:
320,192,25811,1,0,0:0:0:0:
64,192,25811,1,0,0:0:0:0:
448,192,25873,1,0,0:0:0:0:
320,192,25935,1,0,0:0:0:0:
192,192,25935,1,0,0:0:0:0:
64,192,25996,1,0,0:0:0:0:
448,192,26058,1,0,0:0:0:0:
192,192,26058,1,0,0:0:0:0:
320,192,26119,1,0,0:0:0:0:
64,192,26181,1,0,0:0:0:0:
192,192,26243,1,0,0:0:0:0:
448,192,26304,1,0,0:0:0:0:
320,192,26304,1,0,0:0:0:0:
64,192,26366,1,0,0:0:0:0:
192,192,26427,1,0,0:0:0:0:
320,192,26489,1,0,0:0:0:0:
448,192,26551,1,0,0:0:0:0:
320,192,26612,1,0,0:0:0:0:
192,192,26674,1,0,0:0:0:0:
64,192,26674,1,0,0:0:0:0:
448,192,26735,1,0,0:0:0:0:
320,192,26797,1,0,0:0:0:0:
192,192,26797,1,0,0:0:0:0:
64,192,26859,1,0,0:0:0:0:
192,192,26920,1,0,0:0:0:0:
320,192,26982,1,0,0:0:0:0:
448,192,27043,1,0,0:0:0:0:
64,192,27043,1,0,0:0:0:0:
192,192,27105,1,0,0:0:0:0:
320,192,27167,1,0,0:0:0:0:
448,192,27228,1,0,0:0:0:0:
320,192,27290,1,0,0:0:0:0:
64,192,27290,1,0,0:0:0:0:
192,192,27351,1,0,0:0:0:0:
320,192,27413,1,0,0:0:0:0:
448,192,27475,1,0,0:0:0:0:
64,192,27475,1,0,0:0:0:0:
192,192,27536,1,0,0:0:0:0:
320,192,27598,1,0,0:0:0:0:
448,192,27659,1,0,0:0:0:0:
64,192,27659,1,0,0:0:0:0:
192,192,27721,1,0,0:0:0:0:
320,192,27783,1,0,0:0:0:0:
448,192,27783,1,0,0:0:0:0:
192,192,27844,1,0,0:0:0:0:
64,192,27906,1,0,0:0:0:0:
448,192,27967,1,0,0:0:0:0:
320,192,28029,1,0,0:0:0:0:
192,192,28029,1,0,0:0:0:0:
64,192,28091,1,0,0:0:0:0:
192,192,28152,1,0,0:0:0:0:
320,192,28214,1,0,0:0:0:0:
448,192,28275,1,0,0:0:0:0:
192,192,28275,1,0,0:0:0:0:
64,192,28337,1,0,0:0:0:0:
320,192,28399,1,0,0:0:0:0:
448,192,28460,1,0,0:0:0:0:
64,192,28522,1,0,0:0:0:0:
192,192,28583,1,0,0:0:0:0:
320,192,28645,1,0,0:0:0:0:
448,192,28645,1,0,0:0:0:0:
192,192,28707,1,0,0:0:0:0:
448,192,28768,1,0,0:0:0:0:
64,192,28768,1,0,0:0:0:0:
320,192,28830,1,0,0:0:0:0:
192,192,28891,1,0,0:0:0:0:
64,192,28953,1,0,0:0:0:0:
192,192,29015,1,0,0:0:0:0:
448,192,29015,1,0,0:0:0:0:
320,192,29076,1,0,0:0:0:0:
192,192,29138,1,0,0:0:0:0:
64,192,29199,1,0,0:0:0:0:
448,192,29261,1,0,0:0:0:0:
320,192,29261,1,0,0:0:0:0:
192,192,29323,1,0,0:0:0:0:
320,192,29384,1,0,0:0:0:0:
448,192,29446,1,0,0:0:0:0:
64,192,29507,1,0,0:0:0:0:
192,192,29569,1,0,0:0:0:0:
448,192,29631,1,0,0:0:0:0:
320,192,29631,1,0,0:0:0:0:
192,192,29692,1,0,0:0:0:0:
320,192,29754,1,0,0:0:0:0:
64,192,29754,1,0,0:0:0:0:
448,192,29815,1,0,0:0:0:0:
192,192,29877,1,0,0:0:0:0:
320,192,29877,1,0,0:0:0:0:
64,192,29939,1,0,0:0:0:0:
192,192,30000,1,0,0:0:0:0:
448,192,30000,1,0,0:0:0:0:
320,192,30062,1,0,0:0:0:0:
64,192,30123,1,0,0:0:0:0:
192,192,30185,1,0,0:0:0:0:
448,192,30247,1,0,0:0:0:0:
320,192,30247,1,0,0:0:0:0:
64,192,30308,1,0,0:0:0:0:
192,192,30370,1,0,0:0:0:0:
448,192,30431,1,0,0:0:0:0:
320,192,30493,1,0,0:0:0:0:
64,192,30555,1,0,0:0:0:0:
192,192,30616,1,0,0:0:0:0:
448,192,30616,1,0,0:0:0:0:
320,192,30678,1,0,0:0:0:0:
64,192,30740,1,0,0:0:0:0:
192,192,30740,1,0,0:0:0:0:
448,192,30801,1,0,0:0:0:0:
320,192,30863,1,0,0:0:0:0:
192,192,30924,1,0,0:0:0:0:
448,192,30986,1,0,0:0:0:0:
64,192,30986,1,0,0:0:0:0:
320,192,31048,1,0,0:0:0:0:
192,192,31109,1,0,0:0:0:0:
448,192,31171,1,0,0:0:0:0:
64,192,31171,1,0,0:0:0:0:
192,192,31232,1,0,0:0:0:0:
320,192,31294,1,0,0:0:0:0:
448,192,31356,1,0,0:0:0:0:
192,192,31356,1,0,0:0:0:0:
64,192,31417,1,0,0:0:0:0:
320,192,31479,1,0,0:0:0:0:
448,192,31540,1,0,0:0:0:0:
192,192,31602,1,0,0:0:0:0:
64,192,31602,1,0,0:0:0:0:
320,192,31664,1,0,0:0:0:0:
192,192,31725,1,0,0:0:0:0:
448,192,31725,1,0,0:0:0:0:
64,192,31787,1,0,0:0:0:0:
320,192,31848,1,0,0:0:0:0:
448,192,31910,1,0,0:0:0:0:
64,192,31972,128,0,32834:0:0:0:0:
320,192,31972,1,0,0:0:0:0:
192,192,31972,1,0,0:0:0:0:
320,192,32095,1,0,0:0:0:0:
448,192,32218,1,0,0:0:0:0:
192,192,32341,1,0,0:0:0:0:
320,192,32464,1,0,0:0:0:0:
448,192,32588,1,0,0:0:0:0:
320,192,32711,1,0,0:0:0:0:
192,192,32834,1,0,0:0:0:0:
320,192,32896,1,0,0:0:0:0:
448,192,32957,128,0,33327:0:0:0:0:
64,192,32957,1,0,0:0:0:0:
320,192,33080,1,0,0:0:0:0:
192,192,33204,1,0,0:0:0:0:
320,192,33327,128,0,33696:0:0:0:0:
64,192,33327,1,0,0:0:0:0:
192,192,33450,1,0,0:0:0:0:
448,192,33573,1,0,0:0:0:0:
192,192,33696,128,0,33943:0:0:0:0:
64,192,33696,1,0,0:0:0:0:
320,192,33820,1,0,0:0:0:0:
448,192,33943,128,0,34805:0:0:0:0:
64,192,33943,1,0,0:0:0:0:
320,192,34066,1,0,0:0:0:0:
192,192,34189,1,0,0:0:0:0:
64,192,34312,1,0,0:0:0:0:
320,192,34436,1,0,0:0:0:0:
192,192,34559,1,0,0:0:0:0:
64,192,34682,1,0,0:0:0:0:
320,192,34805,1,0,0:0:0:0:
192,192,34867,1,0,0:0:0:0:
64,192,34928,128,0,35298:0:0:0:0:
448,192,34928,1,0,0:0:0:0:
192,192,35052,1,0,0:0:0:0:
320,192,35175,1,0,0:0:0:0:
192,192,35298,128,0,35668:0:0:0:0:
448,192,35298,1,0,0:0:0:0:
320,192,35421,1,0,0:0:0:0:
64,192,35544,1,0,0:0:0:0:
320,192,35668,128,0,35914:0:0:0:0:
448,192,35668,1,0,0:0:0:0:
64,192,35791,1,0,0:0:0:0:
448,192,35914,128,0,36284:0:0:0:0:
192,192,35914,1,0,0:0:0:0:
320,192,36037,1,0,0:0:0:0:
64,192,36160,1,0,0:0:0:0:
320,192,36284,128,0,36653:0:0:0:0:
192,192,36284,1,0,0:0:0:0:
448,192,36407,1,0,0:0:0:0:
64,192,36530,1,0,0:0:0:0:
192,192,36653,128,0,37639:0:0:0:0:
448,192,36653,1,0,0:0:0:0:
320,192,36776,1,0,0:0:0:0:
64,192,36900,1,0,0:0:0:0:
448,192,37023,1,0,0:0:0:0:
320,192,37146,1,0,0:0:0:0:
448,192,37269,1,0,0:0:0:0:
64,192,37392,1,0,0:0:0:0:
320,192,37516,1,0,0:0:0:0:
64,192,37639,128,0,37885:0:0:0:0:
448,192,37639,1,0,0:0:0:0:
192,192,37762,1,0,0:0:0:0:
320,192,37885,128,0,39610:0:0:0:0:
448,192,37885,1,0,0:0:0:0:
192,192,38009,1,0,0:0:0:0:
64,192,38132,1,0,0:0:0:0:
448,192,38255,1,0,0:0:0:0:
192,192,38378,1,0,0:0:0:0:
64,192,38501,1,0,0:0:0:0:
448,192,38625,1,0,0:0:0:0:
192,192,38748,1,0,0:0:0:0:
448,192,38871,1,0,0:0:0:0:
64,192,38994,1,0,0:0:0:0:
192,192,39117,1,0,0:0:0:0:
448,192,39241,1,0,0:0:0:0:
64,192,39364,1,0,0:0:0:0:
448,192,39487,1,0,0:0:0:0:
192,192,39610,1,0,0:0:0:0:
64,192,39610,1,0,0:0:0:0:
448,192,39857,1,0,0:0:0:0:
64,192,39857,1,0,0:0:0:0:
320,192,39918,1,0,0:0:0:0:
192,192,39980,1,0,0:0:0:0:
64,192,40041,1,0,0:0:0:0:
192,192,40103,1,0,0:0:0:0:
320,192,40103,1,0,0:0:0:0:
448,192,40165,1,0,0:0:0:0:
320,192,40226,1,0,0:0:0:0:
192,192,40288,1,0,0:0:0:0:
64,192,40349,1,0,0:0:0:0:
192,192,40411,1,0,0:0:0:0:
320,192,40473,1,0,0:0:0:0:
448,192,40473,1,0,0:0:0:0:
64,192,40534,1,0,0:0:0:0:
192,192,40596,1,0,0:0:0:0:
320,192,40596,1,0,0:0:0:0:
448,192,40657,1,0,0:0:0:0:
320,192,40719,1,0,0:0:0:0:
192,192,40781,1,0,0:0:0:0:
448,192,40842,1,0,0:0:0:0:
64,192,40842,1,0,0:0:0:0:
320,192,40904,1,0,0:0:0:0:
192,192,40965,1,0,0:0:0:0:
64,192,41027,1,0,0:0:0:0:
192,192,41089,1,0,0:0:0:0:
448,192,41089,1,0,0:0:0:0:
320,192,41150,1,0,0:0:0:0:
192,192,41212,1,0,0:0:0:0:
64,192,41273,1,0,0:0:0:0:
320,192,41335,1,0,0:0:0:0:
448,192,41397,1,0,0:0:0:0:
64,192,41458,1,0,0:0:0:0:
192,192,41458,1,0,0:0:0:0:
320,192,41520,1,0,0:0:0:0:
448,192,41581,1,0,0:0:0:0:
64,192,41581,1,0,0:0:0:0:
192,192,41643,1,0,0:0:0:0:
320,192,41705,1,0,0:0:0:0:
448,192,41705,1,0,0:0:0:0:
192,192,41766,1,0,0:0:0:0:
64,192,41828,1,0,0:0:0:0:
320,192,41828,1,0,0:0:0:0:
448,192,41889,1,0,0:0:0:0:
320,192,41951,1,0,0:0:0:0:
192,192,42013,1,0,0:0:0:0:
64,192,42074,1,0,0:0:0:0:
448,192,42074,1,0,0:0:0:0:
320,192,42136,1,0,0:0:0:0:
192,192,42197,1,0,0:0:0:0:
64,192,42259,1,0,0:0:0:0:
192,192,42321,1,0,0:0:0:0:
320,192,42382,1,0,0:0:0:0:
448,192,42444,1,0,0:0:0:0:
64,192,42444,1,0,0:0:0:0:
192,192,42505,1,0,0:0:0:0:
448,192,42567,1,0,0:0:0:0:
320,192,42567,1,0,0:0:0:0:
64,192,42629,1,0,0:0:0:0:
192,192,42690,1,0,0:0:0:0:
448,192,42752,1,0,0:0:0:0:
320,192,42813,1,0,0:0:0:0:
192,192,42813,1,0,0:0:0:0:
64,192,42875,1,0,0:0:0:0:
192,192,42937,1,0,0:0:0:0:
320,192,42998,1,0,0:0:0:0:
448,192,43060,1,0,0:0:0:0:
64,192,43060,1,0,0:0:0:0:
320,192,43121,1,0,0:0:0:0:
192,192,43183,1,0,0:0:0:0:
64,192,43245,1,0,0:0:0:0:
448,192,43245,1,0,0:0:0:0:
320,192,43306,1,0,0:0:0:0:
192,192,43368,1,0,0:0:0:0:
320,192,43429,1,0,0:0:0:0:
448,192,43429,1,0,0:0:0:0:
64,192,43491,1,0,0:0:0:0:
192,192,43553,1,0,0:0:0:0:
448,192,43553,1,0,0:0:0:0:
320,192,43614,1,0,0:0:0:0:
192,192,43676,1,0,0:0:0:0:
64,192,43737,1,0,0:0:0:0:
448,192,43799,1,0,0:0:0:0:
320,192,43799,1,0,0:0:0:0:
192,192,43861,1,0,0:0:0:0:
64,192,43922,1,0,0:0:0:0:
320,192,43984,1,0,0:0:0:0:
448,192,44045,1,0,0:0:0:0:
192,192,44045,1,0,0:0:0:0:
64,192,44107,1,0,0:0:0:0:
192,192,44169,1,0,0:0:0:0:
320,192,44230,1,0,0:0:0:0:
448,192,44292,1,0,0:0:0:0:
320,192,44353,1,0,0:0:0:0:
192,192,44415,1,0,0:0:0:0:
64,192,44415,1,0,0:0:0:0:
448,192,44477,1,0,0:0:0:0:
320,192,44538,1,0,0:0:0:0:
192,192,44538,1,0,0:0:0:0:
64,192,44600,1,0,0:0:0:0:
192,192,44661,1,0,0:0:0:0:
320,192,44723,1,0,0:0:0:0:
448,192,44785,1,0,0:0:0:0:
64,192,44785,1,0,0:0:0:0:
320,192,44846,1,0,0:0:0:0:
192,192,44908,1,0,0:0:0:0:
448,192,44969,1,0,0:0:0:0:
64,192,45031,1,0,0:0:0:0:
320,192,45031,1,0,0:0:0:0:
192,192,45093,1,0,0:0:0:0:
320,192,45154,1,0,0:0:0:0:
448,192,45216,1,0,0:0:0:0:
64,192,45277,1,0,0:0:0:0:
192,192,45339,1,0,0:0:0:0:
320,192,45401,1,0,0:0:0:0:
448,192,45401,1,0,0:0:0:0:
64,192,45462,1,0,0:0:0:0:
448,192,45524,1,0,0:0:0:0:
192,192,45524,1,0,0:0:0:0:
320,192,45586,1,0,0:0:0:0:
64,192,45647,1,0,0:0:0:0:
192,192,45647,1,0,0:0:0:0:
448,192,45709,1,0,0:0:0:0:
320,192,45770,1,0,0:0:0:0:
64,192,45770,1,0,0:0:0:0:
192,192,45832,1,0,0:0:0:0:
320,192,45894,1,0,0:0:0:0:
448,192,45955,1,0,0:0:0:0:
64,192,46017,1,0,0:0:0:0:
192,192,46017,1,0,0:0:0:0:
320,192,46078,1,0,0:0:0:0:
448,192,46140,1,0,0:0:0:0:
320,192,46202,1,0,0:0:0:0:
192,192,46263,1,0,0:0:0:0:
64,192,46325,1,0,0:0:0:0:
448,192,46386,1,0,0:0:0:0:
320,192,46386,1,0,0:0:0:0:
192,192,46448,1,0,0:0:0:0:
64,192,46510,1,0,0:0:0:0:
448,192,46510,1,0,0:0:0:0:
320,192,46571,1,0,0:0:0:0:
192,192,46633,1,0,0:0:0:0:
64,192,46694,1,0,0:0:0:0:
448,192,46756,1,0,0:0:0:0:
320,192,46756,1,0,0:0:0:0:
192,192,46879,1,0,0:0:0:0:
64,192,46879,1,0,0:0:0:0:
320,192,46941,1,0,0:0:0:0:
448,192,46941,1,0,0:0:0:0:
192,192,47002,1,0,0:0:0:0:
64,192,47002,1,0,0:0:0:0:
448,192,47126,1,0,0:0:0:0:
320,192,47126,1,0,0:0:0:0:
64,192,47249,1,0,0:0:0:0:
192,192,47249,1,0,0:0:0:0:
320,192,47310,1,0,0:0:0:0:
448,192,47310,1,0,0:0:0:0:
192,192,47372,1,0,0:0:0:0:
64,192,47372,1,0,0:0:0:0:
320,192,47495,1,0,0:0:0:0:
448,192,47495,1,0,0:0:0:0:
448,192,47557,1,0,0:0:0:0:
320,192,47557,1,0,0:0:0:0:
192,192,47618,1,0,0:0:0:0:
64,192,47618,1,0,0:0:0:0:
320,192,47680,1,0,0:0:0:0:
448,192,47680,1,0,0:0:0:0:
192,192,47742,1,0,0:0:0:0:
64,192,47742,1,0,0:0:0:0:
320,192,47865,1,0,0:0:0:0:
448,192,47988,1,0,0:0:0:0:
64,192,48111,1,0,0:0:0:0:
192,192,48234,1,0,0:0:0:0:
448,192,48358,1,0,0:0:0:0:
64,192,48481,1,0,0:0:0:0:
192,192,48604,1,0,0:0:0:0:
320,192,48604,1,0,0:0:0:0:
448,192,48727,1,0,0:0:0:0:
64,192,48850,1,0,0:0:0:0:
192,192,48850,1,0,0:0:0:0:
320,192,48974,1,0,0:0:0:0:
448,192,49097,1,0,0:0:0:0:
64,192,49220,1,0,0:0:0:0:
192,192,49343,1,0,0:0:0:0:
320,192,49466,1,0,0:0:0:0:
64,192,49466,1,0,0:0:0:0:
448,192,49590,1,0,0:0:0:0:
192,192,49651,1,0,0:0:0:0:
64,192,49651,1,0,0:0:0:0:
448,192,49713,1,0,0:0:0:0:
320,192,49713,1,0,0:0:0:0:
64,192,49774,1,0,0:0:0:0:
192,192,49836,1,0,0:0:0:0:
320,192,49898,1,0,0:0:0:0:
448,192,49959,1,0,0:0:0:0:
64,192,49959,1,0,0:0:0:0:
192,192,50021,1,0,0:0:0:0:
320,192,50082,1,0,0:0:0:0:
448,192,50144,1,0,0:0:0:0:
192,192,50144,1,0,0:0:0:0:
64,192,50206,1,0,0:0:0:0:
192,192,50267,1,0,0:0:0:0:
320,192,50329,1,0,0:0:0:0:
448,192,50329,1,0,0:0:0:0:
64,192,50390,1,0,0:0:0:0:
192,192,50452,1,0,0:0:0:0:
320,192,50452,1,0,0:0:0:0:
448,192,50514,1,0,0:0:0:0:
64,192,50575,1,0,0:0:0:0:
192,192,50637,1,0,0:0:0:0:
320,192,50698,1,0,0:0:0:0:
448,192,50698,1,0,0:0:0:0:
192,192,50760,1,0,0:0:0:0:
64,192,50822,1,0,0:0:0:0:
448,192,50883,1,0,0:0:0:0:
192,192,50945,1,0,0:0:0:0:
320,192,50945,1,0,0:0:0:0:
64,192,51006,1,0,0:0:0:0:
192,192,51068,1,0,0:0:0:0:
448,192,51130,1,0,0:0:0:0:
320,192,51130,1,0,0:0:0:0:
64,192,51191,1,0,0:0:0:0:
192,192,51253,1,0,0:0:0:0:
320,192,51314,1,0,0:0:0:0:
448,192,51314,1,0,0:0:0:0:
64,192,51376,1,0,0:0:0:0:
192,192,51438,1,0,0:0:0:0:
448,192,51438,1,0,0:0:0:0:
320,192,51499,1,0,0:0:0:0:
192,192,51561,1,0,0:0:0:0:
64,192,51622,1,0,0:0:0:0:
192,192,51684,1,0,0:0:0:0:
320,192,51684,1,0,0:0:0:0:
448,192,51746,1,0,0:0:0:0:
320,192,51807,1,0,0:0:0:0:
192,192,51869,1,0,0:0:0:0:
64,192,51930,1,0,0:0:0:0:
320,192,51930,1,0,0:0:0:0:
448,192,51992,1,0,0:0:0:0:
64,192,52054,1,0,0:0:0:0:
192,192,52115,1,0,0:0:0:0:
320,192,52177,1,0,0:0:0:0:
448,192,52238,1,0,0:0:0:0:
320,192,52300,1,0,0:0:0:0:
192,192,52300,1,0,0:0:0:0:
64,192,52362,1,0,0:0:0:0:
448,192,52423,1,0,0:0:0:0:
192,192,52423,1,0,0:0:0:0:
320,192,52485,1,0,0:0:0:0:
64,192,52546,1,0,0:0:0:0:
448,192,52546,1,0,0:0:0:0:
192,192,52608,1,0,0:0:0:0:
320,192,52670,1,0,0:0:0:0:
448,192,52670,1,0,0:0:0:0:
192,192,52731,1,0,0:0:0:0:
64,192,52793,1,0,0:0:0:0:
448,192,52854,1,0,0:0:0:0:
320,192,52916,1,0,0:0:0:0:
192,192,52916,1,0,0:0:0:0:
64,192,52978,1,0,0:0:0:0:
192,192,53039,1,0,0:0:0:0:
320,192,53101,1,0,0:0:0:0:
448,192,53101,1,0,0:0:0:0:
192,192,53163,1,0,0:0:0:0:
320,192,53224,1,0,0:0:0:0:
448,192,53286,1,0,0:0:0:0:
64,192,53286,1,0,0:0:0:0:
192,192,53347,1,0,0:0:0:0:
320,192,53409,1,0,0:0:0:0:
448,192,53471,1,0,0:0:0:0:
320,192,53532,1,0,0:0:0:0:
192,192,53594,1,0,0:0:0:0:
320,192,53655,1,0,0:0:0:0:
448,192,53655,1,0,0:0:0:0:
64,192,53717,1,0,0:0:0:0:
192,192,53779,1,0,0:0:0:0:
448,192,53840,1,0,0:0:0:0:
320,192,53902,1,0,0:0:0:0:
192,192,53902,1,0,0:0:0:0:
64,192,53963,1,0,0:0:0:0:
448,192,54025,1,0,0:0:0:0:
320,192,54087,1,0,0:0:0:0:
192,192,54148,1,0,0:0:0:0:
64,192,54210,1,0,0:0:0:0:
448,192,54271,1,0,0:0:0:0:
320,192,54271,1,0,0:0:0:0:
192,192,54333,1,0,0:0:0:0:
64,192,54395,1,0,0:0:0:0:
192,192,54456,1,0,0:0:0:0:
320,192,54518,1,0,0:0:0:0:
448,192,54579,1,0,0:0:0:0:
320,192,54641,1,0,0:0:0:0:
64,192,54641,1,0,0:0:0:0:
192,192,54703,1,0,0:0:0:0:
320,192,54764,1,0,0:0:0:0:
448,192,54826,1,0,0:0:0:0:
64,192,54887,1,0,0:0:0:0:
192,192,54887,1,0,0:0:0:0:
320,192,54949,1,0,0:0:0:0:
448,192,55011,1,0,0:0:0:0:
192,192,55072,1,0,0:0:0:0:
320,192,55134,1,0,0:0:0:0:
448,192,55134,1,0,0:0:0:0:
64,192,55195,1,0,0:0:0:0:
192,192,55257,1,0,0:0:0:0:
320,192,55319,1,0,0:0:0:0:
448,192,55380,1,0,0:0:0:0:
192,192,55380,1,0,0:0:0:0:
64,192,55442,1,0,0:0:0:0:
192,192,55503,1,0,0:0:0:0:
320,192,55503,1,0,0:0:0:0:
448,192,55565,1,0,0:0:0:0:
64,192,55627,1,0,0:0:0:0:
320,192,55627,1,0,0:0:0:0:
192,192,55750,1,0,0:0:0:0:
64,192,55873,1,0,0:0:0:0:
448,192,55996,1,0,0:0:0:0:
320,192,55996,1,0,0:0:0:0:
192,192,56119,1,0,0:0:0:0:
448,192,56243,1,0,0:0:0:0:
192,192,56489,1,0,0:0:0:0:
448,192,56612,1,0,0:0:0:0:
320,192,56612,1,0,0:0:0:0:
320,192,56859,1,0,0:0:0:0:
448,192,56982,1,0,0:0:0:0:
192,192,56982,1,0,0:0:0:0:
64,192,57228,1,0,0:0:0:0:
192,192,57351,1,0,0:0:0:0:
448,192,57351,1,0,0:0:0:0:
64,192,57475,1,0,0:0:0:0:
320,192,57598,1,0,0:0:0:0:
448,192,57598,1,0,0:0:0:0:
192,192,57721,1,0,0:0:0:0:
64,192,57844,1,0,0:0:0:0:
320,192,57844,1,0,0:0:0:0:
320,192,58091,1,0,0:0:0:0:
448,192,58091,1,0,0:0:0:0:
192,192,58214,1,0,0:0:0:0:
64,192,58214,1,0,0:0:0:0:
448,192,58460,1,0,0:0:0:0:
320,192,58522,1,0,0:0:0:0:
448,192,58583,1,0,0:0:0:0:
320,192,58707,1,0,0:0:0:0:
192,192,58830,1,0,0:0:0:0:
64,192,58953,1,0,0:0:0:0:
320,192,59199,1,0,0:0:0:0:
448,192,59199,1,0,0:0:0:0:
64,192,59323,1,0,0:0:0:0:
448,192,59323,1,0,0:0:0:0:
320,192,59446,1,0,0:0:0:0:
64,192,59569,1,0,0:0:0:0:
448,192,59569,1,0,0:0:0:0:
192,192,59692,1,0,0:0:0:0:
320,192,59815,1,0,0:0:0:0:
448,192,59815,1,0,0:0:0:0:
64,192,59939,1,0,0:0:0:0:
320,192,59939,1,0,0:0:0:0:
192,192,60062,1,0,0:0:0:0:
320,192,60185,1,0,0:0:0:0:
448,192,60185,1,0,0:0:0:0:
64,192,60308,1,0,0:0:0:0:
192,192,60308,1,0,0:0:0:0:
320,192,60431,1,0,0:0:0:0:
448,192,60555,1,0,0:0:0:0:
192,192,60555,1,0,0:0:0:0:
64,192,60801,1,0,0:0:0:0:
448,192,60924,1,0,0:0:0:0:
192,192,60924,1,0,0:0:0:0:
320,192,61048,1,0,0:0:0:0:
64,192,61171,1,0,0:0:0:0:
320,192,61294,1,0,0:0:0:0:
64,192,61417,1,0,0:0:0:0:
192,192,61479,1,0,0:0:0:0:
320,192,61540,1,0,0:0:0:0:
64,192,61664,1,0,0:0:0:0:
192,192,61664,1,0,0:0:0:0:
320,192,61787,1,0,0:0:0:0:
448,192,61787,1,0,0:0:0:0:
64,192,62033,1,0,0:0:0:0:
320,192,62033,1,0,0:0:0:0:
192,192,62156,1,0,0:0:0:0:
448,192,62156,1,0,0:0:0:0:
64,192,62403,1,0,0:0:0:0:
320,192,62403,1,0,0:0:0:0:
192,192,62526,1,0,0:0:0:0:
448,192,62526,1,0,0:0:0:0:
64,192,62588,1,0,0:0:0:0:
192,192,62649,1,0,0:0:0:0:
320,192,62711,1,0,0:0:0:0:
448,192,62772,1,0,0:0:0:0:
64,192,62834,1,0,0:0:0:0:
192,192,62896,1,0,0:0:0:0:
320,192,62957,1,0,0:0:0:0:
448,192,63019,1,0,0:0:0:0:
64,192,63080,1,0,0:0:0:0:
192,192,63142,1,0,0:0:0:0:
320,192,63204,1,0,0:0:0:0:
448,192,63265,1,0,0:0:0:0:
320,192,63327,1,0,0:0:0:0:
192,192,63388,1,0,0:0:0:0:
64,192,63450,1,0,0:0:0:0:
448,192,63512,1,0,0:0:0:0:
192,192,63512,1,0,0:0:0:0:
320,192,63696,1,0,0:0:0:0:
448,192,63696,1,0,0:0:0:0:
448,192,63881,1,0,0:0:0:0:
192,192,63881,1,0,0:0:0:0:
320,192,64066,1,0,0:0:0:0:
448,192,64066,1,0,0:0:0:0:
448,192,64251,1,0,0:0:0:0:
320,192,64251,1,0,0:0:0:0:
64,192,64374,1,0,0:0:0:0:
192,192,64374,1,0,0:0:0:0:
448,192,64497,1,0,0:0:0:0:
320,192,64497,1,0,0:0:0:0:
320,192,64682,1,0,0:0:0:0:
448,192,64682,1,0,0:0:0:0:
448,192,64867,1,0,0:0:0:0:
192,192,64867,1,0,0:0:0:0:
320,192,65052,1,0,0:0:0:0:
448,192,65052,1,0,0:0:0:0:
320,192,65236,1,0,0:0:0:0:
448,192,65236,1,0,0:0:0:0:
320,192,65360,1,0,0:0:0:0:
192,192,65360,1,0,0:0:0:0:
192,192,65483,1,0,0:0:0:0:
64,192,65483,1,0,0:0:0:0:
64,192,65668,1,0,0:0:0:0:
192,192,65668,1,0,0:0:0:0:
64,192,65852,1,0,0:0:0:0:
320,192,65852,1,0,0:0:0:0:
64,192,66037,1,0,0:0:0:0:
192,192,66037,1,0,0:0:0:0:
64,192,66222,1,0,0:0:0:0:
192,192,66222,1,0,0:0:0:0:
448,192,66345,1,0,0:0:0:0:
320,192,66345,1,0,0:0:0:0:
192,192,66468,1,0,0:0:0:0:
64,192,66468,1,0,0:0:0:0:
64,192,66653,1,0,0:0:0:0:
192,192,66653,1,0,0:0:0:0:
320,192,66838,1,0,0:0:0:0:
64,192,66838,1,0,0:0:0:0:
64,192,67023,1,0,0:0:0:0:
192,192,67023,1,0,0:0:0:0:
64,192,67208,1,0,0:0:0:0:
192,192,67208,1,0,0:0:0:0:
320,192,67331,1,0,0:0:0:0:
448,192,67331,1,0,0:0:0:0:
192,192,67454,1,0,0:0:0:0:
320,192,67454,1,0,0:0:0:0:
192,192,67639,1,0,0:0:0:0:
320,192,67639,1,0,0:0:0:0:
320,192,67824,1,0,0:0:0:0:
64,192,67824,1,0,0:0:0:0:
192,192,68009,1,0,0:0:0:0:
320,192,68009,1,0,0:0:0:0:
320,192,68193,1,0,0:0:0:0:
192,192,68193,1,0,0:0:0:0:
64,192,68317,1,0,0:0:0:0:
448,192,68317,1,0,0:0:0:0:
192,192,68440,1,0,0:0:0:0:
320,192,68440,1,0,0:0:0:0:
192,192,68625,1,0,0:0:0:0:
320,192,68625,1,0,0:0:0:0:
448,192,68809,1,0,0:0:0:0:
192,192,68809,1,0,0:0:0:0:
192,192,68994,1,0,0:0:0:0:
320,192,68994,1,0,0:0:0:0:
192,192,69179,1,0,0:0:0:0:
320,192,69179,1,0,0:0:0:0:
192,192,69302,1,0,0:0:0:0:
64,192,69302,1,0,0:0:0:0:
448,192,69425,1,0,0:0:0:0:
64,192,69425,1,0,0:0:0:0:
64,192,69610,1,0,0:0:0:0:
448,192,69610,1,0,0:0:0:0:
320,192,69795,1,0,0:0:0:0:
192,192,69795,1,0,0:0:0:0:
64,192,69980,1,0,0:0:0:0:
448,192,69980,1,0,0:0:0:0:
448,192,70165,1,0,0:0:0:0:
64,192,70165,1,0,0:0:0:0:
192,192,70165,1,0,0:0:0:0:
448,192,70288,1,0,0:0:0:0:
64,192,70288,1,0,0:0:0:0:
320,192,70288,1,0,0:0:0:0:
64,192,70411,1,0,0:0:0:0:
192,192,70411,1,0,0:0:0:0:
448,192,70411,128,0,71027:0:0:0:0:
192,192,70657,1,0,0:0:0:0:
320,192,70781,1,0,0:0:0:0:
64,192,71027,1,0,0:0:0:0:
448,192,71150,1,0,0:0:0:0:
320,192,71150,1,0,0:0:0:0:
64,192,71273,1,0,0:0:0:0:
192,192,71273,1,0,0:0:0:0:
448,192,71397,1,0,0:0:0:0:
64,192,71397,1,0,0:0:0:0:
320,192,71520,1,0,0:0:0:0:
192,192,71581,1,0,0:0:0:0:
64,192,71581,1,0,0:0:0:0:
320,192,71643,1,0,0:0:0:0:
448,192,71643,1,0,0:0:0:0:
192,192,71766,1,0,0:0:0:0:
64,192,71766,1,0,0:0:0:0:
192,192,71889,1,0,0:0:0:0:
448,192,71889,1,0,0:0:0:0:
320,192,72013,1,0,0:0:0:0:
64,192,72013,1,0,0:0:0:0:
320,192,72136,1,0,0:0:0:0:
448,192,72136,1,0,0:0:0:0:
192,192,72259,1,0,0:0:0:0:
64,192,72259,1,0,0:0:0:0:
192,192,72382,1,0,0:0:0:0:
448,192,72382,1,0,0:0:0:0:
320,192,72505,1,0,0:0:0:0:
64,192,72567,1,0,0:0:0:0:
192,192,72567,1,0,0:0:0:0:
448,192,72629,1,0,0:0:0:0:
320,192,72629,1,0,0:0:0:0:
192,192,72752,1,0,0:0:0:0:
64,192,72752,1,0,0:0:0:0:
64,192,72875,1,0,0:0:0:0:
448,192,72875,1,0,0:0:0:0:
192,192,72998,1,0,0:0:0:0:
320,192,72998,1,0,0:0:0:0:
448,192,73121,1,0,0:0:0:0:
320,192,73121,1,0,0:0:0:0:
64,192,73245,1,0,0:0:0:0:
192,192,73245,1,0,0:0:0:0:
192,192,73368,1,0,0:0:0:0:
448,192,73368,1,0,0:0:0:0:
320,192,73491,1,0,0:0:0:0:
192,192,73553,1,0,0:0:0:0:
64,192,73553,1,0,0:0:0:0:
320,192,73614,1,0,0:0:0:0:
448,192,73614,1,0,0:0:0:0:
192,192,73737,1,0,0:0:0:0:
64,192,73737,1,0,0:0:0:0:
448,192,73861,1,0,0:0:0:0:
320,192,73861,1,0,0:0:0:0:
64,192,73984,1,0,0:0:0:0:
320,192,73984,1,0,0:0:0:0:
448,192,74107,1,0,0:0:0:0:
192,192,74107,1,0,0:0:0:0:
64,192,74230,1,0,0:0:0:0:
448,192,74230,1,0,0:0:0:0:
192,192,74353,1,0,0:0:0:0:
320,192,74353,1,0,0:0:0:0:
448,192,74477,1,0,0:0:0:0:
64,192,74538,1,0,0:0:0:0:
192,192,74538,1,0,0:0:0:0:
320,192,74600,1,0,0:0:0:0:
448,192,74600,1,0,0:0:0:0:
64,192,74723,1,0,0:0:0:0:
320,192,74723,1,0,0:0:0:0:
64,192,74846,1,0,0:0:0:0:
448,192,74846,1,0,0:0:0:0:
320,192,74969,1,0,0:0:0:0:
192,192,74969,1,0,0:0:0:0:
320,192,75093,1,0,0:0:0:0:
448,192,75093,1,0,0:0:0:0:
64,192,75216,1,0,0:0:0:0:
192,192,75216,1,0,0:0:0:0:
448,192,75339,1,0,0:0:0:0:
192,192,75339,1,0,0:0:0:0:
320,192,75462,1,0,0:0:0:0:
192,192,75524,1,0,0:0:0:0:
64,192,75524,1,0,0:0:0:0:
448,192,75586,1,0,0:0:0:0:
320,192,75586,1,0,0:0:0:0:
64,192,75709,1,0,0:0:0:0:
192,192,75709,1,0,0:0:0:0:
448,192,75832,1,0,0:0:0:0:
192,192,75832,1,0,0:0:0:0:
448,192,75955,1,0,0:0:0:0:
64,192,75955,1,0,0:0:0:0:
320,192,76078,1,0,0:0:0:0:
192,192,76078,1,0,0:0:0:0:
448,192,76202,1,0,0:0:0:0:
64,192,76202,1,0,0:0:0:0:
64,192,76325,1,0,0:0:0:0:
192,192,76325,1,0,0:0:0:0:
320,192,76448,1,0,0:0:0:0:
192,192,76510,1,0,0:0:0:0:
64,192,76510,1,0,0:0:0:0:
320,192,76571,1,0,0:0:0:0:
448,192,76571,1,0,0:0:0:0:
64,192,76694,1,0,0:0:0:0:
192,192,76694,1,0,0:0:0:0:
320,192,76818,1,0,0:0:0:0:
448,192,76818,1,0,0:0:0:0:
448,192,76941,1,0,0:0:0:0:
192,192,76941,1,0,0:0:0:0:
64,192,77064,1,0,0:0:0:0:
192,192,77064,1,0,0:0:0:0:
320,192,77187,1,0,0:0:0:0:
448,192,77187,1,0,0:0:0:0:
64,192,77310,1,0,0:0:0:0:
448,192,77310,1,0,0:0:0:0:
192,192,77434,1,0,0:0:0:0:
320,192,77495,1,0,0:0:0:0:
448,192,77495,1,0,0:0:0:0:
192,192,77557,1,0,0:0:0:0:
64,192,77557,1,0,0:0:0:0:
320,192,77680,1,0,0:0:0:0:
448,192,77680,1,0,0:0:0:0:
64,192,77803,1,0,0:0:0:0:
320,192,77803,1,0,0:0:0:0:
64,192,77926,1,0,0:0:0:0:
192,192,77926,1,0,0:0:0:0:
320,192,78050,1,0,0:0:0:0:
448,192,78050,1,0,0:0:0:0:
448,192,78173,1,0,0:0:0:0:
192,192,78173,1,0,0:0:0:0:
64,192,78296,1,0,0:0:0:0:
320,192,78296,1,0,0:0:0:0:
192,192,78419,1,0,0:0:0:0:
320,192,78481,1,0,0:0:0:0:
448,192,78481,1,0,0:0:0:0:
192,192,78542,1,0,0:0:0:0:
64,192,78542,1,0,0:0:0:0:
448,192,78666,1,0,0:0:0:0:
64,192,78666,1,0,0:0:0:0:
320,192,78789,1,0,0:0:0:0:
448,192,78789,1,0,0:0:0:0:
192,192,78912,1,0,0:0:0:0:
64,192,78912,1,0,0:0:0:0:
192,192,79035,1,0,0:0:0:0:
320,192,79035,1,0,0:0:0:0:
448,192,79158,1,0,0:0:0:0:
64,192,79158,1,0,0:0:0:0:
320,192,79282,1,0,0:0:0:0:
448,192,79282,1,0,0:0:0:0:
192,192,79405,1,0,0:0:0:0:
320,192,79466,1,0,0:0:0:0:
448,192,79466,1,0,0:0:0:0:
192,192,79528,1,0,0:0:0:0:
64,192,79528,1,0,0:0:0:0:
320,192,79651,1,0,0:0:0:0:
448,192,79651,1,0,0:0:0:0:
64,192,79774,1,0,0:0:0:0:
320,192,79774,1,0,0:0:0:0:
192,192,79898,1,0,0:0:0:0:
448,192,79898,1,0,0:0:0:0:
192,192,80021,1,0,0:0:0:0:
64,192,80021,1,0,0:0:0:0:
448,192,80144,1,0,0:0:0:0:
320,192,80144,1,0,0:0:0:0:
64,192,80267,1,0,0:0:0:0:
320,192,80267,1,0,0:0:0:0:
192,192,80390,1,0,0:0:0:0:
448,192,80452,1,0,0:0:0:0:
320,192,80452,1,0,0:0:0:0:
64,192,80514,1,0,0:0:0:0:
192,192,80514,1,0,0:0:0:0:
448,192,80637,1,0,0:0:0:0:
320,192,80637,1,0,0:0:0:0:
448,192,80760,1,0,0:0:0:0:
64,192,80760,1,0,0:0:0:0:
192,192,80883,1,0,0:0:0:0:
320,192,80883,1,0,0:0:0:0:
64,192,81006,1,0,0:0:0:0:
192,192,81006,1,0,0:0:0:0:
320,192,81130,1,0,0:0:0:0:
448,192,81130,1,0,0:0:0:0:
64,192,81253,1,0,0:0:0:0:
320,192,81253,1,0,0:0:0:0:
192,192,81376,1,0,0:0:0:0:
448,192,81438,1,0,0:0:0:0:
320,192,81438,1,0,0:0:0:0:
64,192,81499,1,0,0:0:0:0:
192,192,81499,1,0,0:0:0:0:
320,192,81622,1,0,0:0:0:0:
448,192,81622,1,0,0:0:0:0:
192,192,81746,1,0,0:0:0:0:
64,192,81746,1,0,0:0:0:0:
448,192,81869,1,0,0:0:0:0:
192,192,81869,1,0,0:0:0:0:
320,192,81992,1,0,0:0:0:0:
64,192,81992,1,0,0:0:0:0:
64,192,82115,1,0,0:0:0:0:
448,192,82115,1,0,0:0:0:0:
320,192,82238,1,0,0:0:0:0:
192,192,82238,1,0,0:0:0:0:
64,192,82362,1,0,0:0:0:0:
448,192,82423,1,0,0:0:0:0:
320,192,82423,1,0,0:0:0:0:
64,192,82485,1,0,0:0:0:0:
192,192,82485,1,0,0:0:0:0:
448,192,82608,1,0,0:0:0:0:
192,192,82608,1,0,0:0:0:0:
64,192,82731,1,0,0:0:0:0:
448,192,82731,1,0,0:0:0:0:
192,192,82854,1,0,0:0:0:0:
320,192,82854,1,0,0:0:0:0:
192,192,82978,1,0,0:0:0:0:
64,192,82978,1,0,0:0:0:0:
320,192,83101,1,0,0:0:0:0:
448,192,83101,1,0,0:0:0:0:
320,192,83224,1,0,0:0:0:0:
64,192,83224,1,0,0:0:0:0:
192,192,83347,1,0,0:0:0:0:
320,192,83409,1,0,0:0:0:0:
448,192,83409,1,0,0:0:0:0:
192,192,83471,1,0,0:0:0:0:
64,192,83471,1,0,0:0:0:0:
448,192,83594,1,0,0:0:0:0:
320,192,83594,1,0,0:0:0:0:
64,192,83717,1,0,0:0:0:0:
320,192,83717,1,0,0:0:0:0:
448,192,83840,1,0,0:0:0:0:
192,192,83840,1,0,0:0:0:0:
192,192,83963,1,0,0:0:0:0:
320,192,83963,1,0,0:0:0:0:
64,192,84087,1,0,0:0:0:0:
448,192,84087,1,0,0:0:0:0:
448,192,84210,1,0,0:0:0:0:
320,192,84210,1,0,0:0:0:0:
192,192,84333,1,0,0:0:0:0:
448,192,84395,1,0,0:0:0:0:
320,192,84395,1,0,0:0:0:0:
192,192,84456,1,0,0:0:0:0:
64,192,84456,1,0,0:0:0:0:
448,192,84579,1,0,0:0:0:0:
320,192,84579,1,0,0:0:0:0:
64,192,84703,1,0,0:0:0:0:
192,192,84703,1,0,0:0:0:0:
320,192,84826,1,0,0:0:0:0:
64,192,84826,1,0,0:0:0:0:
448,192,84949,1,0,0:0:0:0:
320,192,84949,1,0,0:0:0:0:
64,192,85072,1,0,0:0:0:0:
192,192,85072,1,0,0:0:0:0:
448,192,85195,1,0,0:0:0:0:
64,192,85195,1,0,0:0:0:0:
192,192,85319,1,0,0:0:0:0:
320,192,85380,1,0,0:0:0:0:
448,192,85380,1,0,0:0:0:0:
192,192,85442,1,0,0:0:0:0:
64,192,85442,1,0,0:0:0:0:
320,192,85503,1,0,0:0:0:0:
448,192,85565,1,0,0:0:0:0:
64,192,85565,1,0,0:0:0:0:
192,192,85688,1,0,0:0:0:0:
320,192,85688,1,0,0:0:0:0:
448,192,85750,1,0,0:0:0:0:
64,192,85811,1,0,0:0:0:0:
192,192,85811,1,0,0:0:0:0:
320,192,85873,1,0,0:0:0:0:
448,192,85935,1,0,0:0:0:0:
64,192,85935,1,0,0:0:0:0:
192,192,85996,1,0,0:0:0:0:
320,192,86058,1,0,0:0:0:0:
448,192,86058,1,0,0:0:0:0:
192,192,86119,1,0,0:0:0:0:
64,192,86181,1,0,0:0:0:0:
448,192,86181,1,0,0:0:0:0:
320,192,86243,1,0,0:0:0:0:
192,192,86304,1,0,0:0:0:0:
64,192,86366,1,0,0:0:0:0:
448,192,86427,1,0,0:0:0:0:
320,192,86489,1,0,0:0:0:0:
192,192,86551,1,0,0:0:0:0:
64,192,86612,1,0,0:0:0:0:
192,192,86674,1,0,0:0:0:0:
320,192,86735,1,0,0:0:0:0:
448,192,86797,1,0,0:0:0:0:
64,192,86859,1,0,0:0:0:0:
192,192,86920,1,0,0:0:0:0:
320,192,86982,1,0,0:0:0:0:
448,192,87043,1,0,0:0:0:0:
64,192,87105,1,0,0:0:0:0:
192,192,87167,128,0,88152:0:0:0:0:
320,192,87167,128,0,88152:0:0:0:0:
