osu file format v14

[General]
AudioFilename: audio.mp3
AudioLeadIn: 0
PreviewTime: 21902
Countdown: 1
SampleSet: None
StackLeniency: 0.7
Mode: 0
LetterboxInBreaks: 0
WidescreenStoryboard: 0

[Editor]
DistanceSpacing: 0.8
BeatDivisor: 16
GridSize: 8
TimelineZoom: 1

[Metadata]
Title:Chaoz Airflow
TitleUnicode:Chaoz Airflow
Artist:ParagonX9
ArtistUnicode:ParagonX9
Creator:Geremias25
Version:Easy
Source:
Tags:
BeatmapID:1369317
BeatmapSetID:646250

[Difficulty]
HPDrainRate:0
CircleSize:4
OverallDifficulty:0
ApproachRate:3
SliderMultiplier:1.2
SliderTickRate:1

[Events]
//Background and Video events
0,0,"Geometry-Dash.jpg",0,0
//Break Periods
2,46927,59380
//Storyboard Layer 0 (Background)
//Storyboard Layer 1 (Fail)
//Storyboard Layer 2 (Pass)
//Storyboard Layer 3 (Foreground)
//Storyboard Sound Samples

[TimingPoints]
0,1200,4,2,0,20,1,0
19352,500,4,2,0,43,1,0
22283,-100,4,1,0,86,0,0

[HitObjects]
88,224,300,6,0,B|152:328|152:328|240:280,1,217.5
304,288,2850,2,0,B|368:288|368:288|408:208,1,150
440,144,5250,5,0,0:0:0:0:
432,144,5625,6,0,B|352:96|352:96|304:104,1,142.5
280,176,8025,5,0,0:0:0:0:
368,176,8475,6,0,P|424:208|368:288,1,187.5
288,280,11100,5,0,0:0:0:0:
288,280,11475,6,0,B|192:288|192:288|184:288,1,105
120,240,12975,5,0,0:0:0:0:
120,248,13350,6,0,P|112:176|176:136,1,150
248,144,15225,5,0,0:0:0:0:
280,160,15675,6,0,B|352:144|352:136|352:136|368:208,1,150
368,280,18000,5,0,0:0:0:0:
304,312,18600,1,0,0:0:0:0:
224,320,18975,1,0,0:0:0:0:
136,272,19500,6,0,B|152:152|152:152|152:160,1,127.5,4|4,0:0|0:0,0:0:0:0:
184,80,20664,5,4,0:0:0:0:
264,80,21102,6,0,P|344:72|360:96,1,120,4|4,0:0|0:0,0:0:0:0:
416,160,22320,6,0,P|440:216|352:280,1,187.5
256,256,23758,1,0,0:0:0:0:
176,232,24445,1,0,0:0:0:0:
112,184,25070,6,0,P|144:96|216:72,1,172.5
288,80,26539,5,0,0:0:0:0:
376,96,27195,1,0,0:0:0:0:
408,104,27695,6,0,P|480:200|440:224,1,202.5
376,264,29258,5,0,0:0:0:0:
288,304,29914,1,0,0:0:0:0:
224,264,30445,6,0,B|192:320|192:320|120:320,1,135
104,240,31477,1,0,0:0:0:0:
120,168,32133,1,0,0:0:0:0:
128,88,32664,1,0,0:0:0:0:
128,88,33008,6,0,B|304:112|304:112|328:184,1,247.5,6|0,0:0|0:0,0:0:0:0:
304,264,34758,1,0,0:0:0:0:
384,312,35352,1,0,0:0:0:0:
464,280,35820,6,0,B|448:144|448:144|368:128,1,217.5
272,128,37445,1,0,0:0:0:0:
176,144,38164,1,0,0:0:0:0:
224,224,38570,6,0,B|376:216|376:216|376:280,1,210
376,344,40195,1,0,0:0:0:0:
288,352,40883,1,0,0:0:0:0:
152,192,41414,6,4,P|144:224|152:240,1,52.5
224,240,42008,6,4,P|280:240|288:224,1,75
352,168,42570,5,0,0:0:0:0:
352,168,42789,1,0,0:0:0:0:
256,192,43039,12,0,46727,0:0:0:0:
64,96,60820,5,0,0:0:0:0:
136,104,61289,6,0,P|192:112|168:224,1,202.5
96,304,62883,1,0,0:0:0:0:
200,320,63320,6,0,P|344:320|352:320,1,150
416,328,64477,6,0,B|440:264|440:264|392:208,1,142.5
320,144,66289,1,0,0:0:0:0:
280,112,66758,6,0,B|248:72|248:72|168:88,1,127.5
128,168,67977,1,0,0:0:0:0:
184,208,68445,6,0,B|344:152|344:152|336:304,1,322.5
240,320,70445,5,0,0:0:0:0:
128,320,71102,1,0,0:0:0:0:
128,192,71570,6,0,B|144:256|152:256|176:256,1,90
256,264,72508,1,0,0:0:0:0:
288,264,73039,6,0,B|288:176|288:176|248:144|248:144|280:176|280:176|344:144,1,255
424,152,74945,1,0,0:0:0:0:
432,232,75602,1,0,0:0:0:0:
384,304,76258,5,0,0:0:0:0:
256,192,76820,12,0,82383,0:0:0:0:
