osu file format v14

[General]
AudioFilename: blumenkranz_cover_finalmix_because_oko_likes_futa.mp3
AudioLeadIn: 0
PreviewTime: 120294
Countdown: 0
SampleSet: Soft
StackLeniency: 0.7
Mode: 0
LetterboxInBreaks: 0
WidescreenStoryboard: 1

[Editor]
Bookmarks: 48388,84388,96388,120388,132388,144388,168388,180388,204388,228388
DistanceSpacing: 1.5
BeatDivisor: 4
GridSize: 4
TimelineZoom: 1.5

[Metadata]
Title:Blumenkranz
TitleUnicode:Blumenkranz
Artist:Paperblossom
ArtistUnicode:Paperblossom
Creator:Okorin
Version:Zao's Hard
Source:キルラキル
Tags:sachcell cover cyua hiroyuki sawano KLK Kill la Kill Mao Zetera Zao Okoratu
BeatmapID:1031053
BeatmapSetID:365319

[Difficulty]
HPDrainRate:6
CircleSize:4.2
OverallDifficulty:6
ApproachRate:7
SliderMultiplier:1.4
SliderTickRate:1

[Events]
//Background and Video events
0,0,"okdad.jpg",0,0
//Break Periods
2,24400,34363
2,96588,101488
2,168388,179488
//Storyboard Layer 0 (Background)
//Storyboard Layer 1 (Fail)
//Storyboard Layer 2 (Pass)
//Storyboard Layer 3 (Foreground)
//Storyboard Sound Samples

[TimingPoints]
388,375,4,2,1,40,1,0
388,-133.333333333333,4,2,1,40,0,0
1513,-133.333333333333,4,2,1,30,0,0
1888,-133.333333333333,4,2,1,40,0,0
3200,-133.333333333333,4,2,1,30,0,0
3388,-133.333333333333,4,2,1,40,0,0
4513,-133.333333333333,4,2,1,30,0,0
4888,-133.333333333333,4,2,1,40,0,0
5263,-133.333333333333,4,2,1,30,0,0
5638,-133.333333333333,4,2,1,40,0,0
6200,-133.333333333333,4,2,1,30,0,0
6388,-133.333333333333,4,2,1,40,0,0
7513,-133.333333333333,4,2,1,35,0,0
7888,-133.333333333333,4,2,1,40,0,0
9200,-133.333333333333,4,2,1,35,0,0
9388,-133.333333333333,4,2,1,40,0,0
10513,-133.333333333333,4,2,1,30,0,0
10888,-133.333333333333,4,2,1,40,0,0
11263,-133.333333333333,4,2,1,30,0,0
11638,-133.333333333333,4,2,1,40,0,0
12013,-111.111111111111,4,2,1,40,0,0
12388,-100,4,2,1,60,0,0
24388,-133.333333333333,4,2,1,40,0,0
25513,-133.333333333333,4,2,1,20,0,0
25888,-133.333333333333,4,2,1,40,0,0
27200,-133.333333333333,4,2,1,25,0,0
27388,-133.333333333333,4,2,1,40,0,0
28513,-133.333333333333,4,2,1,20,0,0
28888,-133.333333333333,4,2,1,40,0,0
29263,-133.333333333333,4,2,1,25,0,0
29450,-133.333333333333,4,2,1,40,0,0
30200,-133.333333333333,4,2,1,25,0,0
30388,-133.333333333333,4,2,1,40,0,0
31513,-133.333333333333,4,2,1,20,0,0
31888,-133.333333333333,4,2,1,40,0,0
33200,-133.333333333333,4,2,1,25,0,0
33388,-133.333333333333,4,2,1,40,0,0
34513,-133.333333333333,4,2,1,20,0,0
34888,-133.333333333333,4,2,1,40,0,0
35263,-133.333333333333,4,2,1,25,0,0
35638,-133.333333333333,4,2,1,40,0,0
36388,-125,4,2,1,60,0,0
48388,-166.666666666667,4,2,1,35,0,0
60388,-125,4,2,1,35,0,0
72388,-100,4,2,1,75,0,1
84200,-100,4,2,1,75,0,0
84388,-100,4,2,1,75,0,1
96388,-166.666666666667,4,2,1,30,0,0
108388,-125,4,2,1,60,0,0
120388,-100,4,2,1,75,0,1
131638,-125,4,2,1,55,0,0
132388,-100,4,2,1,75,0,1
144388,-133.333333333333,4,2,1,40,0,0
156388,-111.111111111111,4,2,1,30,0,0
168388,-111.111111111111,4,2,1,40,0,0
174669,-111.111111111111,4,2,1,20,0,0
175138,-111.111111111111,4,2,1,40,0,0
175419,-111.111111111111,4,2,1,20,0,0
175888,-111.111111111111,4,2,1,40,0,0
176169,-111.111111111111,4,2,1,20,0,0
176638,-111.111111111111,4,2,1,40,0,0
180388,-166.666666666667,4,2,1,50,0,0
183388,-166.666666666667,4,2,1,40,0,0
183763,-166.666666666667,4,2,1,50,0,0
192388,-100,4,2,1,60,0,0
216388,-100,4,2,1,75,0,1
228200,-100,4,2,1,75,0,0
228388,-90.9090909090909,4,2,1,75,0,1
240388,-133.333333333333,4,2,1,40,0,0
241513,-133.333333333333,4,2,1,20,0,0
241888,-133.333333333333,4,2,1,40,0,0
242263,-133.333333333333,4,2,1,35,0,0
242638,-133.333333333333,4,2,1,40,0,0
243388,-133.333333333333,4,2,1,35,0,0
243950,-133.333333333333,4,2,1,40,0,0
244513,-133.333333333333,4,2,1,20,0,0
244888,-133.333333333333,4,2,1,40,0,0
245263,-133.333333333333,4,2,1,25,0,0
245450,-133.333333333333,4,2,1,30,0,0
245638,-133.333333333333,4,2,1,40,0,0
246200,-133.333333333333,4,2,1,25,0,0
246388,-200,4,2,1,20,0,0
247138,-200,4,2,1,25,0,0
248638,-200,4,2,1,20,0,0
249013,-200,4,2,1,25,0,0
249388,-200,4,2,1,20,0,0
250138,-200,4,2,1,25,0,0
251638,-200,4,2,1,20,0,0
252013,-200,4,2,1,15,0,0

[Colours]
Combo1 : 254,118,101
Combo2 : 133,123,166
Combo3 : 215,215,215
Combo4 : 254,198,113
Combo5 : 254,254,131
Combo6 : 205,249,245
Combo7 : 150,197,252
Combo8 : 226,136,67

[HitObjects]
63,216,388,6,2,B|72:158|43:106|43:106,1,105.000004005432,0|0,0:0|3:0,0:0:0:0:
147,21,1138,2,0,L|158:92,1,52.5000020027161,0|0,0:0|0:0,0:0:0:0:
216,122,1513,1,4,0:3:0:0:
359,58,1888,6,2,B|356:131|380:175|380:175,1,105.000004005432,0|0,0:0|3:0,0:0:0:0:
421,225,2450,1,0,0:0:0:0:
482,175,2638,2,0,B|476:188|500:144|497:75|497:75,1,105.000004005432,0|0,3:0|0:0,0:0:0:0:
444,321,3388,102,2,L|333:305,1,105.000004005432,0|0,3:0|0:0,0:0:0:0:
186,343,4138,2,0,L|175:280,1,52.5000020027161,0|0,0:0|0:0,0:0:0:0:
115,241,4513,1,4,0:3:0:0:
27,110,4888,6,2,B|86:125|129:90|129:90,1,105.000004005432,0|4,0:0|0:3,0:0:0:0:
171,21,5450,1,0,0:0:0:0:
212,94,5638,2,0,B|209:146|224:207|224:207,1,105.000004005432,0|0,3:3|0:0,0:0:0:0:
370,28,6388,102,2,B|367:96|351:134|351:134,1,105.000004005432,0|0,3:0|3:0,0:0:0:0:
489,207,7138,2,0,L|477:266,1,52.5000020027161,0|0,0:0|0:0,0:0:0:0:
414,304,7513,1,4,0:3:0:0:
264,354,7888,6,2,B|235:312|242:250|242:250,1,105.000004005432,0|0,0:0|3:2,0:0:0:0:
280,184,8450,1,0,0:0:0:0:
280,184,8638,2,0,L|402:174,1,105.000004005432,0|0,3:0|0:0,0:0:0:0:
160,316,9388,102,2,B|122:294|57:291|57:291,1,105.000004005432,0|0,3:0|3:0,0:0:0:0:
25,177,10138,2,0,B|58:181|82:172|82:172,1,52.5000020027161,0|0,0:0|0:0,0:0:0:0:
127,109,10513,1,4,0:3:0:0:
257,21,10888,6,2,L|272:133,1,105.000004005432,0|4,0:0|3:0,0:0:0:0:
325,182,11450,1,0,0:0:0:0:
325,182,11638,2,0,B|391:198|433:183|433:183,1,105.000004005432,0|0,3:0|0:0,0:0:0:0:
485,108,12200,5,2,0:0:0:0:
485,108,12388,2,2,B|497:60|493:23|493:23,1,70,0|0,1:0|0:0,0:0:0:0:
395,0,12763,2,0,B|395:-15|391:21|403:69,1,70,0|0,1:0|0:0,0:0:0:0:
296,67,13138,2,0,B|222:46|152:60|152:60,1,140,2|0,1:3|0:0,0:0:0:0:
55,35,13700,1,2,1:3:0:0:
51,41,13888,6,2,B|35:83|33:121|33:121,1,70,0|0,1:0|0:0,0:0:0:0:
0,208,14263,2,0,B|18:249|20:281|20:281,1,70,0|0,1:0|1:0,0:0:0:0:
101,341,14638,2,0,B|106:257|158:191|158:191,1,140,2|0,1:3|0:0,0:0:0:0:
226,143,15200,1,0,0:0:0:0:
226,143,15388,6,2,L|315:155,1,70,0|0,1:0|0:0,0:0:0:0:
357,237,15763,2,0,B|392:212|414:178|414:178,1,70,0|0,1:0|0:0,0:0:0:0:
506,153,16138,2,0,B|486:66|394:64|394:64,1,140,2|0,1:3|0:0,0:0:0:0:
308,30,16700,1,2,1:3:0:0:
303,37,16888,6,2,L|208:41,1,70,0|0,1:0|0:0,0:0:0:0:
128,28,17263,2,0,B|132:85|116:137|116:137,1,105,0|0,1:0|0:0,0:0:0:0:
114,139,17638,2,0,L|30:145,1,70,2|0,1:3|0:0,0:0:0:0:
7,242,18013,2,0,L|15:296,3,35,0|0|0|0,0:0|0:0|0:0|0:0,0:0:0:0:
40,302,18388,70,2,B|54:341|52:372|52:372,1,70,4|0,1:3|0:0,0:0:0:0:
133,286,18763,2,0,B|133:287|131:256|144:215|144:215,1,70,4|0,1:3|0:0,0:0:0:0:
211,330,19138,2,0,B|275:363|366:329|366:329,1,140,2|0,1:3|0:0,0:0:0:0:
450,356,19700,1,2,1:3:0:0:
457,364,19888,6,2,L|462:285,1,70,0|0,1:0|0:0,0:0:0:0:
368,245,20263,2,0,L|364:165,1,70,0|0,1:0|1:0,0:0:0:0:
469,183,20638,2,0,B|506:120|501:44|501:44,1,140,2|0,1:3|0:0,0:0:0:0:
400,18,21200,1,0,0:0:0:0:
393,24,21388,6,2,B|376:73|381:94|381:94,1,70,0|0,1:0|0:0,0:0:0:0:
292,167,21763,2,0,B|294:135|281:96|281:96,1,70,0|2,1:0|1:3,0:0:0:0:
195,37,22138,2,0,L|28:25,1,140,2|0,1:3|0:0,0:0:0:0:
13,123,22700,1,2,1:3:0:0:
13,123,22888,6,0,B|15:171|9:201|9:201,1,70,0|0,0:0|0:0,0:0:0:0:
31,295,23263,2,0,B|88:294|159:336|159:336,1,105,0|0,1:0|0:0,0:0:0:0:
136,327,23638,2,0,B|192:317|219:319,1,70,2|0,1:3|0:0,0:0:0:0:
254,223,24013,2,0,L|265:178,2,35,0|0|2,1:0|0:0|1:3,0:0:0:0:
45,352,35263,5,4,0:3:0:0:
29,262,35638,1,0,3:0:0:0:
104,197,36013,1,2,0:0:0:0:
113,294,36388,6,0,L|248:276,2,112,2|0|2,1:2|1:0|1:2,0:0:0:0:
104,301,37513,2,0,B|93:256|95:228|95:228,1,56,0|0,0:0|1:0,0:0:0:0:
12,208,37888,2,0,B|12:151|24:106|24:106,1,84,2|0,1:2|0:0,0:0:0:0:
11,105,38263,2,0,L|93:94,1,56,0|0,1:0|1:0,0:0:0:0:
157,29,38638,1,2,1:2:0:0:
355,60,39013,1,0,0:0:0:0:
157,29,39388,6,0,L|24:43,2,112,2|0|2,1:2|1:2|1:2,0:0:0:0:
161,39,40513,2,0,B|152:85|163:114|163:114,1,56,0|0,0:0|1:0,0:0:0:0:
248,150,40888,2,0,B|263:99|253:49|253:49,1,84,2|0,1:2|0:0,0:0:0:0:
241,42,41263,2,0,L|322:30,1,56,2|0,1:2|1:0,0:0:0:0:
401,65,41638,1,2,1:2:0:0:
485,226,42013,1,0,1:2:0:0:
396,73,42388,6,0,B|372:177|376:202|376:202,2,112,2|0|2,1:2|1:0|1:2,0:0:0:0:
401,65,43513,2,0,L|476:62,1,56,0|0,0:0|1:0,0:0:0:0:
318,29,43888,2,0,L|216:24,1,84,2|0,1:2|0:0,0:0:0:0:
206,34,44263,2,0,B|195:84|203:108|203:108,1,56,0|0,1:0|1:0,0:0:0:0:
245,179,44638,1,2,1:2:0:0:
145,331,45013,2,0,B|152:328|90:357|44:313|44:313,1,84
46,315,45388,6,0,L|38:238,1,56,2|0,1:2|0:0,0:0:0:0:
15,167,45763,1,0,1:0:0:0:
83,84,45950,1,0,1:0:0:0:
83,84,46138,2,0,B|154:101|212:74|212:74,1,112,2|0,1:2|0:0,0:0:0:0:
274,16,46700,1,0,1:0:0:0:
274,16,46888,70,0,B|335:30|348:31,1,56
445,60,47263,2,0,B|428:108|423:165|423:165,1,84,0|0,1:0|0:0,0:0:0:0:
435,168,47638,2,0,L|436:240,1,56,2|0,1:2|0:0,0:0:0:0:
399,317,48013,1,0,1:0:0:0:
399,317,48200,1,0,1:0:0:0:
304,286,48388,102,0,B|256:274|221:306|221:306,1,83.9999974365235,0|0,1:0|0:0,0:0:0:0:
163,348,48950,1,0,0:0:0:0:
86,324,49138,2,0,B|47:354|-1:334|-1:334,1,83.9999974365235,2|0,1:2|0:0,0:0:0:0:
37,263,49700,1,0,0:0:0:0:
98,211,49888,38,0,L|191:239,1,83.9999974365235,0|0,1:0|0:0,0:0:0:0:
250,200,50450,1,0,0:0:0:0:
295,265,50638,2,0,L|388:293,1,83.9999974365235,0|2,1:3|0:0,0:0:0:0:
420,355,51200,1,0,0:0:0:0:
458,284,51388,6,0,B|483:243|472:188|472:188,1,83.9999974365235,0|0,1:0|0:0,0:0:0:0:
434,136,51950,1,0,0:0:0:0:
354,130,52138,2,0,L|265:154,1,83.9999974365235,2|0,1:2|0:0,0:0:0:0:
219,211,52700,1,0,0:0:0:0:
146,176,52888,53,0,1:0:0:0:
146,176,53263,2,0,L|150:133,1,41.9999987182618,0|0,0:0|0:0,0:0:0:0:
77,100,53638,2,0,L|66:191,1,83.9999974365235,0|0,1:0|0:0,0:0:0:0:
113,248,54200,1,0,0:0:0:0:
44,289,54388,38,0,B|69:337|121:331|121:331,1,83.9999974365235,0|0,1:0|0:0,0:0:0:0:
181,291,54950,1,0,0:0:0:0:
259,274,55138,2,0,B|249:274|301:268|326:316,1,83.9999974365235,2|0,1:2|0:0,0:0:0:0:
391,359,55700,1,0,0:0:0:0:
445,300,55888,6,0,L|472:209,1,83.9999974365235,0|0,1:0|0:0,0:0:0:0:
414,161,56450,1,0,0:0:0:0:
355,106,56638,2,0,L|379:26,1,83.9999974365235,0|2,1:0|0:0,0:0:0:0:
379,25,57388,54,0,L|297:44,1,83.9999974365235,0|0,1:0|0:0,0:0:0:0:
220,23,57950,1,0,0:0:0:0:
161,77,58138,2,0,B|139:120|157:169|157:169,1,83.9999974365235,2|2,1:2|0:2,0:0:0:0:
203,223,58700,1,0,0:0:0:0:
282,227,58888,38,0,L|363:207,1,83.9999974365235,0|0,1:0|0:0,0:0:0:0:
428,254,59450,1,0,0:0:0:0:
384,320,59638,2,0,B|366:332|346:338|346:338,1,41.9999987182618,2|0,1:2|0:0,0:0:0:0:
269,316,60013,2,0,B|249:322|231:333|231:333,1,41.9999987182618,0|0,0:0|0:0,0:0:0:0:
139,360,60388,86,0,B|71:349|67:274|67:274|67:274,1,112,0|0,1:0|0:0,0:0:0:0:
143,227,60950,1,0,0:0:0:0:
55,188,61138,2,0,L|73:127,1,56,0|0,1:0|0:0,0:0:0:0:
160,102,61513,2,0,L|178:41,1,56,0|0,1:0|0:0,0:0:0:0:
269,27,61888,6,0,B|242:94|288:131|288:131,1,112,0|0,1:0|1:0,0:0:0:0:
371,174,62450,1,0,0:0:0:0:
371,174,62638,2,0,L|487:142,1,112,0|0,1:0|1:0,0:0:0:0:
508,235,63200,1,0,1:0:0:0:
444,306,63388,6,0,B|419:328|386:320|386:320,1,56,0|0,1:0|0:0,0:0:0:0:
320,257,63763,2,0,B|295:235|262:243|262:243,1,56,0|0,1:0|0:0,0:0:0:0:
176,269,64138,2,0,B|180:350|104:344|104:344,1,112,0|0,1:0|1:0,0:0:0:0:
39,281,64700,1,0,1:0:0:0:
97,205,64888,5,0,1:0:0:0:
97,205,65075,1,0,0:0:0:0:
23,143,65263,1,0,1:0:0:0:
23,143,65450,1,0,1:0:0:0:
110,105,65638,2,0,B|149:144|232:118|232:49,1,168,0|0,1:0|1:0,0:0:0:0:
316,5,66388,70,0,L|294:122,1,112,0|0,1:0|0:0,0:0:0:0:
335,201,66950,1,0,0:0:0:0:
393,125,67138,2,0,B|448:77|504:111|504:111,1,112,0|0,1:0|1:0,0:0:0:0:
460,195,67700,1,0,0:0:0:0:
467,290,67888,2,0,L|484:352,2,56,0|0|0,1:0|0:0|0:0,0:0:0:0:
379,251,68450,1,0,1:0:0:0:
284,263,68638,2,0,B|296:337|231:356|231:356,1,112,0|0,1:0|1:0,0:0:0:0:
190,270,69200,1,0,1:0:0:0:
112,214,69388,102,0,B|34:223|34:302|34:302,3,112,0|0|0|0,1:0|0:0|0:0|0:0,0:0:0:0:
39,374,70700,1,0,1:0:0:0:
485,130,72200,1,0,0:0:0:0:
485,130,72388,70,0,B|412:152|350:111|350:111,1,140,4|0,1:2|0:0,0:0:0:0:
277,26,72950,1,0,0:0:0:0:
232,129,73138,2,0,L|257:204,1,70,2|0,1:3|0:0,0:0:0:0:
149,235,73513,2,0,L|124:310,1,70,0|0,1:0|1:0,0:0:0:0:
64,160,73888,6,0,B|73:88|17:33|17:33,1,140,0|0,1:0|1:0,0:0:0:0:
125,5,74450,1,0,0:0:0:0:
198,89,74638,2,0,L|335:57,1,140,2|0,1:3|1:0,0:0:0:0:
427,118,75200,1,0,1:0:0:0:
329,173,75388,70,0,B|314:206|310:247|310:247,1,70,0|0,1:0|0:0,0:0:0:0:
422,246,75763,2,0,B|437:279|441:320|441:320,1,70,0|0,1:0|0:0,0:0:0:0:
333,349,76138,2,0,L|194:329,1,140,2|0,1:3|0:0,0:0:0:0:
91,371,76700,1,0,1:3:0:0:
102,259,76888,6,0,L|75:190,1,70,0|0,1:0|0:0,0:0:0:0:
102,84,77263,1,0,1:0:0:0:
189,153,77450,1,0,1:0:0:0:
214,43,77638,1,2,1:3:0:0:
214,43,78013,1,0,0:0:0:0:
214,43,78388,6,0,L|291:49,2,70,0|0|0,1:0|0:0|1:0,0:0:0:0:
457,123,79138,2,0,L|380:129,2,70,2|0|0,1:3|0:0|1:0,0:0:0:0:
508,222,79700,1,0,0:0:0:0:
405,267,79888,6,0,B|370:245|325:242|325:242,1,70,0|0,1:0|0:0,0:0:0:0:
300,349,80263,2,0,B|265:371|220:374|220:374,1,70,0|0,1:0|1:0,0:0:0:0:
229,264,80638,2,0,B|144:233|91:284|91:284,1,140,2|0,1:3|1:0,0:0:0:0:
26,367,81200,1,0,1:0:0:0:
7,210,81388,70,0,L|37:69,1,140,4|0,1:3|0:0,0:0:0:0:
137,25,81950,1,0,0:0:0:0:
134,137,82138,1,2,1:3:0:0:
134,137,82513,2,0,B|204:113|278:164|278:164,1,140,0|2,1:0|1:3,0:0:0:0:
339,244,83075,5,0,1:0:0:0:
339,244,83263,2,0,L|330:325,1,70,2|0,1:3|1:0,0:0:0:0:
434,268,83638,2,0,L|449:128,1,140,2|0,1:3|1:0,0:0:0:0:
397,29,84200,1,0,0:0:0:0:
306,102,84388,6,0,B|261:93|225:65|225:65,1,70,4|0,1:2|0:0,0:0:0:0:
147,13,84763,2,0,B|109:37|77:42|77:42,1,70,0|0,0:0|0:0,0:0:0:0:
20,133,85138,2,0,L|27:276,1,140,2|2,1:3|1:2,0:0:0:0:
110,348,85700,1,2,1:2:0:0:
215,309,85888,6,0,B|285:276|350:329|350:329,1,140,0|0,1:0|1:0,0:0:0:0:
448,345,86450,1,0,0:0:0:0:
495,243,86638,2,0,L|503:101,1,140,2|0,1:3|0:0,0:0:0:0:
432,17,87200,1,0,0:0:0:0:
432,17,87388,70,0,B|425:59|429:101|429:101,1,70,4|0,1:3|0:0,0:0:0:0:
348,148,87763,2,0,B|341:106|345:64|345:64,1,70,4|0,1:3|0:0,0:0:0:0:
258,21,88138,2,0,B|178:-1|108:16|108:16,1,140,2|0,1:3|0:0,0:0:0:0:
33,109,88700,1,0,1:0:0:0:
33,109,88888,6,0,B|73:120|123:111|123:111,1,70,0|0,1:0|0:0,0:0:0:0:
170,204,89263,2,0,B|105:202|60:215|60:215,1,105,0|0,1:0|0:0,0:0:0:0:
48,207,89638,2,0,B|40:249|44:283|44:283,1,70,2|0,1:2|0:0,0:0:0:0:
147,319,90013,2,0,L|157:374,2,35,0|0|0,1:0|0:0|0:0,0:0:0:0:
259,321,90388,6,0,B|316:332|341:327|341:327,1,70,4|0,1:3|0:0,0:0:0:0:
400,370,90763,2,0,B|429:320|433:294|433:294,1,70,4|0,1:3|0:0,0:0:0:0:
505,261,91138,2,0,B|468:215|446:203|446:203,1,70,2|0,1:3|0:0,0:0:0:0:
403,126,91513,6,0,B|352:154|336:174|336:174,1,70,0|0,0:0|1:0,0:0:0:0:
263,179,91888,2,0,B|272:236|285:258|285:258,1,70,0|0,1:0|0:0,0:0:0:0:
253,330,92263,2,0,B|310:341|335:336|335:336,1,70,0|0,1:0|0:0,0:0:0:0:
374,253,92638,1,2,1:3:0:0:
152,329,93013,2,0,L|157:363,2,35,0|0|0,0:0|0:0|1:0,0:0:0:0:
65,336,93388,70,0,B|65:277|55:245|55:245,1,70,0|0,1:0|0:0,0:0:0:0:
3,206,93763,1,0,0:0:0:0:
226,215,94138,6,0,B|238:166|236:129|236:129,1,70,2|0,1:3|0:0,0:0:0:0:
189,80,94513,1,0,0:0:0:0:
374,253,94888,6,0,B|441:260|493:219|493:219,1,105,0|0,1:0|0:0,0:0:0:0:
494,237,95263,2,0,L|506:155,1,70,0|0,1:0|0:0,0:0:0:0:
401,152,95638,2,0,L|393:63,1,70,2|0,1:3|0:0,0:0:0:0:
442,10,96013,1,0,0:0:0:0:
442,10,96106,1,0,0:0:0:0:
442,10,96200,1,0,0:0:0:0:
481,88,96388,21,2,1:2:0:0:
248,339,102388,6,0,B|171:315|72:328|72:328,2,167.999994873047,2|2|2,1:2|1:2|1:2,0:0:0:0:
343,304,104263,1,2,1:2:0:0:
433,348,104638,2,0,B|438:300|460:250|460:250,1,83.9999974365235,2|0,1:2|0:0,0:0:0:0:
492,173,105388,101,2,1:2:0:0:
395,202,105763,1,0,1:0:0:0:
315,140,106138,2,0,B|307:91|313:56|313:56,1,83.9999974365235,2|0,1:2|0:0,0:0:0:0:
223,103,106888,5,0,1:0:0:0:
127,70,107263,1,2,1:2:0:0:
39,119,107638,2,0,L|48:219,1,83.9999974365235,2|0,1:2|0:0,0:0:0:0:
133,305,108388,6,0,B|151:246|139:176|139:176,2,112,0|0|2,1:0|1:0|1:3,0:0:0:0:
68,349,109325,2,0,L|1:353,1,56,0|0,0:0|0:0,0:0:0:0:
233,297,109888,2,0,L|363:309,1,112,0|0,1:0|1:0,0:0:0:0:
413,344,110450,1,0,1:0:0:0:
478,300,110638,1,0,1:0:0:0:
450,145,111013,2,0,L|435:210,1,56,0|0,3:3|3:3,0:0:0:0:
362,176,111388,6,0,B|336:116|343:52|343:52,1,112,0|0,1:0|1:0,0:0:0:0:
280,19,111950,1,0,0:0:0:0:
232,81,112138,2,0,B|231:137|203:203|203:203,1,112,2|0,1:3|3:3,0:0:0:0:
148,240,112700,1,2,1:3:0:0:
148,240,112888,6,0,L|72:245,1,56,0|0,0:0|0:0,0:0:0:0:
8,185,113263,2,0,L|126:154,2,112,0|2|0,1:0|1:3|3:0,0:0:0:0:
71,41,114388,6,0,B|187:81|296:20|296:20,1,224,4|2,1:3|1:3,0:0:0:0:
357,62,115325,2,0,B|360:101|356:134|356:134,1,56,0|0,0:0|3:0,0:0:0:0:
464,232,115888,2,0,B|455:164|491:117|491:117,1,112,0|4,1:0|1:3,0:0:0:0:
435,63,116450,1,0,0:0:0:0:
357,62,116638,1,2,1:3:0:0:
237,163,117013,2,0,L|316:158,1,56,0|0,1:0|0:0,0:0:0:0:
356,205,117388,70,0,B|361:267|344:326|344:326,1,112,4|0,1:3|1:0,0:0:0:0:
278,356,117950,1,2,1:3:0:0:
199,353,118138,2,0,B|181:289|184:236|184:236,1,112,2|0,1:3|1:0,0:0:0:0:
128,186,118700,1,2,1:3:0:0:
128,186,118888,6,0,L|50:192,1,56,0|0,0:0|0:0,0:0:0:0:
196,124,119263,2,0,L|270:116,1,56,4|0,1:3|1:0,0:0:0:0:
482,352,120388,38,0,B|417:298|342:315|342:315,1,140,4|0,1:2|1:0,0:0:0:0:
252,365,120950,1,0,0:0:0:0:
186,274,121138,2,0,L|112:283,1,70,2|0,1:3|0:0,0:0:0:0:
134,171,121513,2,0,L|64:162,1,70,0|0,0:0|1:0,0:0:0:0:
196,67,121888,6,0,B|242:138|318:116|318:116,1,140,0|0,1:0|1:0,0:0:0:0:
398,38,122450,1,0,0:0:0:0:
474,120,122638,2,0,L|441:269,1,140,2|0,1:3|0:0,0:0:0:0:
419,365,123200,1,0,0:0:0:0:
323,305,123388,70,0,B|295:334|249:323|249:323,1,70,0|0,1:0|0:0,0:0:0:0:
232,215,123763,2,0,B|193:226|158:193|158:193,1,70,0|0,1:0|0:0,0:0:0:0:
221,101,124138,2,0,L|296:87,1,70,2|0,1:3|0:0,0:0:0:0:
104,103,124513,2,0,L|35:115,1,70,0|0,0:0|1:0,0:0:0:0:
13,226,124888,6,0,B|9:261|9:261|24:292,1,70,0|0,1:0|0:0,0:0:0:0:
106,368,125263,2,0,B|121:336|121:336|117:301,1,70,0|0,1:0|0:0,0:0:0:0:
166,199,125638,2,0,B|181:286|255:305|255:305,1,140,2|2,1:3|1:2,0:0:0:0:
352,348,126200,1,2,0:2:0:0:
440,278,126388,6,0,L|464:131,1,140,0|0,1:0|1:0,0:0:0:0:
392,53,126950,1,0,0:0:0:0:
319,138,127138,2,0,L|326:214,1,70,2|0,1:3|0:0,0:0:0:0:
226,261,127513,2,0,L|219:185,1,70,0|0,0:0|1:0,0:0:0:0:
152,101,127888,6,0,B|71:52|23:136|23:136,1,140,0|0,1:0|1:0,0:0:0:0:
7,236,128450,1,0,0:0:0:0:
93,306,128638,2,0,L|229:259,1,140,2|0,1:3|0:0,0:0:0:0:
328,216,129200,1,0,1:0:0:0:
414,287,129388,70,0,B|402:324|426:365|426:365,1,70,0|0,1:0|0:0,0:0:0:0:
483,200,129763,2,0,B|495:163|471:122|471:122,1,70,0|0,1:0|0:0,0:0:0:0:
399,49,130138,2,0,L|329:61,1,70,2|0,1:3|0:0,0:0:0:0:
259,147,130513,2,0,L|189:159,1,70,0|0,0:0|1:0,0:0:0:0:
99,91,130888,5,0,1:0:0:0:
99,91,131075,1,0,0:0:0:0:
72,200,131263,1,0,1:0:0:0:
72,200,131450,1,0,0:0:0:0:
163,268,131638,6,0,B|154:296|154:327|154:327,1,56,2|0,1:3|0:0,0:0:0:0:
274,282,132013,2,0,B|274:251|265:223|265:223,1,56,0|0,1:0|1:0,0:0:0:0:
357,343,132388,6,0,L|509:355,1,140,4|0,1:2|1:0,0:0:0:0:
447,180,132950,1,0,0:0:0:0:
447,180,133138,2,0,B|449:230|460:256|460:256,1,70,2|0,1:3|0:0,0:0:0:0:
412,96,133513,2,0,B|367:118|348:139|348:139,1,70,0|0,0:0|1:0,0:0:0:0:
337,25,133888,69,0,1:0:0:0:
337,25,134263,1,0,1:0:0:0:
235,71,134450,1,0,0:0:0:0:
129,31,134638,2,0,B|44:25|-2:108|-2:108,1,140,2|0,1:3|0:0,0:0:0:0:
7,264,135388,6,0,B|118:252|191:369|191:369,1,210,0|0,1:0|0:0,0:0:0:0:
353,211,136138,2,0,B|275:196|217:250|217:250,1,140,2|0,1:3|0:0,0:0:0:0:
314,314,136700,1,0,1:0:0:0:
314,314,136888,6,0,L|445:331,1,105,0|0,1:0|0:0,0:0:0:0:
429,345,137263,2,0,B|444:301|445:273|445:273|444:273,1,70,0|0,1:0|0:0,0:0:0:0:
436,172,137638,1,2,1:3:0:0:
436,172,138013,2,0,L|447:122,3,35,0|0|0|0,1:0|0:0|0:0|0:0,0:0:0:0:
424,190,138388,6,0,B|338:234|289:145|289:145,1,140,0|0,1:0|1:0,0:0:0:0:
285,48,138950,1,0,0:0:0:0:
285,48,139138,2,0,L|366:41,1,70,2|0,1:3|0:0,0:0:0:0:
230,114,139513,2,0,L|137:128,1,70,0|0,0:0|0:0,0:0:0:0:
68,60,139888,69,0,1:0:0:0:
68,60,140263,2,0,B|58:101|56:146|56:146,1,70,0|0,1:0|0:0,0:0:0:0:
22,235,140638,2,0,B|92:212|166:237|166:237,1,140,2|0,1:3|0:0,0:0:0:0:
160,235,141388,6,0,L|165:313,1,70,0|0,1:0|0:0,0:0:0:0:
245,227,141763,2,0,L|237:144,1,70,2|0,1:2|0:2,0:0:0:0:
314,276,142138,2,0,B|398:302|450:221|450:221,1,140,2|0,1:3|1:0,0:0:0:0:
495,173,142700,6,0,L|505:98,1,70,0|0,0:0|1:0,0:0:0:0:
323,48,143075,1,0,0:0:0:0:
323,48,143263,2,0,L|330:133,1,70,0|0,1:0|0:0,0:0:0:0:
414,235,143638,2,0,L|413:96,1,140,2|0,1:3|1:0,0:0:0:0:
412,95,144106,1,0,0:0:0:0:
412,95,144200,1,0,0:0:0:0:
495,191,144388,22,0,B|524:255|478:296|478:296,1,105.000004005432,2|0,0:0|3:3,0:0:0:0:
422,339,144950,1,2,0:0:0:0:
356,294,145138,2,0,B|292:275|261:324|261:324,1,105.000004005432,0|2,0:0|3:2,0:0:0:0:
100,384,145888,2,0,B|54:375|11:315|20:238|54:212,1,210.000008010865,2|2,3:2|3:2,0:0:0:0:
179,269,147013,6,0,B|213:243|222:166|179:106|133:97,1,210.000008010865,0|0,0:0|3:0,0:0:0:0:
60,68,147950,1,2,0:0:0:0:
122,20,148138,2,0,L|228:33,1,105.000004005432,0|2,0:0|3:2,0:0:0:0:
424,27,148888,2,0,B|443:77|432:135|432:135,1,105.000004005432,2|0,3:2|0:0,0:0:0:0:
381,190,149450,1,0,0:0:0:0:
307,160,149638,2,0,B|288:210|299:268|299:268,1,105.000004005432,2|0,1:2|0:0,0:0:0:0:
173,360,150388,102,0,L|61:368,1,105.000004005432,2|0,0:0|0:0,0:0:0:0:
28,214,151138,2,0,L|140:206,1,105.000004005432,0|2,0:0|3:2,0:0:0:0:
211,203,151700,1,0,0:0:0:0:
283,234,151888,2,0,B|317:277|327:332|327:332,1,105.000004005432,2|0,0:0|3:3,0:0:0:0:
437,216,152638,2,0,B|436:219|446:164|480:121,1,105.000004005432,0|0,3:0|0:0,0:0:0:0:
324,49,153388,6,0,L|321:161,1,105.000004005432,2|0,0:0|0:0,0:0:0:0:
274,217,153950,2,0,B|224:228|161:195|149:145,1,157.500006008148,2|2,0:0|0:0,0:0:0:0:
23,53,154888,1,2,0:0:0:0:
9,208,155263,2,0,L|20:314,2,105.000004005432,0|0|2,0:0|1:0|0:0,0:0:0:0:
162,27,156388,102,0,L|175:154,1,125.999996154785,2|0,1:2|0:0,0:0:0:0:
241,188,156950,1,0,1:0:0:0:
287,128,157138,2,0,B|358:118|410:163|410:163,1,125.999996154785,2|0,1:2|0:0,0:0:0:0:
347,207,157700,2,0,B|404:250|409:318|409:318,1,125.999996154785,0|0,1:0|0:0,0:0:0:0:
333,306,158263,2,0,B|338:341|315:367|315:367,2,62.9999980773926,0|0|0,1:0|0:0|1:0,0:0:0:0:
153,293,159013,1,2,0:0:0:0:
153,293,159200,1,2,1:2:0:0:
100,238,159388,6,0,B|76:183|84:109|84:109,1,125.999996154785,2|0,1:2|0:0,0:0:0:0:
128,53,159950,1,0,1:0:0:0:
196,86,160138,2,0,B|194:81|218:151|207:210,1,125.999996154785,2|0,1:2|0:0,0:0:0:0:
318,361,160888,2,0,B|371:318|443:331|443:331,1,125.999996154785,2|0,1:2|1:0,0:0:0:0:
485,272,161450,1,0,0:0:0:0:
410,257,161638,2,0,B|415:260|351:223|338:156,1,125.999996154785,0|2,1:0|0:0,0:0:0:0:
420,32,162388,102,0,B|384:84|316:108|240:96|200:40,1,251.999992309571,2|2,1:2|1:2,0:0:0:0:
80,184,163513,1,0,0:0:0:0:
80,184,163700,1,0,1:0:0:0:
113,251,163888,2,0,B|138:271|170:278|170:278,1,62.9999980773926,2|0,1:2|0:0,0:0:0:0:
215,338,164263,2,0,B|246:334|274:316|274:316,1,62.9999980773926,0|0,1:0|0:0,0:0:0:0:
348,327,164638,2,0,B|384:276|385:196|385:196,1,125.999996154785,0|2,1:0|0:2,0:0:0:0:
346,142,165200,1,2,1:2:0:0:
278,175,165388,6,0,B|289:175|209:174|158:138,1,125.999996154785,2|0,1:2|0:0,0:0:0:0:
134,69,165950,1,0,1:0:0:0:
202,36,166138,2,0,B|190:35|270:36|321:72,1,125.999996154785,2|0,1:2|0:0,0:0:0:0:
357,135,166700,2,0,B|374:193|384:262|384:262,1,125.999996154785,2|0,1:2|0:0,0:0:0:0:
457,276,167263,2,0,B|444:309|438:353|438:353,2,62.9999980773926,0|0|2,1:0|1:0|0:0,0:0:0:0:
366,174,180388,101,0,3:0:0:0:
410,83,180763,1,0,3:0:0:0:
309,90,181138,2,0,L|213:79,1,83.9999974365235,2|0,3:2|0:0,0:0:0:0:
151,32,181700,1,0,0:0:0:0:
151,32,181794,1,0,0:0:0:0:
151,32,181888,6,0,B|124:86|147:133|147:133|165:170|154:199|154:199,1,167.999994873047,2|0,3:2|3:0,0:0:0:0:
92,241,182825,1,0,0:0:0:0:
92,241,183013,1,0,3:0:0:0:
247,155,183388,102,0,B|299:177|318:211|318:211,1,83.9999974365235,0|0,1:0|3:0,0:0:0:0:
419,198,184138,2,0,B|384:262|389:321|389:321,1,125.999996154785,2|0,3:2|0:0,0:0:0:0:
319,351,184888,2,0,L|237:337,1,83.9999974365235,2|0,3:2|0:0,0:0:0:0:
156,301,185450,1,0,0:0:0:0:
156,301,185638,2,0,B|144:330|145:359|145:359,1,41.9999987182618,0|0,3:0|0:0,0:0:0:0:
39,315,186013,1,0,3:0:0:0:
39,315,186106,1,0,0:0:0:0:
39,315,186200,1,0,0:0:0:0:
89,232,186388,6,0,B|89:190|75:143|75:143,1,83.9999974365235,0|0,1:0|1:0,0:0:0:0:
222,31,187138,2,0,B|204:78|202:127|202:127,1,83.9999974365235,0|0,3:0|3:0,0:0:0:0:
269,184,187700,1,0,0:0:0:0:
269,184,187794,1,0,0:0:0:0:
269,184,187888,2,0,L|356:179,1,83.9999974365235,0|0,3:0|3:0,0:0:0:0:
431,200,188450,1,0,0:0:0:0:
431,200,188638,1,0,1:0:0:0:
201,58,189388,101,0,1:0:0:0:
167,96,189575,2,0,B|165:146|178:192|178:192,1,83.9999974365235,0|0,0:0|0:0,0:0:0:0:
96,221,190138,5,0,3:0:0:0:
126,262,190325,2,0,B|169:299|207:310|207:310,1,83.9999974365235,0|0,0:0|0:0,0:0:0:0:
273,341,190888,102,0,L|279:291,1,41.9999987182618,0|0,3:0|0:0,0:0:0:0:
354,213,191263,2,0,L|348:267,1,41.9999987182618,0|0,0:0|0:0,0:0:0:0:
349,254,192388,22,0,B|401:244|444:253|444:253,1,70,4|0,1:2|0:0,0:0:0:0:
389,328,192763,2,0,B|337:338|300:330|300:330,1,70,0|0,0:0|0:0,0:0:0:0:
247,285,193138,2,0,L|234:121,1,140,2|0,1:3|0:0,0:0:0:0:
167,96,193700,6,0,B|113:76|89:76|89:76,1,70,0|0,0:3|1:0,0:0:0:0:
38,135,194075,1,0,0:0:0:0:
38,135,194263,2,0,L|33:255,1,105,0|0,1:0|0:0,0:0:0:0:
25,255,194638,2,0,B|49:280|97:284|97:284,1,70,2|0,1:3|0:0,0:0:0:0:
131,364,195013,2,0,B|162:348|180:304|180:304,1,70,0|0,0:0|1:0,0:0:0:0:
259,338,195388,5,4,1:3:0:0:
319,274,195575,2,0,B|312:267|348:299|353:333,1,70,0|0,0:0|0:0,0:0:0:0:
432,270,195950,2,0,B|428:217|445:174|479:135|479:135,1,140,2|0,0:3|0:3,0:3:0:0:
386,40,196513,2,0,B|394:74|390:114|390:114,1,70,2|0,0:3|0:3,0:3:0:0:
310,157,196888,6,0,B|301:122|305:82|305:82,1,70,0|0,1:0|0:0,0:0:0:0:
232,44,197263,2,0,L|116:31,1,105,0|0,1:0|0:0,0:0:0:0:
113,43,197638,2,0,B|104:78|107:122|107:122,1,70,2|0,1:3|0:0,0:0:0:0:
166,172,198013,1,0,1:0:0:0:
166,172,198388,69,0,1:0:0:0:
117,239,198575,2,0,L|28:231,1,70,0|0,0:0|1:0,0:0:0:0:
80,323,198950,2,0,L|220:310,1,140,0|0,0:0|0:0,0:0:0:0:
281,253,199513,2,0,B|303:288|307:324|307:324,1,70,0|2,0:0|1:3,0:0:0:0:
386,343,199888,6,0,L|475:329,1,70,0|0,1:0|0:0,0:0:0:0:
487,254,200263,2,0,L|373:243,1,105,0|0,1:0|0:0,0:0:0:0:
366,230,200638,2,0,B|338:196|333:161|333:161,1,70,2|0,1:3|0:0,0:0:0:0:
414,149,201013,2,0,B|418:105|439:76|439:76,1,70,0|0,1:0|0:0,0:0:0:0:
501,144,201388,5,0,1:0:0:0:
347,75,201763,2,0,L|264:65,1,70,0|2,0:0|1:3,0:0:0:0:
213,121,202138,2,0,L|56:139,1,140,2|0,1:3|0:0,0:0:0:0:
16,211,202700,1,2,1:3:0:0:
77,269,202888,6,0,B|82:309|78:344|78:344,1,70,0|0,1:0|0:0,0:0:0:0:
143,207,203263,2,0,B|179:253|186:280|186:280,1,70,0|0,1:0|1:0,0:0:0:0:
155,123,203638,1,2,1:3:0:0:
322,135,204013,2,0,L|376:138,3,35,0|0|0|0,0:0|0:0|0:0|0:0,0:0:0:0:
370,159,204388,70,0,B|400:145|440:142|440:142,1,70,4|0,1:2|0:0,0:0:0:0:
428,241,204763,2,0,B|459:252|489:278|489:278,1,70,0|0,0:0|0:0,0:0:0:0:
419,325,205138,2,0,B|346:309|280:340|280:340,1,140,2|0,1:3|0:0,0:0:0:0:
204,371,205700,1,0,0:0:0:0:
166,295,205888,6,0,B|172:259|170:219|170:219,1,70,0|0,1:0|0:0,0:0:0:0:
91,194,206263,2,0,B|81:144|82:85|82:85,1,105,0|0,1:0|0:0,0:0:0:0:
92,73,206638,2,0,L|168:78,1,70,2|0,1:3|0:0,0:0:0:0:
213,144,207013,2,0,L|289:149,1,70,0|0,0:0|1:0,0:0:0:0:
321,223,207388,5,0,1:0:0:0:
293,302,207575,2,0,B|292:339|308:371|308:371,1,70,0|0,0:0|1:0,0:0:0:0:
376,321,207950,2,0,B|410:254|399:183|399:183,2,140,2|2|2,0:3|0:3|0:3,0:3:0:0:
307,369,208888,6,0,L|231:362,1,70,0|0,1:0|0:0,0:0:0:0:
195,289,209263,2,0,L|119:296,1,70,0|0,1:0|0:0,0:0:0:0:
48,329,209638,2,0,L|37:218,1,105,2|0,1:3|0:0,0:0:0:0:
28,210,210013,2,0,B|51:182|90:173|90:173,1,70,0|0,1:0|0:0,0:0:0:0:
165,203,210388,69,0,1:0:0:0:
244,229,210575,2,0,B|240:229|280:224|302:192,1,70,0|0,0:0|1:0,0:0:0:0:
376,232,210950,2,0,L|387:311,2,70,0|2|0,0:0|1:3|0:0,0:0:0:0:
437,174,211513,1,0,0:0:0:0:
363,132,211700,2,0,L|372:62,1,70,0|0,1:0|1:0,0:0:0:0:
295,29,212075,5,0,0:0:0:0:
258,105,212263,2,0,B|218:143|160:136|160:136,1,105,0|0,1:0|0:0,0:0:0:0:
144,130,212638,2,0,L|114:201,1,70,2|0,1:3|0:0,0:0:0:0:
34,214,213013,2,0,L|64:285,1,70,0|0,1:0|0:0,0:0:0:0:
107,348,213388,6,0,B|187:357|225:278|225:278,1,140,0|0,1:0|0:0,0:0:0:0:
276,219,213950,1,2,1:3:0:0:
318,291,214138,2,0,B|343:314|387:323|387:323,1,70,2|0,1:3|0:0,0:0:0:0:
424,249,214513,2,0,B|453:232|475:193|475:193,1,70,2|0,1:3|1:0,0:0:0:0:
415,134,214888,2,0,B|408:100|377:67|377:67,1,70,0|0,1:0|0:0,0:0:0:0:
302,107,215263,2,0,B|268:103|227:121|227:121,1,70,0|2,1:0|1:3,0:0:0:0:
241,206,215638,2,0,B|226:236|231:281|231:281,1,70,2|0,1:3|0:0,0:0:0:0:
181,342,216013,1,0,1:0:0:0:
181,342,216200,1,0,0:0:0:0:
74,307,216388,22,0,L|53:163,1,140,4|0,1:2|0:0,0:0:0:0:
121,79,216950,1,0,0:0:0:0:
195,163,217138,2,0,L|187:237,1,70,2|0,1:3|0:0,0:0:0:0:
294,266,217513,2,0,L|302:340,1,70,0|0,1:0|1:0,0:0:0:0:
427,285,217888,6,0,B|418:213|474:158|474:158,1,140,0|0,1:0|1:0,0:0:0:0:
439,51,218450,1,0,0:0:0:0:
357,128,218638,2,0,B|326:145|284:144|284:144,1,70,2|0,1:3|0:0,0:0:0:0:
241,42,219013,2,0,B|210:25|168:26|168:26,1,70,0|0,1:0|1:0,0:0:0:0:
83,93,219388,70,0,L|68:166,1,70,0|0,1:0|0:0,0:0:0:0:
133,253,219763,2,0,L|148:326,1,70,0|0,1:0|0:0,0:0:0:0:
256,345,220138,2,0,B|306:281|384:305|384:305,1,140,2|0,1:3|0:0,0:0:0:0:
477,361,220700,1,0,1:0:0:0:
494,250,220888,6,0,B|498:172|473:112|473:112,1,140,0|0,1:0|1:0,0:0:0:0:
395,31,221450,1,0,0:0:0:0:
319,114,221638,2,0,B|317:150|331:185|331:185,1,70,2|0,1:3|0:0,0:0:0:0:
392,275,222013,2,0,B|394:311|380:346|380:346,1,70,0|0,0:0|1:0,0:0:0:0:
271,367,222388,6,0,L|197:359,2,70,0|0|0,1:0|0:0|1:0,0:0:0:0:
69,269,223138,2,0,L|143:261,2,70,2|0|0,1:3|0:0|1:0,0:0:0:0:
16,170,223700,1,0,0:0:0:0:
128,162,223888,6,0,B|159:118|151:57|151:57,1,105,0|0,1:0|0:0,0:0:0:0:
159,44,224263,2,0,L|233:53,1,70,0|0,1:0|1:0,0:0:0:0:
339,69,224638,1,2,1:3:0:0:
476,245,225013,1,0,1:0:0:0:
476,245,225200,1,0,1:0:0:0:
381,184,225388,70,0,B|299:184|281:272|281:272,1,140,4|0,1:3|0:0,0:0:0:0:
209,353,225950,1,0,0:0:0:0:
172,246,226138,2,0,L|191:104,1,140,2|0,1:3|1:0,0:0:0:0:
102,38,226700,1,0,0:0:0:0:
59,141,226888,6,0,L|49:222,1,70,2|0,1:3|1:0,0:0:0:0:
88,316,227263,1,2,1:3:0:0:
88,316,227450,1,0,1:0:0:0:
197,291,227638,2,0,B|233:288|265:316|265:316,1,70,2|0,1:3|0:0,0:0:0:0:
402,338,228013,2,0,B|366:335|334:363|334:363,1,70,0|0,1:0|0:0,0:0:0:0:
340,257,228388,6,0,L|332:102,1,154.000004699707,4|0,1:2|0:0,0:0:0:0:
245,37,228950,1,0,0:0:0:0:
173,118,229138,2,0,B|123:110|98:73|98:73,1,77.0000023498536,2|0,1:3|0:0,0:0:0:0:
48,171,229513,2,0,B|62:214|56:272|56:272,1,77.0000023498536,0|0,1:0|1:0,0:0:0:0:
227,228,229888,6,0,B|134:245|119:344|119:344,1,154.000004699707,0|0,1:0|1:0,0:0:0:0:
346,330,230450,1,0,0:0:0:0:
346,330,230544,1,0,0:0:0:0:
346,330,230638,70,0,B|295:306|262:315|262:315,1,77.0000023498536,2|0,1:3|0:0,0:0:0:0:
447,305,231013,2,0,B|432:260|402:230|402:230,1,77.0000023498536,0|0,1:0|0:0,0:0:0:0:
352,146,231388,6,0,L|512:162,1,154.000004699707,4|4,1:3|1:3,0:0:0:0:
485,55,231950,1,0,0:0:0:0:
485,55,232138,2,0,L|404:47,1,77.0000023498536,2|0,1:3|0:0,0:0:0:0:
341,152,232513,2,0,L|431:162,1,77.0000023498536,0|0,0:0|1:0,0:0:0:0:
253,92,232888,6,0,B|254:91|236:155|264:257,1,154.000004699707,0|0,1:0|1:0,0:0:0:0:
193,329,233450,1,0,1:0:0:0:
97,279,233638,2,0,B|83:220|87:190|87:190,1,77.0000023498536,2|0,1:3|0:0,0:0:0:0:
41,104,234013,2,0,B|5:149|-1:175|-1:175,1,77.0000023498536,0|0,1:0|0:0,0:0:0:0:
138,119,234388,6,0,L|133:9,1,77.0000023498536,4|0,1:3|0:0,0:0:0:0:
247,69,234763,2,0,L|350:30,1,77.0000023498536,4|0,1:3|0:0,0:0:0:0:
333,146,235138,2,0,L|401:232,1,77.0000023498536,2|0,1:3|0:0,0:0:0:0:
269,258,235513,2,0,L|208:349,1,77.0000023498536,0|0,0:0|0:0,0:0:0:0:
151,234,235888,2,0,L|44:204,1,77.0000023498536,0|0,1:0|0:0,0:0:0:0:
127,121,236263,2,0,L|122:11,1,77.0000023498536,0|0,1:0|0:0,0:0:0:0:
228,167,236638,1,2,1:3:0:0:
81,324,237013,2,0,L|39:312,2,38.5000011749268,0|0|0,0:0|0:0|1:0,0:0:0:0:
185,351,237388,70,0,B|180:294|166:265|166:265,1,77.0000023498536,0|0,1:0|0:0,0:0:0:0:
72,229,237763,1,0,0:0:0:0:
282,276,238138,6,0,B|287:219|301:190|301:190,1,77.0000023498536,2|0,1:3|0:0,0:0:0:0:
395,154,238513,1,0,0:0:0:0:
109,218,238888,6,0,B|104:161|90:132|90:132,1,77.0000023498536,0|0,1:0|0:0,0:0:0:0:
10,77,239263,1,0,1:0:0:0:
106,25,239450,1,0,0:0:0:0:
193,106,239638,2,0,B|255:117|281:132,1,77.0000023498536,2|0,1:3|0:0,0:0:0:0:
346,60,240013,2,0,L|338:19,2,38.5000011749268
469,94,240388,22,0,B|441:142|442:208|442:208,1,105.000004005432,0|0,0:0|3:3,0:0:0:0:
386,319,241138,2,0,L|378:255,1,52.5000020027161,0|0,0:0|0:0,0:0:0:0:
321,230,241513,1,4,0:3:0:0:
190,190,241888,2,0,B|168:253|191:306|191:306,1,105.000004005432,0|4,0:0|0:3,0:0:0:0:
125,336,242450,1,0,0:0:0:0:
65,294,242638,2,0,B|87:231|64:178|64:178,1,105.000004005432,0|0,3:3|0:0,0:0:0:0:
22,62,243388,6,0,B|79:50|142:74|142:74,1,105.000004005432,4|4,0:3|0:3,0:0:0:0:
242,140,244138,2,0,L|249:87,1,52.5000020027161,0|0,0:0|0:0,0:0:0:0:
305,39,244513,1,4,0:3:0:0:
413,121,244888,102,0,B|395:182|396:231|396:231,1,105.000004005432,0|4,0:0|0:3,0:0:0:0:
454,322,245450,1,4,0:3:0:0:
454,322,245638,2,0,L|335:309,1,105.000004005432,0|0,3:3|0:0,0:0:0:0:
179,253,246388,6,0,L|260:244,1,70,4|4,0:3|0:3,0:0:0:0:
94,315,247138,2,0,L|21:326,1,70,0|0,0:0|0:0,0:0:0:0:
193,273,247888,102,0,L|275:281,1,70,0|0,0:3|0:0,0:0:0:0:
94,298,248638,2,0,L|8:289,1,70,4|0,0:3|0:0,0:0:0:0:
101,118,249388,5,4,0:3:0:0:
101,118,249763,1,4,0:3:0:0:
256,192,249856,12,4,251638,0:3:0:0:
