osu file format v14

[General]
AudioFilename: blumenkranz_cover_finalmix_because_oko_likes_futa.mp3
AudioLeadIn: 0
PreviewTime: 120294
Countdown: 0
SampleSet: Soft
StackLeniency: 0.7
Mode: 0
LetterboxInBreaks: 0
WidescreenStoryboard: 1

[Editor]
Bookmarks: 12388,60388,108388,156388,164263,168388,180388,192388,204388
DistanceSpacing: 1
BeatDivisor: 2
GridSize: 8
TimelineZoom: 1

[Metadata]
Title:Blumenkranz
TitleUnicode:Blumenkranz
Artist:Paperblossom
ArtistUnicode:Paperblossom
Creator:Okorin
Version:Easy
Source:キルラキル
Tags:sachcell cover cyua hiroyuki sawano KLK Kill la Kill Mao Zetera Zao Okoratu
BeatmapID:1069488
BeatmapSetID:365319

[Difficulty]
HPDrainRate:4
CircleSize:3
OverallDifficulty:4
ApproachRate:5
SliderMultiplier:1
SliderTickRate:1

[Events]
//Background and Video events
0,0,"okdad.jpg",0,0
//Break Periods
2,24400,35008
2,96588,101008
2,168388,179008
//Storyboard Layer 0 (Background)
//Storyboard Layer 1 (Fail)
//Storyboard Layer 2 (Pass)
//Storyboard Layer 3 (Foreground)
//Storyboard Sound Samples

[TimingPoints]
388,375,4,2,1,40,1,0
1513,-100,4,2,1,20,0,0
1888,-100,4,2,1,40,0,0
3200,-100,4,2,1,20,0,0
3388,-100,4,2,1,40,0,0
4513,-100,4,2,1,20,0,0
4888,-100,4,2,1,40,0,0
5263,-100,4,2,1,20,0,0
5638,-100,4,2,1,40,0,0
6200,-100,4,2,1,30,0,0
6388,-100,4,2,1,40,0,0
7513,-100,4,2,1,25,0,0
7888,-100,4,2,1,40,0,0
9200,-100,4,2,1,25,0,0
9388,-100,4,2,1,40,0,0
10513,-100,4,2,1,20,0,0
10888,-100,4,2,1,40,0,0
11263,-100,4,2,1,20,0,0
11638,-100,4,2,1,40,0,0
12013,-100,4,2,1,40,0,0
12388,-100,4,2,1,60,0,0
24388,-100,4,2,1,40,0,0
25513,-100,4,2,1,20,0,0
25888,-100,4,2,1,40,0,0
27200,-100,4,2,1,25,0,0
27388,-100,4,2,1,40,0,0
28513,-100,4,2,1,20,0,0
28888,-100,4,2,1,40,0,0
29263,-100,4,2,1,25,0,0
29450,-100,4,2,1,40,0,0
30200,-100,4,2,1,25,0,0
30388,-100,4,2,1,40,0,0
31513,-100,4,2,1,20,0,0
31888,-100,4,2,1,40,0,0
33200,-100,4,2,1,25,0,0
33388,-100,4,2,1,40,0,0
34513,-100,4,2,1,20,0,0
34888,-100,4,2,1,40,0,0
35263,-100,4,2,1,25,0,0
35638,-100,4,2,1,40,0,0
36388,-100,4,2,1,60,0,0
48388,-100,4,2,1,35,0,0
60388,-100,4,2,1,35,0,0
72388,-100,4,2,1,75,0,1
84200,-100,4,2,1,75,0,0
84388,-100,4,2,1,75,0,1
96388,-100,4,2,1,30,0,0
108388,-100,4,2,1,60,0,0
120388,-100,4,2,1,75,0,1
131638,-100,4,2,1,55,0,0
132388,-100,4,2,1,75,0,1
144388,-100,4,2,1,40,0,0
156388,-100,4,2,1,30,0,0
168388,-100,4,2,1,40,0,0
174669,-100,4,2,1,20,0,0
175138,-100,4,2,1,40,0,0
175419,-100,4,2,1,20,0,0
175888,-100,4,2,1,40,0,0
176169,-100,4,2,1,20,0,0
176638,-100,4,2,1,40,0,0
180388,-100,4,2,1,50,0,0
183388,-100,4,2,1,40,0,0
183763,-100,4,2,1,50,0,0
192388,-100,4,2,1,60,0,0
216388,-100,4,2,1,75,0,1
228200,-100,4,2,1,75,0,0
228388,-90.9090909090909,4,2,1,75,0,1
234388,-100,4,2,1,75,0,1
237388,-100,4,2,1,75,0,1
240388,-100,4,2,1,40,0,0
241513,-100,4,2,1,20,0,0
241888,-100,4,2,1,40,0,0
242263,-100,4,2,1,35,0,0
242638,-100,4,2,1,40,0,0
243388,-100,4,2,1,35,0,0
243950,-100,4,2,1,40,0,0
244513,-100,4,2,1,20,0,0
244888,-100,4,2,1,40,0,0
245263,-100,4,2,1,25,0,0
245450,-100,4,2,1,30,0,0
245638,-100,4,2,1,40,0,0
246200,-100,4,2,1,25,0,0
246388,-100,4,2,1,20,0,0
247138,-100,4,2,1,25,0,0
248638,-100,4,2,1,20,0,0
249013,-100,4,2,1,25,0,0
249388,-100,4,2,1,20,0,0
250138,-100,4,2,1,25,0,0
251638,-100,4,2,1,20,0,0
252013,-100,4,2,1,15,0,0

[Colours]
Combo1 : 254,118,101
Combo2 : 133,123,166
Combo3 : 215,215,215
Combo4 : 254,198,113
Combo5 : 254,254,131
Combo6 : 205,249,245
Combo7 : 150,197,252
Combo8 : 226,136,67

[HitObjects]
196,109,388,6,0,B|141:148|136:269|224:299,1,200,0|0,0:0|0:0,0:0:0:0:
315,109,1888,2,0,B|370:148|375:269|287:299,1,200,0|0,0:0|3:0,0:0:0:0:
256,49,3388,5,0,3:0:0:0:
354,30,3763,1,0,0:0:0:0:
259,206,4513,1,4,0:3:0:0:
158,30,5263,1,4,0:3:0:0:
256,49,5638,1,0,3:3:0:0:
105,181,6388,102,0,B|86:252|143:318|222:308|222:308,1,200,0|0,3:0|0:0,0:0:0:0:
407,203,7888,2,0,B|426:132|369:66|290:76|290:76,1,200,0|0,0:0|3:0,0:0:0:0:
332,271,9388,5,0,3:0:0:0:
313,369,9763,1,0,3:0:0:0:
257,176,10513,1,4,0:3:0:0:
199,369,11263,1,4,3:0:0:0:
180,271,11638,1,0,3:0:0:0:
261,88,12388,6,0,B|319:96|362:93|393:91,1,100,4|4,1:3|1:3,0:0:0:0:
430,164,13138,2,0,B|420:203|425:249|445:224|448:287|430:327,2,150,2|2|0,1:3|1:3|1:0,0:0:0:0:
455,67,14638,1,2,1:3:0:0:
322,217,15388,5,4,1:3:0:0:
231,259,15763,1,4,1:3:0:0:
146,204,16138,2,0,B|107:163|24:171|-5:233,2,150,2|2|0,1:3|1:3|1:0,0:0:0:0:
145,303,17638,1,2,1:3:0:0:
256,137,18388,6,0,B|306:126|357:131|391:139,1,100,4|4,1:3|1:3,0:0:0:0:
444,178,19138,2,0,B|429:247|432:315|447:368,2,150,2|2|0,1:3|1:3|1:0,0:0:0:0:
465,79,20638,1,2,1:3:0:0:
293,181,21388,6,0,B|243:202|198:197|198:197,1,100,4|0,1:3|1:0,0:0:0:0:
103,155,22138,2,0,B|119:101|112:37|67:-2,2,150,2|2|4,1:3|1:3|1:3,0:0:0:0:
193,197,23638,2,0,B|265:213|262:147|381:190,1,150,2|2,1:3|1:3,0:0:0:0:
156,125,36388,70,0,L|162:251,2,100,2|0|2,1:2|1:0|1:2,0:0:0:0:
278,37,37700,2,0,B|360:58|340:15|441:40,1,150,0|0,1:0|1:0,0:0:0:0:
493,110,38638,1,2,1:2:0:0:
328,224,39388,6,0,B|270:237|214:212|214:212,1,100,2|0,1:2|1:2,0:0:0:0:
149,157,40138,1,2,1:2:0:0:
216,23,40700,2,0,L|388:26,1,150,0|2,1:0|1:2,0:0:0:0:
452,75,41638,2,0,B|399:95|359:146|359:146,1,100,2|0,1:2|1:2,0:0:0:0:
310,211,42388,6,0,B|270:262|216:281|216:281|217:282,2,100,2|0|2,1:2|1:0|1:2,0:0:0:0:
220,90,43700,2,0,B|170:97|126:127|98:195|98:195,1,150,0|0,1:0|1:0,0:0:0:0:
124,278,44638,1,2,1:2:0:0:
312,210,45388,6,0,B|360:194|423:209|423:209,1,100,2|0,1:2|1:0,0:0:0:0:
485,137,46138,2,0,B|445:105|440:34|487:2,2,150,2|0|0,1:2|1:0|1:0,0:0:0:0:
496,238,47638,2,0,B|489:293|422:318|379:294,1,150,2|0,1:2|1:0,0:0:0:0:
334,274,48388,54,0,B|221:244|261:335|119:303,1,200,0|2,1:0|1:2,0:0:0:0:
145,107,49888,2,0,B|258:77|218:168|360:136,1,200,0|0,1:0|1:3,0:0:0:0:
426,101,51013,1,2,0:0:0:0:
487,180,51388,38,0,B|519:261|458:337|359:301,1,200,0|2,1:0|1:2,0:0:0:0:
197,257,52888,2,0,L|207:138,1,100,0|0,1:0|0:0,0:0:0:0:
183,59,53638,2,0,B|136:70|118:47|63:63,1,100,0|0,1:0|0:0,0:0:0:0:
33,145,54388,6,0,B|3:202|22:296|125:310,1,200,0|2,1:0|1:2,0:0:0:0:
259,181,55888,2,0,B|311:158|370:175|348:199|405:217|478:174,1,200,0|0,1:0|1:0,0:0:0:0:
509,105,57013,1,2,0:0:0:0:
448,25,57388,54,0,B|401:-5|344:12|366:36|307:53|255:30,1,200,0|2,1:0|1:2,0:0:0:0:
157,23,58513,1,2,0:2:0:0:
173,121,58888,2,0,L|188:233,1,100,0|0,1:0|0:0,0:0:0:0:
86,211,59638,2,0,L|74:332,1,100,2|0,1:2|0:0,0:0:0:0:
171,339,60388,6,0,B|226:313|287:339|271:367|334:373|392:337,1,200,0|0,1:0|1:0,0:0:0:0:
423,269,61513,1,0,1:0:0:0:
369,184,61888,2,0,B|353:117|371:71|371:71,1,100,0|0,1:0|1:0,0:0:0:0:
266,84,62638,2,0,B|282:151|264:197|264:197,1,100,0|0,1:0|1:0,0:0:0:0:
168,170,63388,6,0,B|190:94|149:22|49:32,1,200,0|0,1:0|1:0,0:0:0:0:
18,115,64513,1,0,1:0:0:0:
59,206,64888,2,0,B|73:253|73:323|73:323,1,100,0|0,1:0|1:0,0:0:0:0:
154,362,65638,1,0,1:0:0:0:
252,187,66388,6,0,B|268:114|383:59|436:130|436:130,1,200,0|0,1:0|1:0,0:0:0:0:
315,287,67888,2,0,B|299:360|184:415|131:344|131:344,1,200,0|0,1:0|1:0,0:0:0:0:
83,289,69013,1,0,1:0:0:0:
124,198,69388,70,0,B|145:127|147:86|147:86,1,100,0|0,1:0|0:0,0:0:0:0:
221,35,70138,1,0,0:0:0:0:
294,103,70513,1,0,0:0:0:0:
238,281,72388,69,4,1:2:0:0:
274,187,72763,1,0,1:3:0:0:
208,111,73138,2,0,B|163:123|111:113|111:113,1,100,2|0,1:3|1:0,0:0:0:0:
156,24,73888,2,0,B|201:12|253:22|253:22,1,100,0|0,1:0|1:0,0:0:0:0:
349,57,74638,1,2,1:3:0:0:
269,117,75013,1,0,1:0:0:0:
351,299,75763,5,4,1:3:0:0:
413,220,76138,2,0,B|431:162|427:116|427:116,1,100,2|0,1:3|0:0,0:0:0:0:
350,57,76888,2,0,B|298:76|241:61|271:39|200:23|146:43,1,200,0|2,1:0|1:2,0:0:0:0:
68,88,78013,1,0,0:0:0:0:
90,185,78388,69,4,1:3:0:0:
256,295,79138,1,2,1:3:0:0:
422,185,79888,1,0,1:0:0:0:
256,75,80638,2,0,B|224:84|154:71|154:71,1,100,2|0,1:3|1:0,0:0:0:0:
156,171,81388,6,0,B|257:150|368:173|368:173,1,200,0|2,1:3|1:3,0:0:0:0:
453,188,82513,1,0,1:0:0:0:
390,265,82888,2,0,B|378:308|382:374|382:374,2,100,2|2|2,1:3|1:3|1:3,0:0:0:0:
355,170,84013,1,0,1:0:0:0:
270,223,84388,6,0,B|275:266|267:336|267:336,1,100,4|0,1:2|1:0,0:0:0:0:
183,268,85138,2,0,B|150:257|83:264|83:264,1,100,2|2,1:3|1:2,0:0:0:0:
115,168,85888,2,0,B|124:125|123:65|123:65,1,100,0|0,1:3|1:0,0:0:0:0:
207,14,86638,1,2,1:3:0:0:
217,113,87013,1,0,0:0:0:0:
403,39,87763,5,4,1:3:0:0:
386,137,88138,2,0,B|381:178|384:237|384:237,1,100,2|0,1:3|0:0,0:0:0:0:
325,317,88888,2,0,B|287:253|188:259|146:309,1,200,0|2,1:0|1:2,0:0:0:0:
61,351,90013,1,0,1:0:0:0:
61,251,90388,69,4,1:3:0:0:
39,153,90763,2,0,B|98:159|158:148|158:148,1,100,4|2,1:3|1:3,0:0:0:0:
217,89,91513,2,0,B|283:82|337:93|337:93,1,100,0|0,0:0|1:0,0:0:0:0:
362,179,92263,1,0,1:0:0:0:
309,264,92638,2,0,B|243:271|189:260|189:260,1,100,2|0,1:3|0:0,0:0:0:0:
111,241,93388,6,0,B|133:184|119:138|89:155|64:90|107:23,1,200,0|2,1:0|1:3,0:0:0:0:
261,159,94888,2,0,B|247:252|244:381|244:381,1,200,0|2,1:0|1:3,0:0:0:0:
344,351,96013,2,0,B|349:289|350:247|350:247,1,100,0|0,0:0|1:0,0:0:0:0:
257,49,102388,37,2,1:2:0:0:
256,248,103138,1,2,1:2:0:0:
105,116,103888,1,2,1:2:0:0:
122,214,104263,1,2,1:2:0:0:
139,312,104638,1,2,1:2:0:0:
254,148,105388,6,0,B|310:141|376:156|376:156,1,100,2|0,1:2|1:0,0:0:0:0:
359,251,106138,2,0,B|351:313|360:368|360:368,1,100,2|0,1:2|0:0,0:0:0:0:
457,349,106888,2,0,B|465:287|456:232|456:232,1,100,0|2,1:0|1:2,0:0:0:0:
443,150,107638,1,2,1:2:0:0:
258,226,108388,6,0,B|202:232|185:223|136:204,1,100,0|0,1:0|1:0,0:0:0:0:
73,163,109138,2,0,B|84:96|83:37|77:4,2,150,2|2|0,1:3|1:3|1:0,0:0:0:0:
56,261,110638,1,0,1:0:0:0:
209,133,111388,6,0,B|272:117|333:132|333:132,1,100,0|0,1:0|1:0,0:0:0:0:
404,154,112138,2,0,L|410:334,1,150,2|2,1:3|1:3,0:0:0:0:
381,345,112888,2,0,B|362:320|312:303|283:313,1,100,0|0,1:0|1:0,0:0:0:0:
193,333,113638,1,2,1:3:0:0:
293,160,114388,6,0,B|298:117|304:85|271:38,1,100,4|0,1:3|1:3,0:0:0:0:
199,113,115138,2,0,B|203:178|193:278|193:278,2,150,2|2|4,1:3|1:3|1:3,0:0:0:0:
140,31,116638,1,2,1:3:0:0:
88,224,117388,6,0,B|96:272|93:343|93:343,1,100,4|0,1:3|1:0,0:0:0:0:
180,274,118138,2,0,B|166:195|204:104|204:104,2,150,2|2|4,1:3|1:3|1:3,0:0:0:0:
418,92,120388,5,4,1:2:0:0:
321,119,120763,1,0,1:0:0:0:
235,67,121138,2,0,B|176:22|83:55|60:123,1,200,2|0,1:3|1:0,0:0:0:0:
126,190,122263,1,0,1:0:0:0:
73,274,122638,1,2,1:3:0:0:
266,223,123388,6,0,B|272:281|265:331|265:331,1,100,0|0,1:0|1:0,0:0:0:0:
181,269,124138,2,0,B|175:211|182:161|182:161,1,100,2|0,1:3|0:0,0:0:0:0:
250,97,124888,1,0,1:0:0:0:
344,128,125263,1,0,1:0:0:0:
438,159,125638,1,2,1:3:0:0:
324,323,126388,70,0,B|277:333|218:321|218:321,1,100,0|0,1:0|1:0,0:0:0:0:
141,266,127138,2,0,L|152:36,1,200,2|0,1:3|1:0,0:0:0:0:
241,25,128263,1,0,1:0:0:0:
241,124,128638,1,2,1:3:0:0:
419,33,129388,6,0,B|463:58|470:118|470:118,1,100,0|0,1:0|1:0,0:0:0:0:
469,215,130138,2,0,B|469:212|462:272|418:297,1,100,2|0,1:3|0:0,0:0:0:0:
318,297,130888,2,0,B|274:272|267:212|267:214,1,100,0|0,1:0|1:0,0:0:0:0:
267,114,131638,2,0,B|274:56|318:31,1,100,2|0,1:3|1:0,0:0:0:0:
364,119,132388,5,4,1:2:0:0:
365,218,132763,1,0,1:0:0:0:
267,214,133138,2,0,B|165:172|175:274|54:216,1,200,2|0,1:3|1:0,0:0:0:0:
21,141,134263,2,0,B|36:77|36:5|36:5,1,100,0|2,1:0|1:3,0:0:0:0:
129,10,135013,1,0,0:0:0:0:
165,103,135388,6,0,B|124:137|136:209|178:221|165:293,1,200,0|2,1:0|1:3,0:0:0:0:
265,295,136513,2,0,B|252:222|294:210|306:138|265:104,1,200,0|0,0:0|1:0,0:0:0:0:
208,23,137638,1,2,1:3:0:0:
402,68,138388,70,0,B|423:122|416:185|416:185,1,100,0|0,1:0|1:0,0:0:0:0:
398,264,139138,2,0,B|281:229|182:265|182:265,1,200,2|0,1:3|1:0,0:0:0:0:
108,298,140263,1,0,1:0:0:0:
32,363,140638,1,2,1:3:0:0:
12,164,141388,6,0,B|0:98|39:41|39:41,1,100,0|2,1:0|1:2,0:0:0:0:
123,44,142138,2,0,B|170:57|234:47|234:47,1,100,2|0,1:3|1:0,0:0:0:0:
321,31,142888,2,0,B|368:18|432:28|432:28,1,100,0|0,1:0|1:0,0:0:0:0:
474,111,143638,2,0,B|487:146|487:208,1,100,2|0,1:3|1:0,0:0:0:0:
420,281,144388,38,0,B|331:256|357:300|252:282,2,150,2|2|2,0:0|0:0|3:2,0:0:0:0:
368,366,145888,1,2,3:2:0:0:
54,117,147388,6,0,B|143:142|117:98|222:116,2,150,2|2|2,3:2|0:0|3:2,0:0:0:0:
106,32,148888,1,2,3:2:0:0:
177,218,149638,1,2,1:2:0:0:
286,50,150388,102,0,B|313:12|395:0|436:54,2,150,2|2|2,0:0|0:0|3:2,0:0:0:0:
359,117,151888,1,2,0:0:0:0:
208,311,153388,6,0,B|181:349|99:361|58:307,2,150,2|2|2,0:0|0:0|0:0,0:0:0:0:
135,244,154888,1,2,0:0:0:0:
257,85,155638,1,0,1:0:0:0:
355,259,156388,102,0,B|328:158|413:155|371:42,1,200,2|2,1:2|1:2,0:0:0:0:
293,12,157513,1,0,0:0:0:0:
207,64,157888,2,0,B|163:89|76:100|3:64,1,200,2|0,1:2|1:0,0:0:0:0:
15,268,159388,6,0,B|59:243|146:232|219:268,1,200,2|2,1:2|1:2,0:0:0:0:
298,308,160513,1,0,0:0:0:0:
307,208,160888,2,0,B|311:154|306:100|306:100,1,100,2|0,1:2|1:0,0:0:0:0:
233,39,161638,2,0,B|160:30|114:37|114:37,1,100,0|2,1:0|0:0,0:0:0:0:
169,128,162388,102,0,B|187:177|172:238|154:214|131:264|155:324,1,200,2|2,1:2|1:2,0:0:0:0:
245,280,163513,2,0,B|367:269|285:332|397:394|523:240|487:163|384:274|330:143|368:-61|547:104|354:154|277:82,1,500,0|2,0:0|1:2,0:0:0:0:
497,122,166138,1,2,1:2:0:0:
298,97,166888,6,0,B|244:125|174:132|122:103|122:103,1,150,0|0,0:0|1:0,0:0:0:0:
165,68,180388,102,0,B|222:84|286:68|286:68,1,100,0|0,3:0|3:0,0:0:0:0:
362,55,181138,2,0,B|359:167|377:286|377:286,2,200,2|2|0,3:2|3:2|3:0,0:0:0:0:
451,10,183013,1,0,3:0:0:0:
462,209,183763,5,0,3:0:0:0:
372,253,184138,2,0,B|261:289|165:220|165:220,1,200,2|2,3:2|3:2,0:0:0:0:
192,28,185638,2,0,B|258:24|320:43|320:43,1,100,0|0,3:0|3:0,0:0:0:0:
387,65,186388,1,0,1:0:0:0:
469,121,186763,1,0,1:0:0:0:
443,217,187138,2,0,B|429:263|442:338|442:338,1,100,0|0,3:0|3:0,0:0:0:0:
340,318,187888,2,0,B|286:304|228:308|228:308,1,100,0|0,3:0|3:0,0:0:0:0:
143,337,188638,1,0,1:0:0:0:
223,153,189388,101,0,1:0:0:0:
168,69,189763,1,0,1:0:0:0:
78,113,190138,2,0,B|64:174|61:278|76:329,2,200,0|0|0,3:0|3:0|0:0,0:0:0:0:
168,69,192013,1,2,0:0:0:0:
205,161,192388,22,0,B|208:226|195:291|195:291,1,100,4|0,1:2|1:0,0:0:0:0:
278,322,193138,2,0,B|324:313|393:327|393:327,1,100,2|0,1:3|0:0,0:0:0:0:
474,350,193888,1,0,1:0:0:0:
480,150,194638,1,2,1:3:0:0:
399,91,195013,1,0,0:0:0:0:
315,35,195388,6,0,B|319:88|309:157|309:157,1,100,4|0,1:3|0:0,0:0:0:0:
283,230,196138,2,0,B|201:245|218:198|121:217,2,150,2|0|0,1:3|1:0|1:0,0:0:0:0:
380,207,197638,1,2,1:3:0:0:
251,53,198388,6,0,B|194:30|129:40|129:40,1,100,4|0,1:3|1:0,0:0:0:0:
129,135,199138,2,0,B|167:209|133:309|133:309,2,150,2|2|0,1:3|1:3|1:0,0:0:0:0:
45,190,200638,2,0,B|33:244|45:296|48:300,1,100,2|0,1:3|1:0,0:0:0:0:
109,365,201388,6,0,B|166:378|214:358|198:328|247:315|324:340,1,200,4|2,1:3|1:3,0:0:0:0:
396,356,202513,1,0,0:0:0:0:
384,256,202888,2,0,B|382:203|393:147|393:147,1,100,0|4,1:0|1:3,0:0:0:0:
429,64,203638,1,2,1:3:0:0:
231,31,204388,70,0,B|168:15|111:45|111:45,1,100,4|0,1:2|1:0,0:0:0:0:
146,135,205138,2,0,B|209:151|266:121|266:121,1,100,2|0,1:3|0:0,0:0:0:0:
324,69,205888,1,0,1:0:0:0:
457,218,206638,1,2,1:3:0:0:
414,308,207013,1,0,0:0:0:0:
318,279,207388,6,0,B|256:263|200:287|200:287,1,100,4|0,1:3|1:0,0:0:0:0:
122,253,208138,2,0,B|132:199|134:101|134:101,2,150,2|0|0,1:3|1:0|1:0,0:0:0:0:
51,324,209638,1,2,1:3:0:0:
51,124,210388,6,0,B|45:52|99:27|99:27,1,100,4|0,1:3|1:0,0:0:0:0:
186,35,211138,2,0,B|261:48|360:36|360:36,2,150,2|0|0,1:3|1:0|1:0,0:0:0:0:
158,131,212638,2,0,B|153:186|159:238|159:238,1,100,2|0,1:3|1:0,0:0:0:0:
244,281,213388,6,0,B|264:220|343:148|437:220|437:220,1,200,4|2,1:3|1:3,0:0:0:0:
488,260,214513,1,2,1:3:0:0:
491,160,214888,2,0,B|494:99|478:48|478:48,1,100,0|0,1:0|1:0,0:0:0:0:
391,16,215638,1,2,1:3:0:0:
277,180,216388,5,4,1:2:0:0:
204,111,216763,1,0,0:0:0:0:
107,136,217138,2,0,B|87:204|94:352|94:352,2,200,2|0|2,1:3|1:0|1:3,0:0:0:0:
145,43,219013,1,0,1:0:0:0:
221,227,219763,5,4,1:3:0:0:
295,160,220138,2,0,B|337:132|396:135|396:135,1,100,2|0,1:3|0:0,0:0:0:0:
486,162,220888,2,0,B|466:241|476:362|476:362,1,200,0|2,1:0|1:3,0:0:0:0:
378,383,222013,1,0,0:0:0:0:
372,283,222388,69,4,1:3:0:0:
172,302,223138,1,2,1:3:0:0:
153,102,223888,1,0,1:0:0:0:
353,83,224638,2,0,B|356:147|351:194|351:194,1,100,2|0,1:3|1:0,0:0:0:0:
265,232,225388,6,0,B|275:95|266:22|266:22,1,200,4|2,1:3|1:3,0:0:0:0:
169,7,226513,1,0,1:0:0:0:
174,106,226888,2,0,B|181:161|168:218|168:218,2,100,2|2|2,1:3|1:3|1:3,0:0:0:0:
85,59,228013,1,0,1:0:0:0:
64,168,228388,6,0,B|40:248|96:352|248:344|280:248,1,330.000010070801,4|0,1:2|1:0,0:0:0:0:
295,156,229888,2,0,L|300:37,1,110.000003356934,0|0,1:0|1:0,0:0:0:0:
408,28,230638,2,0,L|397:287,1,220.000006713867,2|4,1:3|1:3,0:0:0:0:
312,317,231763,5,4,1:3:0:0:
234,239,232138,2,0,B|137:198|137:294|12:241,2,220.000006713867,2|0|2,1:3|1:0|1:3,0:0:0:0:
312,317,234013,1,0,1:0:0:0:
386,231,234388,70,0,B|396:163|387:112|387:112,1,100,4|4,1:3|1:3,0:0:0:0:
316,62,235138,2,0,B|260:75|204:62|204:62,1,100,2|0,1:3|0:0,0:0:0:0:
145,135,235888,2,0,B|138:166|148:238|148:238,1,100,0|0,1:0|1:0,0:0:0:0:
209,313,236638,1,2,1:3:0:0:
56,192,237388,5,4,1:3:0:0:
201,54,238138,1,2,1:3:0:0:
348,189,238888,2,0,B|367:252|325:273|358:359,2,150,0|0|0,1:0|0:0|0:0,0:0:0:0:
355,89,240388,38,0,B|298:46|209:47|160:95,1,200,0|0,0:0|0:0,0:0:0:0:
158,287,241888,2,0,B|218:326|290:291|290:291,2,100,0|4|0,0:0|0:3|3:3,0:0:0:0:
73,105,243388,5,4,0:3:0:0:
168,76,243763,1,4,0:3:0:0:
254,256,244513,1,4,0:3:0:0:
344,76,245263,1,4,0:3:0:0:
439,105,245638,1,0,3:3:0:0:
440,304,246388,101,4,0:3:0:0:
345,333,246763,1,4,0:3:0:0:
144,84,248638,1,4,0:3:0:0:
343,87,249388,5,4,0:3:0:0:
343,186,249763,1,4,0:3:0:0:
160,325,251638,1,4,0:3:0:0:
