osu file format v14

[General]
AudioFilename: blumenkranz_cover_finalmix_because_oko_likes_futa.mp3
AudioLeadIn: 0
PreviewTime: 120294
Countdown: 0
SampleSet: Soft
StackLeniency: 0.7
Mode: 0
LetterboxInBreaks: 0
WidescreenStoryboard: 1

[Editor]
Bookmarks: 12388,60388,108388,156388,164263,168388,180388,192388,204388
DistanceSpacing: 1
BeatDivisor: 2
GridSize: 32
TimelineZoom: 1

[Metadata]
Title:Blumenkranz
TitleUnicode:Blumenkranz
Artist:Paperblossom
ArtistUnicode:Paperblossom
Creator:Okorin
Version:Normal
Source:キルラキル
Tags:sachcell cover cyua hiroyuki sawano KLK Kill la Kill Mao Zetera Zao Okoratu
BeatmapID:1019625
BeatmapSetID:365319

[Difficulty]
HPDrainRate:4.5
CircleSize:3.5
OverallDifficulty:5
ApproachRate:6
SliderMultiplier:1.2
SliderTickRate:1

[Events]
//Background and Video events
0,0,"okdad.jpg",0,0
//Break Periods
2,24400,34213
2,96588,101338
2,168388,179338
//Storyboard Layer 0 (Background)
//Storyboard Layer 1 (Fail)
//Storyboard Layer 2 (Pass)
//Storyboard Layer 3 (Foreground)
//Storyboard Sound Samples

[TimingPoints]
388,375,4,2,1,40,1,0
1513,-100,4,2,1,20,0,0
1888,-100,4,2,1,40,0,0
3200,-100,4,2,1,20,0,0
3388,-100,4,2,1,40,0,0
4513,-100,4,2,1,20,0,0
4888,-100,4,2,1,40,0,0
5263,-100,4,2,1,20,0,0
5638,-100,4,2,1,40,0,0
6200,-100,4,2,1,30,0,0
6388,-100,4,2,1,40,0,0
7513,-100,4,2,1,25,0,0
7888,-100,4,2,1,40,0,0
9200,-100,4,2,1,25,0,0
9388,-100,4,2,1,40,0,0
10513,-100,4,2,1,20,0,0
10888,-100,4,2,1,40,0,0
11263,-100,4,2,1,20,0,0
11638,-100,4,2,1,40,0,0
12013,-100,4,2,1,40,0,0
12388,-100,4,2,1,60,0,0
24388,-100,4,2,1,40,0,0
25513,-100,4,2,1,20,0,0
25888,-100,4,2,1,40,0,0
27200,-100,4,2,1,25,0,0
27388,-100,4,2,1,40,0,0
28513,-100,4,2,1,20,0,0
28888,-100,4,2,1,40,0,0
29263,-100,4,2,1,25,0,0
29450,-100,4,2,1,40,0,0
30200,-100,4,2,1,25,0,0
30388,-100,4,2,1,40,0,0
31513,-100,4,2,1,20,0,0
31888,-100,4,2,1,40,0,0
33200,-100,4,2,1,25,0,0
33388,-100,4,2,1,40,0,0
34513,-100,4,2,1,20,0,0
34888,-100,4,2,1,40,0,0
35263,-100,4,2,1,25,0,0
35638,-100,4,2,1,40,0,0
36388,-100,4,2,1,60,0,0
48388,-100,4,2,1,35,0,0
60388,-100,4,2,1,35,0,0
72388,-100,4,2,1,75,0,1
84200,-100,4,2,1,75,0,0
84388,-100,4,2,1,75,0,1
96388,-100,4,2,1,30,0,0
108388,-100,4,2,1,60,0,0
120388,-100,4,2,1,75,0,1
131638,-100,4,2,1,55,0,0
132388,-100,4,2,1,75,0,1
144388,-100,4,2,1,40,0,0
156388,-100,4,2,1,30,0,0
168388,-100,4,2,1,40,0,0
174669,-100,4,2,1,20,0,0
175138,-100,4,2,1,40,0,0
175419,-100,4,2,1,20,0,0
175888,-100,4,2,1,40,0,0
176169,-100,4,2,1,20,0,0
176638,-100,4,2,1,40,0,0
180388,-100,4,2,1,50,0,0
183388,-100,4,2,1,40,0,0
183763,-100,4,2,1,50,0,0
192388,-100,4,2,1,60,0,0
216388,-100,4,2,1,75,0,1
228200,-100,4,2,1,75,0,0
228388,-86.9565217391304,4,2,1,75,0,1
234388,-93.4579439252336,4,2,1,75,0,1
237388,-100,4,2,1,75,0,1
240388,-100,4,2,1,40,0,0
241513,-100,4,2,1,20,0,0
241888,-100,4,2,1,40,0,0
242263,-100,4,2,1,35,0,0
242638,-100,4,2,1,40,0,0
243388,-100,4,2,1,35,0,0
243950,-100,4,2,1,40,0,0
244513,-100,4,2,1,20,0,0
244888,-100,4,2,1,40,0,0
245263,-100,4,2,1,25,0,0
245450,-100,4,2,1,30,0,0
245638,-100,4,2,1,40,0,0
246200,-100,4,2,1,25,0,0
246388,-100,4,2,1,20,0,0
247138,-100,4,2,1,25,0,0
248638,-100,4,2,1,20,0,0
249013,-100,4,2,1,25,0,0
249388,-100,4,2,1,20,0,0
250138,-100,4,2,1,25,0,0
251638,-100,4,2,1,20,0,0
252013,-100,4,2,1,15,0,0

[Colours]
Combo1 : 254,118,101
Combo2 : 133,123,166
Combo3 : 215,215,215
Combo4 : 254,198,113
Combo5 : 254,254,131
Combo6 : 205,249,245
Combo7 : 150,197,252
Combo8 : 226,136,67

[HitObjects]
131,92,388,6,0,B|146:136|145:177|125:229,1,120,0|0,0:0|3:0,0:0:0:0:
79,317,1138,2,0,B|147:304|136:330|227:316,1,120,0|4,0:0|0:3,0:0:0:0:
314,350,1888,2,0,B|298:312|298:268|323:210,1,120,0|0,0:0|3:0,0:0:0:0:
428,194,2638,2,0,B|446:150|446:106|428:68,1,120,0|0,3:0|0:0,0:0:0:0:
322,27,3388,5,0,3:0:0:0:
247,120,3763,1,0,0:0:0:0:
146,53,4138,2,0,B|100:30|28:45|6:75,1,120,0|4,0:0|0:3,0:0:0:0:
92,159,4888,2,0,B|105:225|74:216|87:277,1,120,0|4,0:0|0:3,0:0:0:0:
206,276,5638,2,0,B|219:214|188:223|201:157,1,120,0|0,3:3|0:0,0:0:0:0:
283,71,6388,101,0,3:0:0:0:
281,190,6763,1,0,3:0:0:0:
373,114,7138,2,0,B|411:98|459:94|499:132,1,120,0|4,0:0|0:3,0:0:0:0:
476,241,7888,2,0,B|438:257|390:261|350:223,1,120,0|0,0:0|3:2,0:0:0:0:
248,192,8638,2,0,B|254:243|251:295|228:343,1,120,0|0,3:0|0:0,0:0:0:0:
120,299,9388,6,0,B|112:251|112:219|136:150,1,120,0|0,3:0|3:0,0:0:0:0:
175,70,10138,2,0,B|238:83|231:55|299:65,1,120,0|4,0:0|0:3,0:0:0:0:
413,74,10888,2,0,B|400:140|402:172|406:217,1,120,0|4,0:0|3:0,0:0:0:0:
408,313,11638,2,0,B|342:295|301:297|265:320,1,120,0|0,3:0|0:0,0:0:0:0:
218,332,12200,1,2,0:0:0:0:
231,255,12388,6,0,B|247:173|241:107|241:107,1,120,4|4,1:3|1:3,0:0:0:0:
201,22,13138,1,2,1:3:0:0:
88,63,13513,2,0,B|58:73|13:76|13:76,2,60,0|2|0,0:0|1:3|1:0,0:0:0:0:
201,22,14263,2,0,B|235:16|273:17|273:17,1,60,0|0,1:0|1:0,0:0:0:0:
336,43,14638,1,2,1:3:0:0:
247,123,15013,1,0,0:0:0:0:
348,186,15388,6,0,B|358:225|358:268|344:315,1,120,4|4,1:3|1:3,0:0:0:0:
232,341,16138,2,0,B|196:329|147:331|97:376,1,120,2|0,1:3|0:0,0:0:0:0:
45,331,16700,1,2,1:3:0:0:
102,279,16888,2,0,B|118:230|117:192|107:155,1,120,0|0,1:0|1:0,0:0:0:0:
94,85,17450,1,0,1:0:0:0:
173,99,17638,2,0,B|235:111|231:81|308:96,1,120,2|0,1:3|0:0,0:0:0:0:
411,100,18388,6,0,B|401:162|401:227|401:227,1,120,4|4,1:3|1:3,0:0:0:0:
415,338,19138,1,2,1:3:0:0:
316,270,19513,2,0,B|319:233|305:196|305:196,2,60,0|2|0,0:0|1:3|1:0,0:0:0:0:
216,337,20263,2,0,B|182:345|144:345|144:345,1,60,0|0,1:0|1:0,0:0:0:0:
88,305,20638,2,0,B|97:254|96:202|95:162,1,120,2|0,1:3|0:0,0:0:0:0:
90,65,21388,6,0,B|136:78|192:68|221:51,1,120,4|0,1:3|1:0,0:0:0:0:
281,30,21950,1,2,1:3:0:0:
273,108,22138,2,0,L|261:249,1,120,2|0,1:3|0:0,0:0:0:0:
318,284,22700,2,0,B|360:260|406:261|450:284,1,120,2|0,1:3|0:0,0:0:0:0:
503,240,23263,2,0,L|492:154,1,60,4|0,1:3|1:0,0:0:0:0:
480,102,23638,1,2,1:3:0:0:
369,149,24013,2,0,L|376:90,1,60,0|2,1:0|1:3,0:0:0:0:
262,35,35263,70,0,B|328:47|385:44|385:44,2,120,4|0|2,0:3|3:0|0:0,0:0:0:0:
149,78,36388,6,0,B|137:120|139:175|153:215,2,120,2|0|2,1:2|1:0|1:2,0:0:0:0:
264,112,37513,2,0,B|289:115|308:123|321:139,1,60,0|0,0:0|1:0,0:0:0:0:
276,203,37888,2,0,L|265:334,1,120,2|0,1:2|1:0,0:0:0:0:
333,367,38450,1,0,1:0:0:0:
396,318,38638,2,0,L|406:198,1,120,2|0,1:2|0:0,0:0:0:0:
404,78,39388,6,0,B|464:84|531:78|531:78,2,120,2|0|2,1:2|1:2|1:2,0:0:0:0:
290,38,40513,2,0,B|257:33|240:33|213:37,1,60,0|0,0:0|1:0,0:0:0:0:
161,73,40888,2,0,B|169:130|163:193|163:193,1,120,2|2,1:2|1:2,0:0:0:0:
153,271,41450,1,0,1:0:0:0:
229,251,41638,2,0,B|280:238|352:248|352:248,1,120,2|0,1:2|1:2,0:0:0:0:
432,161,42388,6,0,B|416:101|418:47|442:9,2,120,2|0|2,1:2|1:0|1:2,0:0:0:0:
452,279,43513,2,0,B|456:315|449:358|449:358,1,60,0|0,0:0|1:0,0:0:0:0:
373,352,43888,2,0,B|311:366|303:323|231:352,1,120,2|0,1:2|1:0,0:0:0:0:
179,363,44450,1,0,1:0:0:0:
195,285,44638,2,0,B|208:232|210:177|197:142,1,120,2|0,1:2|0:0,0:0:0:0:
171,50,45388,70,0,L|17:57,1,120,2|0,1:2|1:0,0:0:0:0:
12,124,45950,1,0,1:0:0:0:
12,124,46138,2,0,L|17:254,1,120,2|0,1:2|0:0,0:0:0:0:
75,295,46700,2,0,B|121:273|154:269|221:281,1,120,0|0,1:0|0:0,0:0:0:0:
261,318,47263,2,0,B|299:332|316:331|341:331,1,60,0|0,1:0|1:0,0:0:0:0:
384,284,47638,1,2,1:2:0:0:
360,170,48013,2,0,B|348:129|350:91|350:91,1,60,0|0,1:0|1:0,0:0:0:0:
330,35,48388,102,0,B|271:45|229:47|193:34,1,120,0|0,1:0|0:0,0:0:0:0:
144,126,49138,2,0,B|203:116|245:114|281:127,1,120,2|0,1:2|0:0,0:0:0:0:
316,216,49888,1,0,1:0:0:0:
205,214,50263,1,0,0:0:0:0:
258,307,50638,2,0,B|317:326|383:319|383:319|382:319,1,120,0|2,1:3|0:0,0:0:0:0:
465,258,51388,38,0,L|458:106,1,120,0|0,1:0|0:0,0:0:0:0:
399,48,52138,2,0,B|363:62|304:62|256:42,1,120,2|0,1:2|0:0,0:0:0:0:
175,26,52888,1,0,1:0:0:0:
186,133,53263,1,0,0:0:0:0:
85,93,53638,2,0,B|26:109|-8:183|38:252,1,180,0|0,1:0|0:0,0:0:0:0:
95,288,54388,6,0,B|141:277|174:276|219:284,1,120,0|0,1:0|0:0,0:0:0:0:
314,324,55138,2,0,B|360:335|393:336|438:328,1,120,2|0,1:2|0:0,0:0:0:0:
506,249,55888,1,0,1:0:0:0:
446,158,56263,2,0,B|438:110|448:68,2,60,0|0|0,0:0|0:0|1:0,0:0:0:0:
405,258,57013,1,2,0:0:0:0:
314,199,57388,54,0,B|291:144|302:60|302:60,1,120,0|0,1:0|0:0,0:0:0:0:
361,24,57950,1,0,0:0:0:0:
361,24,58138,2,0,L|499:30,1,120,2|2,1:2|0:2,0:0:0:0:
490,136,58888,1,0,1:0:0:0:
407,223,59263,1,0,0:0:0:0:
411,354,59638,1,2,1:2:0:0:
280,292,60013,1,0,0:0:0:0:
308,175,60388,6,0,B|317:108|307:49|307:49,1,120,0|0,1:0|0:0,0:0:0:0:
195,12,61138,1,0,1:0:0:0:
96,80,61513,1,0,1:0:0:0:
141,191,61888,2,0,B|185:182|225:187|224:187,1,60,0|0,1:0|0:0,0:0:0:0:
255,242,62263,1,0,1:0:0:0:
289,127,62638,2,0,B|314:85|358:61|358:61,1,60,0|0,1:0|0:0,0:0:0:0:
404,107,63013,2,0,B|411:152|407:177|398:207,1,60,0|0,1:0|1:0,0:0:0:0:
353,230,63388,6,0,B|339:295|340:363|340:363,1,120,0|0,1:0|1:0,0:0:0:0:
460,359,64138,1,0,1:0:0:0:
450,240,64513,1,0,1:0:0:0:
492,128,64888,2,0,B|425:136|353:122|353:122,1,120,0|0,1:0|1:0,0:0:0:0:
315,70,65450,1,0,1:0:0:0:
315,70,65638,2,0,B|253:93|208:79|239:60|179:37|115:78|115:78,1,180,0|0,1:0|1:0,0:0:0:0:
95,133,66388,6,0,B|105:192|101:252|101:252,1,120,0|0,1:0|0:0,0:0:0:0:
190,331,67138,1,0,1:0:0:0:
188,212,67513,1,0,1:0:0:0:
297,266,67888,1,0,1:0:0:0:
295,147,68263,2,0,B|292:113|301:73|301:73|301:73,1,60,0|0,0:0|1:0,0:0:0:0:
376,122,68638,2,0,L|376:267,1,120,0|0,1:0|1:0,0:0:0:0:
392,325,69200,1,0,1:0:0:0:
392,325,69388,70,0,B|440:316|510:323|510:323,3,120,0|0|0|0,1:0|0:0|0:0|0:0,0:0:0:0:
133,53,72388,70,0,B|144:113|139:173|139:173,1,120,4|0,1:2|1:3,0:0:0:0:
128,252,72950,1,0,0:0:0:0:
202,222,73138,2,0,B|263:213|331:217|331:217,1,120,2|0,1:3|1:0,0:0:0:0:
402,234,73700,1,0,1:0:0:0:
402,234,73888,2,0,B|396:152|402:88|402:88,1,120,0|0,1:0|1:0,0:0:0:0:
459,9,74638,1,2,1:3:0:0:
337,8,75013,1,0,1:0:0:0:
262,99,75388,6,0,B|267:138|266:172|266:172,2,60,4|0|4,1:3|0:0|1:3,0:0:0:0:
157,39,76138,2,0,B|171:105|171:188|171:188,1,120,2|0,1:3|0:0,0:0:0:0:
112,214,76700,1,0,1:3:0:0:
112,214,76888,2,0,B|98:280|98:363|98:363,1,120,0|0,1:0|1:0,0:0:0:0:
167,374,77450,1,0,1:0:0:0:
214,309,77638,1,2,1:2:0:0:
358,368,78013,1,0,0:0:0:0:
342,215,78388,70,0,B|374:209|412:210|412:210,2,60,4|0|4,1:3|0:0|1:3,0:0:0:0:
256,130,79138,2,0,B|266:99|286:66|286:66,2,60,2|0|0,1:3|0:0|1:0,0:0:0:0:
152,192,79888,2,0,B|138:121|138:99|140:52,1,120,0|0,1:0|1:0,0:0:0:0:
21,69,80638,2,0,B|22:95|22:117|8:188,1,120,2|0,1:3|1:0,0:0:0:0:
31,270,81200,1,0,1:0:0:0:
31,270,81388,6,0,B|96:254|166:266|136:292|194:308|273:291,1,240,0|2,1:3|1:3,0:0:0:0:
365,226,82513,2,0,B|354:157|365:90|365:90,1,120,0|2,1:0|1:3,0:0:0:0:
411,43,83075,1,0,1:0:0:0:
464,100,83263,1,2,1:3:0:0:
439,254,83638,1,2,1:3:0:0:
287,218,84013,1,0,1:0:0:0:
312,64,84388,6,0,B|254:48|196:54|196:54,1,120,4|0,1:2|1:0,0:0:0:0:
116,68,84950,1,0,0:0:0:0:
138,144,85138,2,0,B|148:206|141:273|141:273,1,120,2|2,1:3|1:2,0:0:0:0:
226,246,85700,1,2,1:2:0:0:
226,246,85888,2,0,B|303:239|354:246|354:246,1,120,0|0,1:3|1:0,0:0:0:0:
282,346,86638,1,2,1:3:0:0:
164,320,87013,1,0,0:0:0:0:
44,314,87388,6,0,B|45:326|41:348|27:378,2,60,4|0|4,1:3|0:0|1:3,0:0:0:0:
31,194,88138,2,0,B|34:130|59:62|59:62,1,120,2|0,1:3|0:0,0:0:0:0:
114,26,88700,1,0,1:0:0:0:
114,26,88888,2,0,B|187:33|240:31|240:31,1,120,0|0,1:0|1:0,0:0:0:0:
311,49,89450,1,0,1:0:0:0:
260,109,89638,1,2,1:2:0:0:
288,262,90013,1,0,1:0:0:0:
380,134,90388,70,0,B|433:120|499:132|499:132,1,120,4|4,1:3|1:3,0:0:0:0:
497,253,91138,2,0,B|444:267|378:255|378:255,1,120,2|0,1:3|0:0,0:0:0:0:
330,196,91700,1,0,1:0:0:0:
330,196,91888,1,0,1:0:0:0:
233,263,92263,1,0,1:0:0:0:
233,143,92638,2,0,B|233:68|226:13|226:13,1,120,2|0,1:3|0:0,0:0:0:0:
347,45,93388,6,0,B|388:47|426:45|425:45,2,60,0|0|0,1:0|0:0|0:0,0:0:0:0:
323,164,94138,2,0,B|368:178|394:192|394:192,2,60,2|0|0,1:3|0:0|0:0,0:0:0:0:
204,144,94888,1,0,1:0:0:0:
239,257,95263,2,0,B|242:298|235:334|235:334,1,60,0|0,1:0|0:0,0:0:0:0:
172,362,95638,1,2,1:3:0:0:
101,267,96013,2,0,B|60:252|32:253|32:253,2,60,0|0|0,0:0|0:0|1:0,0:0:0:0:
150,92,102388,38,0,B|169:204|149:346|149:346,2,240,2|2|2,1:2|1:2|1:2,0:0:0:0:
222,12,104263,1,2,1:2:0:0:
302,85,104638,2,0,B|366:109|456:107|456:107,1,120,2|0,1:2|0:0,0:0:0:0:
506,189,105388,5,2,1:2:0:0:
416,269,105763,1,0,1:0:0:0:
317,200,106138,2,0,B|255:193|181:199|181:199,1,120,2|0,1:2|0:0,0:0:0:0:
94,259,106888,1,0,1:0:0:0:
213,276,107263,1,2,1:2:0:0:
125,357,107638,2,0,B|63:364|-11:358|-11:358,1,120,2|0,1:2|0:0,0:0:0:0:
49,247,108388,6,0,B|61:184|60:119|60:119,2,120,0|0|2,1:0|1:0|1:3,0:0:0:0:
151,194,109513,1,0,0:0:0:0:
151,194,109700,2,0,B|206:184|285:196|285:196,1,120,2|0,1:3|0:0,0:0:0:0:
341,230,110263,1,0,1:0:0:0:
288,337,110638,2,0,B|343:347|422:335|422:335,1,120,0|0,1:0|3:3,0:0:0:0:
469,234,111388,6,0,B|451:167|496:183|461:81,1,120,0|0,1:0|1:0,0:0:0:0:
417,58,111950,1,0,0:0:0:0:
348,94,112138,2,0,B|285:109|223:93|223:93,1,120,2|0,1:3|3:3,0:0:0:0:
151,68,112700,2,0,B|158:122|155:201|155:201,1,120,2|0,1:3|0:0,0:0:0:0:
151,268,113263,1,0,1:0:0:0:
258,212,113638,1,2,1:3:0:0:
459,338,114388,6,0,B|447:267|456:194|456:194,1,120,4|0,1:3|1:3,0:0:0:0:
468,98,115138,2,0,B|407:109|345:95|345:95,1,120,2|0,1:3|3:0,0:0:0:0:
351,175,115700,2,0,B|355:240|351:303|351:303,1,120,2|0,1:3|0:0,0:0:0:0:
311,363,116263,1,4,1:3:0:0:
225,281,116638,2,0,B|189:264|147:266|147:266,1,60,2|0,1:3|0:0,0:0:0:0:
89,264,117013,2,0,B|97:219|95:191|95:191,1,60,0|0,1:0|0:0,0:0:0:0:
44,142,117388,6,0,B|31:66|96:31|96:31,1,120,4|0,1:3|1:0,0:0:0:0:
169,37,117950,1,2,1:3:0:0:
169,37,118138,2,0,L|173:171,1,120,2|0,1:3|1:0,0:0:0:0:
252,132,118700,2,0,L|248:12,1,120,2|0,1:3|0:0,0:0:0:0:
328,16,119263,2,0,L|331:86,1,60,4|0,1:3|1:0,0:0:0:0:
176,335,120388,6,0,B|186:263|186:202|186:202,1,120,4|0,1:2|1:0,0:0:0:0:
132,152,120950,1,0,0:0:0:0:
132,152,121138,2,0,B|122:80|122:19|122:19,1,120,2|0,1:3|0:0,0:0:0:0:
242,19,121888,1,0,1:0:0:0:
231,138,122263,1,0,1:0:0:0:
339,78,122638,2,0,B|401:62|456:79|456:79,1,120,2|0,1:3|0:0,0:0:0:0:
475,199,123388,5,0,1:0:0:0:
359,166,123763,1,0,1:0:0:0:
364,286,124138,1,2,1:3:0:0:
248,253,124513,1,0,0:0:0:0:
243,133,124888,1,0,1:0:0:0:
112,218,125263,1,0,1:0:0:0:
111,62,125638,2,0,B|177:22|242:56|242:56,1,120,2|2,1:3|1:2,0:0:0:0:
334,104,126388,70,0,B|322:168|324:242|324:242,1,120,0|0,1:0|1:0,0:0:0:0:
412,222,126950,1,0,0:0:0:0:
412,222,127138,2,0,B|410:240|417:166|410:102,1,120,2|0,1:3|0:0,0:0:0:0:
330,19,127888,1,0,1:0:0:0:
251,109,128263,1,0,1:0:0:0:
156,34,128638,2,0,B|102:17|33:30|33:30,1,120,2|0,1:3|0:0,0:0:0:0:
104,130,129388,5,0,1:0:0:0:
87,250,129763,1,0,1:0:0:0:
194,198,130138,1,2,1:3:0:0:
297,259,130513,1,0,0:0:0:0:
280,139,130888,1,0,1:0:0:0:
214,281,131263,1,0,1:0:0:0:
334,381,131638,2,0,B|318:292|396:337|394:221|333:185,1,180,2|0,1:3|1:0,0:0:0:0:
306,159,132388,6,0,B|255:177|185:164|185:164,1,120,4|0,1:2|1:0,0:0:0:0:
182,45,133138,2,0,B|233:27|303:40|303:40,1,120,2|0,1:3|0:0,0:0:0:0:
397,109,133888,2,0,B|389:155|386:192|386:192,2,60,0|0|0,1:0|0:0|1:0,0:0:0:0:
486,28,134638,1,2,1:3:0:0:
484,152,135013,1,0,0:0:0:0:
429,264,135388,6,0,B|371:290|292:261|338:237|247:199|181:249,1,240,0|2,1:0|1:3,0:0:0:0:
85,262,136513,1,0,0:0:0:0:
45,147,136888,1,0,1:0:0:0:
196,146,137263,1,0,1:0:0:0:
290,31,137638,2,0,B|347:8|407:21|407:21,1,120,2|0,1:3|1:0,0:0:0:0:
357,132,138388,70,0,B|351:197|351:274|351:274,1,120,0|0,1:0|1:0,0:0:0:0:
286,296,138950,1,0,0:0:0:0:
286,296,139138,2,0,B|226:277|222:312|138:287,1,120,2|0,1:3|0:0,0:0:0:0:
201,181,139888,1,0,1:0:0:0:
86,146,140263,1,0,1:0:0:0:
182,68,140638,2,0,B|246:52|305:59|305:59,1,120,2|0,1:3|0:0,0:0:0:0:
376,153,141388,5,0,1:0:0:0:
256,152,141763,1,2,1:2:0:0:
339,240,142138,1,2,1:3:0:0:
458,237,142513,1,0,1:0:0:0:
397,340,142888,2,0,B|336:328|301:334|301:334,1,60,0|0,1:0|0:0,0:0:0:0:
263,363,143263,2,0,B|202:375|167:369|167:369,1,60,0|0,1:0|0:0,0:0:0:0:
214,289,143638,2,0,B|225:220|212:168|212:168,1,120,2|0,1:3|1:0,0:0:0:0:
104,114,144388,38,0,B|121:186|121:186|103:301,2,180,2|2|2,0:0|0:0|3:2,0:0:0:0:
50,28,145888,1,2,3:2:0:0:
256,191,146638,1,2,3:2:0:0:
408,114,147388,6,0,B|391:186|391:186|409:301,2,180,2|2|2,3:2|0:0|3:2,0:0:0:0:
462,28,148888,1,2,3:2:0:0:
256,191,149638,1,2,1:2:0:0:
104,114,150388,102,0,B|121:186|121:186|103:301,2,180,2|2|2,0:0|0:0|3:2,0:0:0:0:
100,19,151888,2,0,B|169:12|204:69|204:69,1,120,2|0,0:0|3:3,0:0:0:0:
308,69,152638,2,0,B|343:12|412:19,1,120,0|0,3:0|0:0,0:0:0:0:
408,114,153388,6,0,B|391:186|391:186|409:301,2,180,2|2|2,0:0|0:0|0:0,0:0:0:0:
415,22,154888,2,0,B|354:0|292:69,1,120,2|0,0:0|0:0,0:0:0:0:
205,54,155638,2,0,B|158:0|97:22,1,120,0|2,1:0|0:0,0:0:0:0:
111,124,156388,102,0,B|123:193|118:259|118:259,1,120,2|0,1:2|0:0,0:0:0:0:
185,322,157138,2,0,B|239:307|308:316|308:316,1,120,2|0,1:2|0:0,0:0:0:0:
390,263,157888,2,0,B|381:216|385:171,1,60,2|0,1:2|0:0,0:0:0:0:
442,155,158263,2,0,B|450:113|447:74,1,60,0|0,1:0|0:0,0:0:0:0:
407,28,158638,1,0,1:0:0:0:
325,89,159013,1,2,0:0:0:0:
235,34,159388,6,0,B|243:78|244:123|239:174|239:174,1,120,2|0,1:2|0:0,0:0:0:0:
152,205,160138,2,0,B|144:161|143:116|148:65|148:65,1,120,2|0,1:2|0:0,0:0:0:0:
50,49,160888,2,0,B|58:105|56:137|56:137,1,60,2|0,1:2|0:0,0:0:0:0:
30,183,161263,2,0,B|22:239|24:271|24:271,1,60,0|0,1:0|0:0,0:0:0:0:
78,301,161638,1,0,1:0:0:0:
150,228,162013,1,2,0:0:0:0:
217,304,162388,102,0,B|267:317|358:310|358:310,1,120,2|0,1:2|0:0,0:0:0:0:
292,218,163138,2,0,B|279:167|286:77|286:77,1,120,2|0,1:2|0:0,0:0:0:0:
382,69,163888,2,0,B|393:136|390:154|390:154,1,60,2|0,1:2|0:0,0:0:0:0:
378,207,164263,2,0,B|367:274|370:292|370:292,1,60,0|0,1:0|0:0,0:0:0:0:
401,339,164638,1,0,1:0:0:0:
482,278,165013,2,0,B|493:211|490:193|490:193,1,60,2|2,0:2|1:2,0:0:0:0:
455,147,165388,6,0,B|324:187|348:83|210:115,1,240,2|2,1:2|1:2,0:0:0:0:
140,168,166513,2,0,L|144:236,1,60,0|2,0:0|1:2,0:0:0:0:
147,309,166888,2,0,B|211:293|274:298|274:298,1,120,0|0,0:0|1:0,0:0:0:0:
340,333,167450,1,0,1:0:0:0:
211,214,180388,101,0,3:0:0:0:
243,98,180763,1,0,3:0:0:0:
124,118,181138,2,0,B|89:201|139:190|137:280|66:311,1,180,2|0,3:2|0:0,0:0:0:0:
146,349,181888,2,0,B|235:337|200:300|279:256|342:302,1,180,2|0,3:2|0:0,0:0:0:0:
372,333,182638,1,0,3:0:0:0:
405,217,183013,1,0,3:0:0:0:
177,140,183763,5,0,3:0:0:0:
249,44,184138,2,0,B|328:12|472:39|472:39,1,180,2|0,3:2|0:0,0:0:0:0:
423,111,184888,2,0,B|391:189|418:334|418:334,1,180,2|0,3:2|0:0,0:0:0:0:
422,368,185638,1,0,3:0:0:0:
319,305,186013,1,0,3:0:0:0:
209,353,186388,101,0,1:0:0:0:
209,353,186763,1,0,1:0:0:0:
235,235,187138,2,0,B|255:172|223:166|236:110,1,120,0|0,3:0|3:0,0:0:0:0:
114,111,187888,2,0,B|94:174|126:180|113:236,1,120,0|0,3:0|3:0,0:0:0:0:
68,340,188638,1,0,1:0:0:0:
114,111,189388,5,0,1:0:0:0:
114,111,189763,1,0,1:0:0:0:
176,213,190138,2,0,B|236:231|300:220|300:220,1,120,0|0,3:0|0:0,0:0:0:0:
388,145,190888,2,0,B|321:176|345:270|418:300|539:202|439:58,1,360,0|2,3:0|0:0,0:0:0:0:
323,65,192388,6,0,B|253:70|180:45|180:45,2,120,4|0|2,1:2|1:0|1:3,0:0:0:0:
323,185,193513,2,0,B|319:220|308:253|308:253,1,60,0|0,0:0|0:3,0:0:0:0:
241,191,193888,2,0,B|185:173|124:182|124:182,1,120,0|0,1:0|1:0,0:0:0:0:
5,212,194638,1,2,1:3:0:0:
36,327,195013,1,0,0:0:0:0:
149,287,195388,6,0,B|205:269|266:278|266:278,1,120,4|0,1:3|0:0,0:0:0:0:
344,309,195950,1,0,0:0:0:0:
344,309,196138,2,0,L|338:145,1,120,2|0,1:3|0:0,0:0:0:0:
399,85,196888,2,0,B|446:89|486:85|486:85,2,60,0|0|0,1:0|0:0|1:0,0:0:0:0:
286,41,197638,1,2,1:3:0:0:
217,139,198013,1,0,1:0:0:0:
129,56,198388,6,0,B|83:40|7:44|7:44,2,120,4|0|2,1:3|1:0|1:3,0:0:0:0:
217,139,199513,1,0,0:0:0:0:
217,139,199700,2,0,B|209:193|209:280|209:280,1,120,2|0,1:3|0:0,0:0:0:0:
267,313,200263,1,0,1:0:0:0:
314,202,200638,1,2,1:3:0:0:
403,281,201013,1,0,1:0:0:0:
427,163,201388,6,0,B|435:100|431:33|431:33,1,120,4|0,1:3|0:0,0:0:0:0:
353,21,201950,1,2,1:3:0:0:
353,21,202138,2,0,B|291:41|291:7|210:32,1,120,2|0,1:3|0:0,0:0:0:0:
135,101,202888,1,0,1:0:0:0:
222,210,203263,1,4,1:3:0:0:
84,256,203638,2,0,B|59:301|78:374|78:374,1,120,2|0,1:3|0:0,0:0:0:0:
215,327,204388,70,0,B|240:282|221:209|221:209,2,120,4|0|2,1:2|1:0|1:3,0:0:0:0:
137,236,205513,2,0,B|131:186|134:143|134:143,1,60,0|0,0:0|0:0,0:0:0:0:
160,101,205888,2,0,B|225:111|296:105|296:105,1,120,0|0,1:0|1:0,0:0:0:0:
390,58,206638,1,2,1:3:0:0:
457,157,207013,1,0,0:0:0:0:
356,222,207388,6,0,B|330:263|321:338|321:338,1,120,4|0,1:3|1:0,0:0:0:0:
396,368,207950,1,0,0:0:0:0:
396,368,208138,2,0,B|435:298|441:220|441:220,1,120,2|0,1:3|0:3,0:0:0:0:
417,137,208888,2,0,B|414:90|416:46|416:46,2,60,0|0|0,1:0|0:0|1:0,0:0:0:0:
331,219,209638,1,2,1:3:0:0:
259,120,210013,1,0,1:0:0:0:
174,205,210388,6,0,B|121:215|51:186|51:186,2,120,4|0|2,1:3|1:0|1:3,0:0:0:0:
259,120,211513,1,0,0:0:0:0:
259,120,211700,2,0,L|266:255,1,120,0|0,1:0|0:0,0:0:0:0:
268,317,212263,1,0,1:0:0:0:
167,253,212638,1,2,1:3:0:0:
64,315,213013,1,0,1:0:0:0:
91,196,213388,6,0,B|106:122|99:68|99:68,1,120,4|0,1:3|0:0,0:0:0:0:
166,29,213950,1,2,1:3:0:0:
166,29,214138,2,0,B|233:40|224:20|305:37,1,120,2|2,1:3|1:3,0:0:0:0:
400,110,214888,1,0,1:0:0:0:
299,206,215263,1,0,1:0:0:0:
442,250,215638,2,0,B|468:313|459:372|459:372,1,120,2|0,1:3|1:0,0:0:0:0:
314,305,216388,6,0,B|253:288|180:308|180:308,1,120,4|0,1:2|0:0,0:0:0:0:
119,333,216950,1,0,0:0:0:0:
130,252,217138,2,0,B|136:173|132:119|132:119,1,120,2|0,1:3|1:0,0:0:0:0:
130,51,217700,1,0,1:0:0:0:
130,51,217888,2,0,B|216:53|274:42|274:42,1,120,0|0,1:0|1:0,0:0:0:0:
211,161,218638,1,2,1:3:0:0:
329,132,219013,1,0,1:0:0:0:
416,50,219388,6,0,B|423:13|464:0|464:0,2,60,4|0|4,1:3|0:0|1:3,0:0:0:0:
401,168,220138,2,0,B|407:232|400:305|400:305,1,120,2|0,1:3|0:0,0:0:0:0:
323,273,220700,1,0,1:0:0:0:
323,273,220888,2,0,B|269:262|200:268|200:268,1,120,0|0,1:0|1:0,0:0:0:0:
63,338,221638,1,2,1:3:0:0:
98,186,222013,1,0,0:0:0:0:
51,37,222388,70,0,B|20:22|-8:26|-8:26,2,60,4|0|4,1:3|0:0|1:3,0:0:0:0:
170,35,223138,2,0,B|201:20|229:24|229:24,2,60,2|0|0,1:3|0:0|1:0,0:0:0:0:
201,155,223888,2,0,B|210:225|206:287|206:287,1,120,0|0,1:0|1:0,0:0:0:0:
308,200,224638,2,0,B|378:191|440:195|440:195,1,120,2|0,1:3|1:0,0:0:0:0:
486,142,225200,1,0,1:0:0:0:
486,142,225388,6,0,B|485:48|374:-15|273:70,1,240,4|2,1:3|1:3,0:0:0:0:
211,109,226513,2,0,B|221:180|214:233|214:233,1,120,0|2,1:0|1:3,0:0:0:0:
161,288,227075,1,0,1:0:0:0:
134,212,227263,1,2,1:3:0:0:
151,57,227638,1,2,1:3:0:0:
26,147,228013,1,0,1:0:0:0:
9,302,228388,6,0,B|81:276|152:297|123:322|209:357|286:311,1,276.000005264282,4|2,1:2|1:3,0:0:0:0:
382,258,229513,1,0,1:0:0:0:
310,157,229888,2,0,B|207:78|109:147|109:147,1,207.000003948212,0|0,1:0|0:0,0:0:0:0:
36,164,230638,2,0,B|52:81|45:9|45:9,1,138.000002632141,2|0,1:3|0:0,0:0:0:0:
173,10,231388,5,4,1:3:0:0:
173,10,231763,1,4,1:3:0:0:
269,109,232138,2,0,B|253:192|260:264|260:264,1,138.000002632141,2|0,1:3|0:0,0:0:0:0:
379,241,232888,2,0,B|366:180|381:104|435:158|427:21,1,207.000003948212,0|0,1:0|1:0,0:0:0:0:
361,4,233638,1,2,1:3:0:0:
253,90,234013,1,0,1:0:0:0:
133,15,234388,69,4,1:3:0:0:
133,15,234763,1,4,1:3:0:0:
163,132,235138,2,0,B|173:211|170:268|170:268,1,128.399996081543,2|0,1:3|0:0,0:0:0:0:
166,382,235888,1,0,1:0:0:0:
271,323,236263,1,0,1:0:0:0:
388,353,236638,2,0,B|463:378|529:328|529:328,1,128.399996081543,2|0,1:3|0:0,0:0:0:0:
489,221,237388,6,0,B|484:175|491:137|491:137,2,60,4|0|4,1:3|0:0|1:3,0:0:0:0:
376,179,238138,2,0,B|361:137|361:105|361:105,2,60,2|0|0,1:3|0:0|0:0,0:0:0:0:
296,269,238888,1,0,1:0:0:0:
236,166,239263,2,0,B|186:148|151:150|151:150,1,60,0|0,1:0|0:0,0:0:0:0:
103,177,239638,1,2,1:3:0:0:
121,298,240013,2,0,B|176:323|201:323|201:323,1,60,0|0,0:0|0:0,0:0:0:0:
245,279,240388,38,0,B|311:268|317:307|379:282|379:283,1,120,0|0,0:0|3:3,0:0:0:0:
426,184,241138,2,0,B|412:140|436:52|436:52,1,120,0|4,0:0|0:3,0:0:0:0:
326,10,241888,1,0,0:0:0:0:
240,91,242263,1,4,0:3:0:0:
240,91,242638,2,0,B|196:115|98:104|98:104,1,120,0|0,3:3|0:0,0:0:0:0:
39,193,243388,5,4,0:3:0:0:
39,193,243763,1,4,0:3:0:0:
122,278,244138,2,0,B|98:280|196:269|240:293,1,120,0|4,0:0|0:3,0:0:0:0:
329,217,244888,2,0,B|327:156|345:75|345:75,1,120,0|4,0:0|0:3,0:0:0:0:
461,96,245638,2,0,B|479:177|477:238|477:238|477:238,1,120,0|0,3:3|0:0,0:0:0:0:
405,314,246388,101,4,0:3:0:0:
405,314,246763,1,4,0:3:0:0:
246,83,248638,1,4,0:3:0:0:
254,320,249388,5,4,0:3:0:0:
254,320,249763,1,4,0:3:0:0:
246,83,251638,1,4,0:3:0:0:
