osu file format v14

[General]
AudioFilename: audio.mp3
AudioLeadIn: 0
PreviewTime: 200902
Countdown: 1
SampleSet: Normal
StackLeniency: 0.5
Mode: 0
LetterboxInBreaks: 0
WidescreenStoryboard: 0

[Editor]
Bookmarks: 23307,46622,69936,86388,91874,113817,135760,157702,179645,190617,196102,201588,223531,245474,267417
DistanceSpacing: 1.1
BeatDivisor: 4
GridSize: 32
TimelineZoom: 2.2

[Metadata]
Title:Celestial
TitleUnicode:Celestial
Artist:Paper Skies
ArtistUnicode:Paper Skies
Creator:NnoTeka
Version:rabotyaga
Source:
Tags:слайдер Slider ползунок
BeatmapID:2093944
BeatmapSetID:1000490

[Difficulty]
HPDrainRate:5
CircleSize:4
OverallDifficulty:8
ApproachRate:9.6
SliderMultiplier:3.1
SliderTickRate:1

[Events]
//Background and Video events
0,0,"f001394c40f832feea31d541ddd422dec727492a_s2_n2.jpg",0,0
//Break Periods
2,32416,44045
2,229130,266367
//Storyboard Layer 0 (Background)
//Storyboard Layer 1 (Fail)
//Storyboard Layer 2 (Pass)
//Storyboard Layer 3 (Foreground)
//Storyboard Layer 4 (Overlay)
//Storyboard Sound Samples

[TimingPoints]
1360,342.857142857143,4,1,0,30,1,0
1360,-166.666666666667,4,1,0,30,0,0
1702,-250,4,1,0,30,0,0
12331,-166.666666666667,4,1,0,30,0,0
12674,-250,4,1,0,30,0,0
14388,-166.666666666667,4,1,0,30,0,0
14731,-222.222222222222,4,1,0,30,0,0
17817,-166.666666666667,4,1,0,30,0,0
18160,-250,4,1,0,30,0,0
20217,-333.333333333333,4,1,0,30,0,0
23302,-200,4,1,0,30,0,0
24502,-400,4,1,0,30,0,0
25702,-250,4,1,0,30,0,0
26045,-333.333333333333,4,1,0,30,0,0
26388,-200,4,1,0,30,0,0
27245,-333.333333333333,4,1,0,30,0,0
28445,-166.666666666667,4,1,0,30,0,0
29988,-333.333333333334,4,1,0,30,0,0
31531,-200,4,1,0,30,0,0
40960,-250,4,1,0,30,0,0
46617,-250,4,3,10,30,0,0
47217,-111.111111111111,4,3,10,30,0,0
47645,-90.9090909090909,4,3,10,30,0,0
48331,-200,4,3,10,30,0,0
53474,-133.333333333333,4,3,10,30,0,0
53817,-200,4,3,10,30,0,0
58960,-133.333333333333,4,3,10,30,0,0
66674,-105.263157894737,4,3,10,30,0,0
68217,-153.846153846153,4,3,10,30,0,0
68388,-95.2380952380951,4,3,10,30,0,0
69931,-80,4,1,0,30,0,0
70960,-138.888888888889,4,1,0,30,0,0
75074,-111.111111111111,4,1,0,30,0,0
75417,-80,4,1,0,30,0,0
76445,-142.857142857143,4,1,0,30,0,0
80902,-80,4,1,0,30,0,0
81417,-100,4,1,0,30,0,0
81931,-200,4,1,0,30,0,0
86388,-83.3333333333333,4,1,0,30,0,0
89131,-142.857142857143,4,1,0,30,0,0
91188,-200,4,1,0,30,0,0
91874,-83.3333333333333,4,1,0,100,0,1
92560,-166.666666666667,4,1,0,100,0,1
93074,-83.3333333333333,4,1,0,100,0,1
93931,-125,4,1,0,100,0,1
94102,-100,4,1,0,100,0,1
94617,-83.3333333333333,4,1,0,100,0,1
95302,-250,4,1,0,100,0,1
95817,-83.3333333333333,4,1,0,100,0,1
96674,-133.333333333333,4,1,0,100,0,1
97360,-83.3333333333333,4,1,0,100,0,1
98045,-200,4,1,0,100,0,1
98560,-100,4,1,0,100,0,1
100102,-83.3333333333333,4,1,0,100,0,1
100788,-166.666666666667,4,1,0,100,0,1
101302,-83.3333333333333,4,1,0,100,0,1
101645,-166.666666666667,4,1,0,100,0,1
101817,-83.3333333333333,4,1,0,100,0,1
102160,-166.666666666667,4,1,0,100,0,1
102331,-113.636363636364,4,1,0,100,0,1
102845,-83.3333333333333,4,1,0,100,0,1
103531,-166.666666666667,4,1,0,100,0,1
104045,-83.3333333333333,4,1,0,100,0,1
104388,-125,4,1,0,100,0,1
104560,-83.3333333333333,4,1,0,100,0,1
104902,-166.666666666667,4,1,0,100,0,1
105074,-83.3333333333333,4,1,0,100,0,1
106274,-222.222222222222,4,1,0,100,0,1
106788,-111.111111111111,4,1,0,100,0,1
107302,-83.3333333333333,4,1,0,100,0,1
109017,-200,4,1,0,100,0,1
109531,-83.3333333333333,4,1,0,100,0,1
109874,-166.666666666667,4,1,0,100,0,1
110045,-83.3333333333333,4,1,0,100,0,1
110560,-100,4,1,0,100,0,1
111074,-83.3333333333333,4,1,0,100,0,1
111760,-166.666666666667,4,1,0,100,0,1
112274,-83.3333333333333,4,1,0,100,0,1
112788,-62.5,4,1,0,100,0,1
113131,-100,4,1,0,100,0,0
113302,-142.857142857143,4,1,0,100,0,0
113474,-166.666666666667,4,1,0,100,0,0
113645,-200,4,1,0,100,0,0
113817,-83.3333333333333,4,1,0,100,0,1
114502,-125,4,1,0,100,0,1
115017,-83.3333333333333,4,1,0,100,0,1
115874,-166.666666666667,4,1,0,100,0,1
116045,-83.3333333333333,4,1,0,100,0,1
116731,-90.9090909090909,4,1,0,100,0,1
116902,-100,4,1,0,100,0,1
117074,-111.111111111111,4,1,0,100,0,1
117245,-133.333333333333,4,1,0,100,0,1
117760,-83.3333333333333,4,1,0,100,0,1
118102,-250,4,1,0,100,0,1
118274,-83.3333333333333,4,1,0,100,0,1
118617,-166.666666666667,4,1,0,100,0,1
118788,-83.3333333333333,4,1,0,100,0,1
119474,-76.9230769230769,4,1,0,100,0,1
119645,-71.4285714285714,4,1,0,100,0,1
119817,-66.6666666666667,4,1,0,100,0,1
121360,-133.333333333333,4,1,0,100,0,1
121531,-83.3333333333333,4,1,0,100,0,1
122217,-76.9230769230769,4,1,0,100,0,1
122388,-71.4285714285714,4,1,0,100,0,1
122560,-66.6666666666667,4,1,0,100,0,1
123588,-222.222222222221,4,1,0,100,0,1
123760,-74.0740740740741,4,1,0,100,0,1
124102,-166.666666666667,4,1,0,100,0,1
124274,-83.3333333333333,4,1,0,100,0,1
124617,-166.666666666667,4,1,0,100,0,1
124788,-62.5,4,1,0,100,0,1
124960,-58.8235294117647,4,1,0,100,0,1
125131,-55.5555555555556,4,1,0,100,0,1
125302,-52.6315789473684,4,1,0,100,0,1
125817,-200,4,1,0,100,0,1
125988,-66.6666666666667,4,1,0,100,0,1
126845,-133.333333333333,4,1,0,100,0,1
127017,-62.5,4,1,0,100,0,1
127531,-50,4,1,0,100,0,1
127702,-47.6190476190476,4,1,0,100,0,1
127874,-45.4545454545455,4,1,0,100,0,1
128045,-43.4782608695652,4,1,0,100,0,1
128388,-100,4,1,0,100,0,1
128731,-66.6666666666667,4,1,0,100,0,1
129074,-250,4,1,0,100,0,1
129245,-83.3333333333333,4,1,0,100,0,1
129588,-166.666666666667,4,1,0,100,0,1
129760,-74.0740740740741,4,1,0,100,0,1
131474,-66.6666666666667,4,1,0,100,0,1
133017,-50,4,1,0,100,0,1
133188,-45.4545454545455,4,1,0,100,0,1
133360,-50,4,1,0,100,0,1
133531,-45.4545454545455,4,1,0,100,0,1
133702,-100,4,1,0,100,0,1
134217,-45.4545454545455,4,1,0,100,0,1
134388,-50,4,1,0,100,0,1
134560,-200,4,1,0,100,0,1
134731,-50,4,1,0,100,0,1
135760,-100,4,1,0,100,0,0
135931,-50,4,1,0,30,0,0
136102,-166.666666666667,4,1,0,30,0,0
138160,-250,4,1,0,30,0,0
143645,-222.222222222222,4,1,0,30,0,0
174502,-181.818181818182,4,1,0,30,0,0
179645,-333.333333333333,4,1,0,30,0,0
179988,-200,4,1,0,30,0,0
185131,-100,4,1,0,30,0,0
185645,-133.333333333333,4,1,0,30,0,0
190617,-100,4,1,0,30,0,0
190788,-200,4,1,0,30,0,0
190960,-100,4,1,0,30,0,0
191131,-200,4,1,0,30,0,0
191302,-100,4,1,0,30,0,0
191817,-200,4,1,0,30,0,0
191988,-100,4,1,0,30,0,0
192502,-200,4,1,0,30,0,0
192674,-100,4,1,0,30,0,0
192845,-200,4,1,0,30,0,0
193360,-100,4,1,0,30,0,0
193531,-200,4,1,0,30,0,0
193702,-100,4,1,0,30,0,0
193874,-200,4,1,0,30,0,0
194388,-100,4,1,0,30,0,0
194560,-200,4,1,0,30,0,0
194731,-100,4,1,0,30,0,0
197131,-83.3333333333333,4,1,0,30,0,0
197474,-71.4285714285714,4,1,0,30,0,0
197817,-66.6666666666667,4,1,0,30,0,0
198160,-62.5,4,1,0,30,0,0
198502,-55.5555555555556,4,1,0,30,0,0
198845,-83.3333333333333,4,1,0,30,0,0
201588,-45.4545454545455,4,1,0,100,0,0
203131,-43.4782608695652,4,1,0,100,0,0
203302,-41.6666666666667,4,1,0,100,0,0
203474,-40,4,1,0,100,0,0
203817,-100,4,1,0,100,0,0
203988,-125,4,1,0,100,0,0
204331,-40,4,1,0,100,0,0
206388,-100,4,1,0,100,0,0
207074,-40,4,1,0,100,0,0
207417,-33.3333333333333,4,1,0,100,0,0
207760,-40,4,1,0,100,0,0
208102,-33.3333333333333,4,1,0,100,0,0
208445,-40,4,1,0,100,0,0
208788,-33.3333333333333,4,1,0,100,0,0
209131,-100,4,1,0,100,0,0
209817,-40,4,1,0,100,0,0
210160,-33.3333333333333,4,1,0,100,0,0
210502,-40,4,1,0,100,0,0
210845,-33.3333333333333,4,1,0,100,0,0
211188,-40,4,1,0,100,0,0
211531,-33.3333333333333,4,1,0,100,0,0
211874,-66.6666666666667,4,1,0,100,0,0
212560,-40,4,1,0,100,0,0
212902,-33.3333333333333,4,1,0,100,0,0
215045,-100,4,1,0,100,0,0
215302,-33.3333333333333,4,1,0,100,0,0
217360,-100,4,1,0,100,0,0
218045,-50,4,1,0,100,0,0
218388,-28.5714285714286,4,1,0,100,0,0
218731,-100,4,1,0,100,0,0
218902,-66.6666666666667,4,1,0,100,0,0
219074,-28.5714285714286,4,1,0,100,0,0
220445,-100,4,1,0,100,0,0
220788,-50,4,1,0,100,0,0
221131,-28.5714285714286,4,1,0,100,0,0
222845,-50,4,1,0,100,0,0
223188,-100,4,1,0,100,0,0
223531,-33.3333333333333,4,1,0,100,0,0
223874,-64.5161290322581,4,1,0,100,0,0
267417,-666.666666666667,4,1,0,100,0,0

[HitObjects]
100,144,1360,6,0,P|92:205|105:253,1,92.9999971618653
143,318,1702,2,0,B|182:299|242:286|274:386|308:288|447:335|447:335|410:259|332:293|288:269|285:205|298:118|367:143|364:156,1,589
407,198,3417,2,0,P|424:164|423:127,1,62
334,68,3760,6,0,B|235:77|238:206|124:211,1,248
386,34,6845,5,0,0:0:0:0:
427,167,7017,1,0,0:0:0:0:
290,211,7188,6,0,B|244:177|236:156|262:95|290:86|345:118|354:139|337:194|337:194|308:272|335:331|421:352|459:284|426:228|392:250,1,496
217,295,8902,5,0,0:0:0:0:
106,330,9074,1,0,0:0:0:0:
2,364,9245,2,0,P|24:257|167:237,1,248
198,42,12331,6,0,B|245:62|245:62|306:66,1,92.9999971618653
380,58,12674,2,0,B|404:37|430:33|463:38|494:82|492:113|442:155|414:153|411:222|440:273|440:273|411:222|340:197|281:196|235:236|209:274|203:301,1,589
277,319,14388,2,0,P|301:295|371:308,1,92.9999971618653
442,274,14731,6,0,B|400:204|261:178|206:291,1,278.999991485596
55,39,17817,6,0,P|85:74|80:136,1,92.9999971618653
51,200,18160,2,0,B|16:270|21:324|71:380|132:383|189:324|193:277|166:208|166:208|140:142|139:62|272:52|301:106|286:155,1,620
274,211,20045,1,0,0:0:0:0:
288,309,20217,2,0,P|343:281|350:151,1,185.999994323731
303,28,23302,6,0,P|325:66|379:91,1,77.5
471,73,23645,2,0,B|443:41|443:41|411:182,1,155
331,172,24331,1,0,0:0:0:0:
445,246,24502,2,0,L|454:346,1,77.5
357,295,25017,2,0,L|287:341,1,77.5
208,310,25531,1,0,0:0:0:0:
191,220,25702,2,0,L|258:229,1,62
380,180,26045,6,0,L|353:137,1,46.4999985809327
301,58,26388,2,0,P|263:100|274:196,1,155
358,238,27074,1,0,0:0:0:0:
278,191,27245,2,0,L|186:241,1,92.9999971618653
132,170,27760,2,0,L|71:256,1,92.9999971618653
23,327,28274,1,0,0:0:0:0:
117,362,28445,2,0,L|119:335,7,23.2499992904663
171,248,28788,6,0,P|209:281|222:335,1,92.9999971618653
305,358,29131,2,0,B|332:295|281:265|304:188|336:169,1,185.999994323731
426,119,29817,1,0,0:0:0:0:
458,221,29988,2,0,P|401:223|367:206,1,92.9999971618653
318,85,30502,2,0,P|318:121|282:173,1,92.9999971618653
205,188,31017,1,0,0:0:0:0:
162,117,31188,2,0,P|188:105|212:104,1,46.4999985809327
280,175,31531,6,0,P|279:205|307:252,1,77.5
388,256,31874,2,0,P|357:240|259:307,1,155
256,192,45245,12,0,46445,0:0:0:0:
182,57,46617,5,0,0:0:0:0:
173,178,46960,2,0,P|194:151|197:142,1,31,8|0,0:0|0:0,0:0:0:0:
270,204,47217,2,0,P|285:159|278:122,1,69.749997871399,8|0,0:0|0:0,0:0:0:0:
182,57,47474,1,0,0:0:0:0:
339,77,47645,2,0,B|301:43|250:56,1,85.2500026016236,8|0,0:0|0:0,0:0:0:0:
259,58,47817,1,0,0:0:0:0:
259,58,47902,1,0,0:0:0:0:
339,77,47988,6,0,P|370:131|480:185,1,170.500005203247
456,263,48331,5,8,0:0:0:0:
417,265,48416,1,0,0:0:0:0:
384,285,48502,1,0,0:0:0:0:
364,317,48588,5,8,0:0:0:0:
343,287,48673,1,0,0:0:0:0:
308,273,48759,1,0,0:0:0:0:
270,277,48845,5,0,0:0:0:0:
270,277,48931,1,0,0:0:0:0:
278,309,49017,5,8,0:0:0:0:
270,346,49102,1,0,0:0:0:0:
241,371,49188,1,0,0:0:0:0:
204,376,49274,1,0,0:0:0:0:
174,358,49360,2,0,P|194:329|214:317,3,38.75
85,274,49702,5,8,0:0:0:0:
117,253,49788,1,0,0:0:0:0:
131,217,49874,1,0,0:0:0:0:
125,178,49960,5,8,0:0:0:0:
161,190,50045,1,0,0:0:0:0:
199,189,50131,1,0,0:0:0:0:
234,172,50217,2,0,P|251:155|264:130,1,38.75
266,63,50388,5,8,0:0:0:0:
301,78,50474,1,0,0:0:0:0:
325,108,50560,1,0,0:0:0:0:
332,145,50645,1,0,0:0:0:0:
317,181,50731,2,0,P|293:212|264:231,3,38.75
219,258,51074,5,8,0:0:0:0:
250,280,51160,1,0,0:0:0:0:
286,291,51245,1,0,0:0:0:0:
324,285,51331,5,8,0:0:0:0:
311,321,51417,1,0,0:0:0:0:
281,345,51502,1,0,0:0:0:0:
242,349,51588,2,0,P|218:346|195:336,1,38.75
143,278,51760,5,8,0:0:0:0:
115,305,51845,1,0,0:0:0:0:
104,342,51931,2,0,P|103:368|110:386,1,38.75
44,270,52102,2,0,P|29:290|17:318,3,38.75
74,185,52445,5,8,0:0:0:0:
59,148,52531,1,0,0:0:0:0:
57,109,52617,1,0,0:0:0:0:
66,71,52702,2,0,P|85:48|102:38,1,38.75,8|0,0:0|0:0,0:0:0:0:
157,138,52874,5,8,0:0:0:0:
145,161,52960,2,0,L|155:211,1,38.75
203,267,53131,5,8,0:0:0:0:
241,259,53217,1,0,0:0:0:0:
305,305,53302,5,8,0:0:0:0:
342,294,53388,1,0,0:0:0:0:
388,229,53474,6,0,B|435:238|435:238|477:331,1,116.250004434586
415,360,53817,5,8,0:0:0:0:
376,362,53902,1,0,0:0:0:0:
337,365,53988,1,0,0:0:0:0:
298,365,54074,5,8,0:0:0:0:
295,326,54160,1,0,0:0:0:0:
292,287,54245,1,0,0:0:0:0:
290,248,54331,6,0,L|286:185,3,38.75,0|0|8|0,0:0|0:0|0:0|0:0,0:0:0:0:
307,139,54674,6,0,P|339:157|353:183,1,38.75
440,202,54845,2,0,P|409:209|387:204,3,38.75
410,131,55188,5,8,0:0:0:0:
437,104,55274,1,0,0:0:0:0:
474,95,55360,1,0,0:0:0:0:
512,102,55445,2,0,P|510:130|494:154,1,38.75,8|0,0:0|0:0,0:0:0:0:
380,28,55617,5,8,0:0:0:0:
354,46,55702,2,0,P|336:73|334:105,1,38.75
325,166,55874,5,8,0:0:0:0:
329,204,55960,1,0,0:0:0:0:
382,271,56045,5,8,0:0:0:0:
419,279,56131,1,0,0:0:0:0:
489,239,56217,6,0,P|457:264|447:280,3,38.75
462,358,56560,5,8,0:0:0:0:
423,352,56645,1,0,0:0:0:0:
389,332,56731,1,0,0:0:0:0:
365,300,56817,5,8,0:0:0:0:
326,297,56902,1,0,0:0:0:0:
288,305,56988,1,0,0:0:0:0:
254,325,57074,2,0,P|232:348|219:372,3,38.75,0|0|8|0,0:0|0:0|0:0|0:0,0:0:0:0:
143,340,57417,6,0,P|161:306|172:290,1,38.75
116,234,57588,2,0,P|152:222|179:220,1,38.75
247,198,57760,5,0,0:0:0:0:
241,159,57845,1,0,0:0:0:0:
225,123,57931,5,8,0:0:0:0:
260,139,58017,1,0,0:0:0:0:
298,143,58102,1,0,0:0:0:0:
335,131,58188,2,0,P|351:121|368:100,1,38.75,8|0,0:0|0:0,0:0:0:0:
411,165,58360,5,8,0:0:0:0:
391,197,58445,2,0,L|391:269,1,38.75
422,330,58617,5,0,0:0:0:0:
349,305,58702,1,0,0:0:0:0:
271,303,58788,1,0,0:0:0:0:
201,338,58874,1,0,0:0:0:0:
126,363,58960,2,0,P|98:328|101:209,1,116.250004434586
117,148,59302,5,0,0:0:0:0:
158,169,59388,1,0,0:0:0:0:
203,177,59474,1,0,0:0:0:0:
249,173,59560,5,0,0:0:0:0:
236,128,59645,1,0,0:0:0:0:
197,101,59731,1,0,0:0:0:0:
150,95,59817,6,0,P|168:62|222:55,1,58.1250022172929
272,42,59988,5,0,0:0:0:0:
310,69,60074,1,0,0:0:0:0:
332,109,60160,1,0,0:0:0:0:
339,154,60245,1,0,0:0:0:0:
323,197,60331,2,0,P|307:219|269:251,3,58.1250022172929
203,277,60674,5,0,0:0:0:0:
235,310,60760,1,0,0:0:0:0:
276,329,60845,1,0,0:0:0:0:
322,329,60931,5,0,0:0:0:0:
278,312,61017,1,0,0:0:0:0:
232,319,61102,1,0,0:0:0:0:
191,342,61188,2,0,P|164:366|147:389,1,58.1250022172929
105,265,61360,5,0,0:0:0:0:
92,309,61445,1,0,0:0:0:0:
59,341,61531,1,0,0:0:0:0:
13,349,61617,1,0,0:0:0:0:
26,273,61702,2,0,P|30:234|45:209,3,58.1250022172929
100,148,62045,5,0,0:0:0:0:
140,171,62131,1,0,0:0:0:0:
186,178,62217,1,0,0:0:0:0:
230,165,62302,5,0,0:0:0:0:
210,122,62388,1,0,0:0:0:0:
213,75,62474,1,0,0:0:0:0:
233,33,62560,2,0,P|259:59|243:117,1,58.1250022172929
230,165,62731,5,0,0:0:0:0:
186,178,62817,1,0,0:0:0:0:
160,216,62902,2,0,P|160:244|186:296,1,58.1250022172929
266,278,63074,2,0,P|238:239|208:224,3,58.1250022172929
192,301,63417,5,0,0:0:0:0:
206,344,63502,1,0,0:0:0:0:
245,368,63588,1,0,0:0:0:0:
291,368,63674,5,0,0:0:0:0:
291,368,63760,1,0,0:0:0:0:
352,269,63845,5,0,0:0:0:0:
352,269,63931,2,0,P|349:300|325:338,1,58.1250022172929
408,205,64102,6,0,P|434:253|432:282,1,58.1250022172929
401,122,64274,2,0,P|439:127|476:155,1,58.1250022172929
397,38,64445,6,0,P|336:71|312:133,1,116.250004434586
313,127,64702,1,0,0:0:0:0:
298,211,64788,5,0,0:0:0:0:
264,243,64874,1,0,0:0:0:0:
218,255,64960,1,0,0:0:0:0:
172,248,65045,5,0,0:0:0:0:
176,294,65131,1,0,0:0:0:0:
206,329,65217,1,0,0:0:0:0:
251,338,65302,2,0,P|290:333|323:318,1,58.1250022172929
421,257,65474,1,0,0:0:0:0:
429,273,65560,1,0,0:0:0:0:
435,288,65645,6,0,P|419:327|365:360,1,58.1250022172929
486,231,65817,2,0,P|508:265|513:294,3,58.1250022172929
503,144,66160,5,0,0:0:0:0:
461,163,66245,1,0,0:0:0:0:
414,163,66331,1,0,0:0:0:0:
369,149,66417,1,0,0:0:0:0:
369,149,66502,2,0,P|357:112|368:77,1,58.1250022172929
435,54,66674,2,0,P|396:79|288:89,1,147.249996068001
227,62,66931,1,0,0:0:0:0:
151,84,67017,2,0,P|176:123|223:139,1,73.6249980340005
276,166,67188,6,0,P|245:206|206:220,3,73.6249980340005
141,219,67531,5,0,0:0:0:0:
157,275,67617,1,0,0:0:0:0:
205,307,67702,1,0,0:0:0:0:
264,310,67788,5,0,0:0:0:0:
302,354,67874,1,0,0:0:0:0:
359,367,67960,1,0,0:0:0:0:
414,348,68045,2,0,P|439:303|445:263,1,73.6249980340005
353,238,68217,2,0,L|370:287,1,50.3749976940156
432,182,68388,6,0,P|401:152|343:144,1,81.3749975166322
328,62,68560,2,0,P|291:95|277:137,3,81.3749975166322
283,203,68902,5,0,0:0:0:0:
283,203,68988,2,0,P|234:191|205:147,1,81.3749975166322
163,97,69160,5,0,0:0:0:0:
163,97,69245,2,0,P|140:128|84:140,1,81.3749975166322
21,180,69417,2,0,P|54:218|86:228,1,81.3749975166322
203,222,69588,5,0,0:0:0:0:
256,331,69674,1,0,0:0:0:0:
374,360,69760,1,0,0:0:0:0:
472,289,69845,1,0,0:0:0:0:
441,170,69931,2,0,B|407:242|286:272|204:221|204:221|268:254|337:226,1,387.5
232,46,70445,6,0,P|252:147|233:45,1,387.5
81,82,70960,6,0,B|81:140|25:158|-11:147|-36:101|-37:28|15:-5|95:-7|175:12|185:124|123:203|123:203|68:272|65:358|65:358|76:286|119:228|184:187|241:177|289:208|304:257|264:299|209:289|209:289|220:356|348:355|346:251|333:225|333:225|318:195|303:102|401:87|416:129|421:192|396:227|396:227|362:273|355:355|436:362|467:330|469:300|454:280|431:284,1,1729.80004223145
291,28,74731,6,0,P|272:44|249:79,1,55.8000013623047
182,47,74902,2,0,P|181:86|199:129,1,55.8000013623047
203,256,75074,6,0,P|156:232|110:231,1,69.749997871399
126,151,75245,2,0,P|97:164|63:202,1,69.749997871399
34,302,75417,6,0,B|67:339|115:308|138:315|123:366|204:380|238:368|238:368|306:348|332:421|321:343|375:323|430:336,1,387.5
489,236,75931,6,0,B|439:184|377:189|327:231|297:303|266:285|183:265|215:296|144:246|125:208,1,387.5
186,28,76445,6,0,B|165:155|7:157|7:157|17:58|111:6|111:6|108:190|64:200|6:211|13:308|13:308|22:382|84:409|141:348|88:287|88:287|141:348|221:368|303:341|303:341|359:319|400:299|419:293|419:293|485:271|551:319|515:270|509:233|461:157|392:191|346:239|305:256|305:256|273:173|299:75|365:54|365:54|332:79|323:117,1,1952.99994039917
407,120,80217,1,0,0:0:0:0:
323,97,80902,6,0,B|233:134|108:119|60:44|60:44|106:79|156:80,1,387.5
55,144,81417,2,0,B|102:171|141:288|72:371|72:371|87:325|80:286,1,310
184,201,81931,6,0,B|258:184|309:304|252:368|252:368|209:291|315:197|434:248|434:248|558:296|584:139|415:78|353:185|362:295|379:349|379:349|337:317|320:258|313:156|340:114|380:70|420:46|420:46|349:57|315:109,1,1395
97,57,86388,6,0,B|172:93|146:206|74:252|110:371|230:342|203:264,2,371.999988647461
13,25,87417,1,0,0:0:0:0:
225,86,87760,6,0,B|241:202|347:261|401:212|401:212|394:127|305:129,2,371.999988647461
270,14,88788,1,0,0:0:0:0:
74,56,89131,6,0,P|66:91|68:113,1,54.2499983444214
111,202,89302,2,0,P|128:161|121:128,1,54.2499983444214
29,77,89474,2,0,P|49:112|70:121,1,54.2499983444214
310,222,89645,6,0,P|322:195|322:149,1,54.2499983444214
213,187,89817,2,0,P|206:229|218:268,1,54.2499983444214
309,156,89988,2,0,P|291:122|260:99,1,54.2499983444214
220,248,90160,6,0,P|237:285|264:304,1,54.2499983444214
309,327,90331,2,0,P|341:337|390:329,1,54.2499983444214
440,299,90502,2,0,P|418:268|375:249,1,54.2499983444214
347,184,90674,6,0,P|321:218|315:246,1,54.2499983444214
432,172,90845,2,0,P|418:134|383:101,1,54.2499983444214
314,43,91017,2,0,P|288:30|243:26,1,54.2499983444214
35,128,91188,6,0,B|-23:201|-22:321|102:323|112:270|104:239|79:224,1,271.25
383,126,91874,6,0,B|396:151|441:137|454:85|441:33|365:22|314:45|299:98|305:138|318:161|318:161|305:138|279:110|194:77|102:151|166:261|207:259|261:242|268:198|249:195|249:195|268:198|261:242,1,650.999980133057,4|0,0:0|0:0,0:0:0:0:
232,329,92560,6,0,P|165:319|86:217,1,185.999994323731,8|0,0:0|0:0,0:0:0:0:
78,47,93074,6,0,B|96:36|130:56|129:107|78:134|45:156|23:184|23:184|45:156|78:134|152:149|166:207,1,371.999988647461,4|0,0:0|0:0,0:0:0:0:
211,264,93588,6,0,B|268:216|230:140|179:104|179:104|230:140|306:112,1,278.999991485596,4|0,0:0|0:0,0:0:0:0:
341,77,93931,2,0,P|309:41|247:36,1,62,8|0,0:0|0:0,0:0:0:0:
293,43,94102,2,0,B|362:79|378:204|324:247|324:247|336:202|321:156,1,310,4|0,0:0|0:0,0:0:0:0:
108,111,94617,6,0,B|103:89|106:49|125:21|125:21|45:79|41:159|75:223|140:241|140:241|75:223|-4:242|-7:369|110:367|153:343,1,650.999980133057
222,200,95302,2,0,P|232:251|208:315,1,93
189,327,95645,1,0,0:0:0:0:
343,355,95817,6,0,P|339:150|462:46,1,371.999988647461
496,49,96331,6,0,P|351:151|337:313,1,278.999991485596
434,269,96674,6,0,L|451:344,1,58.1250022172929
453,274,96845,6,0,L|470:349,1,58.1250022172929
447,176,97017,6,0,P|462:191|469:210,1,29.0625011086464
468,169,97102,2,0,P|467:193|454:213,1,29.0625011086464
487,178,97188,2,0,P|471:193|453:200,1,29.0625011086464
493,199,97274,2,0,P|469:197|450:186,1,29.0625011086464
299,299,97360,6,0,B|276:353|226:374|170:361|135:338|112:280|116:229|200:168|216:227|230:255|225:268|225:268|230:255|216:227|200:168|132:116|175:62|225:24|292:64|302:138|240:152|228:113,1,650.999980133057
285,196,98045,2,0,P|317:174|336:87,1,116.25
317,28,98388,1,0,0:0:0:0:
466,110,98560,6,0,P|401:185|459:379,1,310
450,372,99074,2,0,P|314:306|228:328,1,232.5
184,372,99417,2,0,P|214:338|262:313,1,77.5
293,204,99588,6,0,B|226:204|126:257|94:334|94:334|126:257,1,310
30,190,100102,6,0,B|11:236|23:283|23:283|-38:136|60:154|12:8|12:8|108:131|155:53|224:203,1,650.999980133057
183,256,100788,2,0,P|234:262|296:180,1,139.499995742798
332,136,101131,2,0,P|359:162|375:202,1,46.4999985809327
363,169,101302,2,0,P|342:117|143:66,1,278.999991485596
89,123,101645,2,0,P|122:144|145:148,1,46.4999985809327
128,145,101817,2,0,P|43:220|114:377,1,278.999991485596
170,359,102160,2,0,P|162:325|143:304,1,46.4999985809327
155,315,102331,2,0,B|313:340|313:340|326:349|326:349|506:373,1,341.000010406494
423,249,102845,6,0,B|430:233|378:227|370:279|405:311|442:310|482:297|489:249|455:203|455:203|418:147|391:75|474:29|474:29|485:118|341:114|345:47|277:115|312:158,1,650.999980133057
323,214,103531,2,0,P|267:209|221:144,1,139.499995742798
230,62,103874,1,0,0:0:0:0:
92,37,104045,6,0,P|66:137|227:338,1,371.999988647461
239,329,104560,2,0,P|110:240|86:100,1,278.999991485596
211,44,104902,6,0,P|217:68|211:114,1,46.4999985809327
217,90,105074,2,0,B|276:22|455:-22|508:66|482:151|400:149|353:102,1,371.999988647461
316,192,105588,6,0,B|308:166|249:185|246:224|265:264|331:264|369:220|415:237|406:336|354:406|319:407|272:392|278:318|243:299|188:278|150:269|108:229|94:163|-7:188|-26:248|-9:298|45:342|96:306,1,650.999980133057
162,373,106274,2,0,B|130:313|82:352|20:292,1,139.499995742798
28,130,106788,6,0,B|150:42|170:136|294:47,1,278.999991485596
291,50,107302,2,0,B|222:164|295:201|209:319,1,278.999991485596
110,285,107645,6,0,P|103:326|136:392,1,92.9999971618653
118,373,107817,2,0,P|124:331|91:265,1,92.9999971618653
30,157,107988,6,0,P|43:136|69:118,1,46.4999985809327
15,120,108074,2,0,P|55:120|77:135,1,46.4999985809327
33,87,108160,2,0,P|50:103|62:133,1,46.4999985809327
72,80,108246,2,0,P|64:119|44:138,1,46.4999985809327
172,72,108331,6,0,B|177:146|125:199|125:199|240:82|358:111|437:177|438:269|357:302|325:262|325:262|381:336,1,650.999980133057
310,361,109017,6,0,L|234:260,1,116.25
225,248,109360,1,0,0:0:0:0:
426,27,109531,6,0,P|503:131|442:360,1,371.999988647461
422,358,110045,2,0,P|497:222|463:87,1,278.999991485596
288,33,110388,6,0,P|309:59|385:45,1,92.9999971618653
365,62,110560,2,0,B|332:89|274:60|270:13|270:13|254:109|329:149|267:231|220:251,1,387.5
44,351,111074,6,0,B|68:311|92:206|16:90|16:90|113:186|52:276|170:382|299:339,1,650.999980133057
355,266,111760,6,0,P|315:323|238:348,1,139.499995742798
266,262,112102,1,0,0:0:0:0:
334,126,112274,6,0,B|415:146|488:262|469:360|469:360|460:308|435:279,1,371.999988647461
143,69,112788,6,0,B|225:37|348:74|401:164|401:164|356:127|317:122,1,372
255,133,113131,6,0,P|230:145|182:192,1,77.5
143,244,113302,6,0,P|128:277|121:338,1,54.2499983444214
242,287,113474,6,0,P|207:292|189:300,1,46.4999985809327
346,318,113645,2,0,P|320:301|302:294,1,38.75
410,375,113817,6,0,P|428:313|406:251,1,92.9999971618653
394,207,113988,2,0,P|464:212|496:237,1,92.9999971618653
437,51,114160,6,0,P|422:85|351:115,1,92.9999971618653
292,161,114331,2,0,P|279:95|300:58,1,92.9999971618653
355,25,114502,6,0,P|328:0|256:-1,1,62
167,58,114674,5,0,0:0:0:0:
162,71,114760,1,0,0:0:0:0:
156,85,114845,1,0,0:0:0:0:
121,179,115017,6,0,P|93:194|60:250,1,92.9999971618653
62,245,115188,2,0,P|57:182|-46:102,1,185.999994323731
144,262,115531,6,0,P|166:298|246:326,1,92.9999971618653
241,307,115702,2,0,P|242:264|192:196,1,92.9999971618653
255,143,115874,6,0,P|291:178|300:195,1,46.4999985809327
325,242,116045,6,0,P|358:211|360:149,1,92.9999971618653
351,80,116217,2,0,P|406:88|454:148,1,92.9999971618653
442,274,116560,6,0,P|418:304|341:349,1,92.9999971618653
244,222,116731,2,0,P|284:223|343:260,1,85.2500026016236
260,328,116902,2,0,P|203:321|172:300,1,77.5
136,152,117074,2,0,P|148:186|146:226,1,69.749997871399
85,304,117245,6,0,P|54:269|46:228,1,58.1250022172929
44,124,117417,5,0,0:0:0:0:
88,145,117502,1,0,0:0:0:0:
137,152,117588,2,0,P|183:150|206:138,1,58.1250022172929
256,34,117760,6,0,P|271:83|297:126,1,92.9999971618653
347,179,117931,2,0,P|381:207|436:238,1,92.9999971618653
498,262,118102,2,0,P|520:267|531:267,1,31
427,323,118274,6,0,P|367:301|310:262,1,92.9999971618653
274,239,118445,2,0,P|234:201|201:154,1,92.9999971618653
168,96,118617,2,0,P|140:125|131:148,1,46.4999985809327
120,222,118788,6,0,B|36:184|15:86|117:23|154:102|137:130|137:130|154:102|181:67|272:90|272:90|222:78|188:106,1,495.999984863282
243,169,119302,6,0,P|290:185|320:233,1,92.9999971618653
325,343,119474,6,0,P|300:302|314:251,1,100.749995388031
430,179,119645,6,0,P|385:226|329:237,1,108.499996688843
220,171,119817,6,0,P|286:182|317:223,1,116.250004434586
238,256,119988,5,0,0:0:0:0:
219,291,120074,1,0,0:0:0:0:
190,318,120160,1,0,0:0:0:0:
122,318,120245,1,0,0:0:0:0:
94,238,120331,1,0,0:0:0:0:
141,163,120417,1,0,0:0:0:0:
99,63,120502,6,0,P|57:95|29:160,1,116.250004434586
30,151,120674,2,0,P|52:100|262:118,1,232.500008869171
409,54,121017,6,0,B|372:101|372:101|346:192,1,116.250004434586
356,155,121188,2,0,B|373:99|373:99|416:45,1,116.250004434586
489,89,121360,6,0,L|448:136,1,58.1250022172929
427,226,121531,6,0,P|433:254|496:314,1,92.9999971618653
473,304,121702,2,0,P|437:284|302:331,1,185.999994323731
198,341,122045,6,0,P|243:266|265:240,1,92.9999971618653
228,56,122217,6,0,P|183:131|155:163,1,100.749995388031
198,341,122388,6,0,P|243:266|266:239,1,108.499996688843
228,56,122560,6,0,P|183:131|151:165,1,116.250004434586
74,209,122731,5,0,0:0:0:0:
50,189,122817,1,0,0:0:0:0:
40,158,122902,1,0,0:0:0:0:
43,126,122988,1,0,0:0:0:0:
107,118,123074,1,0,0:0:0:0:
164,152,123160,1,0,0:0:0:0:
180,220,123245,6,0,P|149:264|138:329,1,116.250004434586
137,324,123417,2,0,P|182:290|277:275,1,116.250004434586
319,272,123588,2,0,P|313:301|304:319,1,34.8749989356995
438,236,123760,6,0,P|419:188|325:150,1,104.625000399113
253,54,123931,2,0,P|272:102|366:140,1,104.625000399113
379,58,124102,2,0,L|321:58,1,46.4999985809327
47,33,124274,6,0,L|60:141,1,92.9999971618653
82,310,124445,2,0,L|54:93,1,185.999994323731
181,132,124788,6,0,P|239:144|296:208,1,124
295,345,124960,6,0,P|275:287|312:199,1,131.750002512932,0|0,0:0|0:0,0:0:0:0:
442,145,125131,2,0,P|388:189|296:190,1,139.499995742798,0|0,0:0|0:0,0:0:0:0:
157,135,125302,6,0,P|207:133|291:197,1,147.249996068001
197,225,125474,5,0,0:0:0:0:
55,286,125645,5,0,0:0:0:0:
41,186,125731,1,0,0:0:0:0:
96,97,125817,2,0,P|94:76|86:55,1,38.75
179,57,125988,6,0,P|230:82|302:83,1,116.250004434586
379,63,126160,2,0,P|356:113|431:270,1,232.500008869171
281,344,126502,6,0,P|256:291|201:256,1,116.250004434586
94,248,126674,2,0,P|151:208|174:73,1,116.250004434586
179,57,126845,2,0,P|129:89|119:105,1,58.1250022172929
62,132,127017,6,0,P|60:173|109:262,1,124
127,361,127188,2,0,P|120:288|70:228,1,124
401,74,127531,6,0,P|457:115|496:213,1,155
357,299,127702,6,0,P|301:258|261:158,1,162.749995033264
401,74,127874,6,0,P|457:115|495:214,1,170.500005203247
357,299,128045,6,0,P|301:258|261:153,1,178.250003399849
267,25,128217,5,0,0:0:0:0:
260,53,128302,1,0,0:0:0:0:
241,77,128388,2,0,P|203:102|130:96,1,77.5
80,113,128560,2,0,P|89:152|127:190,1,77.5
217,179,128731,6,0,P|208:238|167:278,1,116.250004434586
170,277,128902,2,0,P|210:251|302:265,1,116.250004434586
347,299,129074,2,0,P|359:319|366:346,1,31
443,369,129245,6,0,P|447:298|429:256,1,92.9999971618653
401,212,129417,2,0,P|358:176|294:167,1,92.9999971618653
252,175,129588,2,0,P|291:165|323:167,1,46.4999985809327
419,36,129760,2,0,B|453:17|460:-17|359:-53|319:39|361:141|468:130|468:130|452:112|440:106|440:106|452:112|488:129|510:191|485:229|485:229|492:193|475:169,1,523.125001995563
401,212,130274,6,0,P|382:261|405:339,1,104.625000399113
233,343,130445,2,0,P|289:361|355:344,1,104.625000399113
292,200,130617,2,0,P|236:182|170:199,1,104.625000399113
120,324,130788,2,0,P|139:275|116:197,1,104.625000399113
109,44,130960,6,0,P|68:73|44:124,1,104.625000399113
58,207,131131,1,0,0:0:0:0:
69,193,131217,1,0,0:0:0:0:
81,178,131302,1,0,0:0:0:0:
201,47,131474,6,0,P|263:80|285:155,1,116.250004434586
278,190,131645,2,0,P|312:132|389:113,1,116.250004434586
463,118,131817,5,0,0:0:0:0:
462,205,131902,1,0,0:0:0:0:
461,292,131988,2,0,P|393:334|312:339,1,116.250004434586
259,260,132160,2,0,P|318:281|355:345,1,116.250004434586
262,347,132331,5,0,0:0:0:0:
228,348,132417,1,0,0:0:0:0:
194,348,132502,2,0,P|132:331|100:280,1,116.250004434586
90,183,132674,2,0,P|159:201|200:273,1,116.250004434586
47,50,133017,6,0,P|129:27|234:49,1,155
277,76,133188,2,0,P|336:133|360:234,1,170.500005203247
22,326,133360,6,0,P|63:251|153:193,1,155
203,177,133531,2,0,P|285:175|373:230,1,170.500005203247
431,280,133702,6,0,P|391:309|348:309,1,77.5
222,262,133874,2,0,P|268:264|302:284,1,77.5
109,352,134045,2,0,P|129:310|161:287,1,77.5
360,216,134217,6,0,P|289:176|201:178,1,170.500005203247
22,326,134388,2,0,P|63:251|153:193,1,155
167,36,134560,2,0,P|183:70|183:83,1,38.75
119,360,134731,6,0,P|129:282|111:195,1,155
82,138,134902,2,0,P|35:77|-83:46,1,155
152,31,135074,1,0,0:0:0:0:
388,144,135245,1,0,0:0:0:0:
177,260,135417,5,0,0:0:0:0:
253,157,135502,1,0,0:0:0:0:
388,144,135588,1,0,0:0:0:0:
489,289,135760,2,0,P|412:285|357:214,1,155
388,144,136102,2,0,B|203:88|117:270|163:355|217:380|283:381|305:349|336:303|312:233|250:222|173:230|173:230|89:238|9:193|17:88,1,836.999974456788
22,23,137817,5,0,0:0:0:0:
133,58,137988,1,0,0:0:0:0:
252,35,138160,2,0,B|310:37|360:69|331:147|462:176,1,248
66,178,141245,5,0,0:0:0:0:
181,268,141417,1,0,0:0:0:0:
300,359,141588,2,0,P|325:279|58:184,1,434
58,87,143302,6,0,P|59:47|47:11,1,62
144,29,143645,2,0,B|234:133|210:268|97:257|118:197,1,278.999991485596
483,29,146731,5,0,0:0:0:0:
435,134,146902,1,0,0:0:0:0:
353,51,147074,2,0,B|304:55|224:110|223:200|240:248|240:248|198:128|64:168|30:282|160:270|72:368|-11:311|28:250,1,592.874981906891
69,50,148788,6,0,L|46:118,1,69.749997871399
33,153,149131,2,0,P|162:96|293:163,1,278.999991485596
441,55,152217,5,0,0:0:0:0:
452,218,152388,1,0,0:0:0:0:
370,338,152560,2,0,B|315:302|261:110|414:115|447:206|419:246|350:260|350:260|276:273|218:167|114:192|154:335|260:322|261:253|219:173,1,697.49997871399
142,109,154445,1,0,0:0:0:0:
95,198,154617,2,0,P|101:322|259:373,1,278.999991485596
345,54,157702,5,0,0:0:0:0:
437,178,157874,1,0,0:0:0:0:
407,323,158045,2,0,B|356:278|388:239|343:194|343:194|311:243|345:279|302:328|302:328|247:315|188:258|287:214|193:126|125:136|74:196|101:253,1,627.749980842591
130,320,159760,5,0,0:0:0:0:
166,334,159931,1,0,0:0:0:0:
130,127,160102,1,0,0:0:0:0:
67,259,160274,1,0,0:0:0:0:
265,175,160445,2,0,B|320:142|415:58|358:8|270:-9|212:62|227:150|441:138|399:309,2,488.249985099793
109,174,163188,5,0,0:0:0:0:
172,61,163360,1,0,0:0:0:0:
191,255,163531,2,0,B|202:308|160:330|122:323|98:303|86:248|102:190|157:164|238:157|238:157|233:216|301:274|383:237|350:146|311:158|311:158|350:146|369:198,1,627.749980842591
359,329,165245,6,0,P|387:349|448:355,1,69.749997871399
424,257,165588,1,0,0:0:0:0:
422,98,165760,1,0,0:0:0:0:
265,132,165931,2,0,B|234:159|144:173|156:57|220:86|220:86|167:27|7:101|183:172|77:272,2,488.249985099793
348,33,168674,5,0,0:0:0:0:
395,159,168845,1,0,0:0:0:0:
356,279,169017,2,0,B|313:306|268:301|251:230|320:215|320:215|251:230|192:274|198:335|198:335|192:273|133:224|46:263|34:315|95:394|129:331,1,627.749980842591
203,162,170731,6,0,P|185:197|147:190,1,69.749997871399
80,75,171074,1,0,0:0:0:0:
231,69,171245,1,0,0:0:0:0:
281,185,171417,2,0,B|277:232|241:268|193:277|193:277|241:268|310:275|338:366|306:189|442:182|506:222|493:320|443:322,2,488.249985099793
226,44,174160,5,0,0:0:0:0:
111,71,174331,1,0,0:0:0:0:
84,187,174502,2,0,B|125:150|182:154|224:215|175:256|175:256|227:219|289:269|291:331|251:388|166:408|124:382|85:326|33:362|33:362|84:326|26:269|55:211|85:186,1,767.250023414613
409,76,176217,6,0,P|362:80|322:74,1,85.2500026016236
248,12,176560,1,0,0:0:0:0:
238,137,176731,1,0,0:0:0:0:
225,260,176902,2,0,B|234:326|179:341|132:344|113:296|113:296|132:344|179:341|234:326|317:283|433:368|433:368|384:351|332:359,2,596.750018211365
264,45,179645,6,0,L|265:74,1,23.2499992904663
317,171,179817,2,0,L|315:135,1,23.2499992904663
379,35,179988,2,0,P|376:59|366:81,1,38.75
442,127,180160,2,0,P|423:146|404:156,1,38.75
343,265,180845,6,0,L|406:255,1,38.75
451,247,181017,2,0,L|522:235,1,38.75
439,271,181360,6,0,L|376:281,1,38.75
331,289,181532,2,0,L|244:302,1,77.5
141,262,181874,6,0,L|178:234,1,38.75
152,153,182045,2,0,B|243:142|248:225|314:214,1,155
372,144,182560,6,0,P|349:131|332:130,1,38.75
319,47,182731,6,0,P|293:54|280:65,1,38.75
213,20,182902,6,0,P|199:43|198:60,1,38.75
113,184,183588,6,0,P|145:172|156:162,1,38.75
150,156,183760,2,0,L|69:183,1,77.5
40,301,184102,6,0,P|75:279|95:275,1,38.75
155,268,184274,2,0,P|200:281|240:327,1,77.5
290,368,184617,6,0,L|319:324,1,38.75
397,353,184788,2,0,L|392:297,1,38.75
472,284,184960,2,0,L|446:237,1,38.75
400,37,185131,6,0,P|383:76|385:127,1,77.5
298,117,185302,2,0,P|316:160|351:191,1,77.5
400,250,185474,2,0,P|367:272|315:275,1,77.5
265,368,185645,2,0,B|237:356|215:320|221:280|221:280|233:190|169:168|118:209|137:261|137:261|118:209|169:168|233:190|244:207,1,465.000017738343
293,262,186502,1,0,0:0:0:0:
406,115,186845,6,0,L|337:95,1,58.1250022172929
279,75,187017,2,0,L|162:38,1,116.250004434586
249,90,187360,6,0,L|330:115,1,58.1250022172929
375,129,187531,2,0,B|441:151|441:151|422:214|397:192|377:249,1,174.375006651879
388,346,187874,6,0,P|366:321|326:306,1,58.1250022172929
277,299,188045,2,0,P|244:303|206:327,1,58.1250022172929
368,232,188217,6,0,P|327:231|289:246,1,58.1250022172929
251,277,188388,2,0,P|225:306|214:344,1,58.1250022172929
65,123,189074,6,0,P|79:154|84:193,1,58.1250022172929
86,252,189246,2,0,P|81:285|65:321,1,58.1250022172929
75,321,189588,6,0,P|96:294|128:272,1,58.1250022172929
180,242,189760,2,0,P|212:230|251:229,1,58.1250022172929
246,223,190102,6,0,P|213:211|182:188,1,58.1250022172929
136,149,190274,2,0,P|114:122|100:85,1,58.1250022172929
229,39,190617,6,0,P|270:45|317:78,1,77.5
362,131,190788,2,0,L|358:202,1,38.75
489,32,190960,6,0,P|456:75|422:90,1,77.5
351,137,191131,2,0,L|338:201,1,38.75
394,272,191302,6,0,P|415:234|448:212,1,77.5
403,281,191645,6,0,P|382:319|349:341,1,77.5
287,359,191817,2,0,P|244:362|220:355,1,38.75
320,258,191988,6,0,P|276:239|253:204,1,77.5
250,69,192331,6,0,P|249:111|232:158,1,77.5
190,197,192502,2,0,P|168:209|136:211,1,38.75
143,101,192674,6,0,P|116:100|65:65,1,77.5
132,24,192845,2,0,L|186:25,1,38.75
266,67,193017,6,0,P|265:109|248:156,1,77.5
232,255,193360,6,0,P|272:240|314:236,1,77.5
397,250,193531,2,0,L|397:320,1,38.75
355,88,193702,6,0,P|379:129|389:175,1,77.5
389,247,193874,2,0,L|371:305,1,38.75,0|0,3:0|3:0,0:0:0:0:
304,338,194045,6,0,P|264:353|222:357,1,77.5
65,300,194388,6,0,B|67:257|67:257|82:217,1,77.5
119,139,194560,2,0,L|142:93,1,38.75
336,61,194731,2,0,P|269:70|197:16,1,155
277,151,195074,6,0,P|305:182|321:242,1,77.5
324,290,195245,2,0,P|313:332|282:368,1,77.5
186,355,195417,5,0,0:0:0:0:
186,332,195502,1,0,0:0:0:0:
192,309,195588,1,0,0:0:0:0:
203,288,195674,1,0,0:0:0:0:
219,273,195760,5,0,0:0:0:0:
156,216,195845,1,0,0:0:0:0:
150,129,195931,1,0,0:0:0:0:
210,68,196017,1,0,0:0:0:0:
297,72,196102,6,0,P|338:135|318:250,1,155
408,331,196445,2,0,P|420:270|449:228,1,77.5
427,257,196617,2,0,P|463:217|523:197,1,77.5
337,212,196788,2,0,P|281:280|194:287,1,155
49,58,197131,6,0,P|134:45|203:132,1,185.999994323731
218,292,197474,2,0,P|145:267|103:142,1,216.999993377686
369,16,197817,2,0,P|325:101|183:101,1,232.500008869171
327,250,198160,6,0,P|364:210|452:224,1,124
503,243,198331,2,0,P|467:280|389:277,1,124
259,186,198502,2,0,P|129:141|25:252,1,278.999991485596
138,361,198845,6,0,L|161:242,1,92.9999971618653
312,261,199017,2,0,P|277:291|268:353,1,92.9999971618653
155,269,199188,2,0,L|208:180,1,92.9999971618653
397,281,199360,2,0,P|357:257|295:269,1,92.9999971618653
202,189,199531,2,0,L|299:129,1,92.9999971618653
402,368,199702,2,0,P|412:323|383:267,1,92.9999971618653
281,139,199874,5,0,0:0:0:0:
321,140,199960,1,0,0:0:0:0:
361,141,200045,1,0,0:0:0:0:
401,143,200131,1,0,0:0:0:0:
441,144,200217,1,0,0:0:0:0:
328,261,200474,5,0,0:0:0:0:
314,357,200560,1,0,0:0:0:0:
401,330,200645,1,0,0:0:0:0:
313,235,200817,5,0,0:0:0:0:
228,185,200902,2,0,L|190:84,1,92.9999971618653
111,23,201074,5,0,0:0:0:0:
78,123,201160,1,0,0:0:0:0:
127,216,201245,5,0,0:0:0:0:
111,23,201417,5,0,0:0:0:0:
19,217,201588,2,0,P|39:286|162:315,1,170.500005203247
310,290,201760,2,0,P|227:310|193:407,1,170.500005203247
422,347,201931,6,0,P|435:265|374:177,1,170.500005203247
453,90,202102,6,0,P|371:77|283:138,1,170.500005203247
290,238,202274,2,0,L|447:368,1,170.500005203247
297,118,202445,2,0,L|110:67,1,170.500005203247
283,260,202617,2,0,L|477:421,1,170.500005203247
299,96,202788,2,0,L|67:32,1,170.500005203247
45,140,202960,6,0,B|68:192|68:192|43:318,1,170.500005203247
152,382,203131,2,0,B|129:330|129:330|157:198,1,178.250003399849
45,140,203302,2,0,B|68:192|68:192|43:319,1,185.999994323731
152,382,203473,2,0,B|129:330|129:330|157:197,1,185.999994323731
220,48,203645,6,0,B|329:248,1,193.75
420,253,203817,6,0,P|436:203|418:140,1,77.5
339,66,203988,2,0,P|350:100|385:125,1,62
512,121,204160,2,0,P|490:100|453:90,1,62
91,233,204331,6,0,B|64:280|117:361|172:340|172:340|148:296,1,193.75
268,223,204502,2,0,B|294:175|241:94|186:115|186:115|210:159,1,193.75
206,260,204674,2,0,B|228:296|285:328|353:278|340:219|348:198,1,193.75
270,62,204845,2,0,B|206:20|129:43|100:88|123:145,1,193.75
374,331,205017,6,0,P|415:261|405:122,1,193.75
48,48,205188,2,0,B|3:146|68:215|150:189,1,193.75
499,175,205360,2,0,B|496:78|439:51|352:58|336:148,1,193.75
76,265,205531,2,0,B|148:283|206:252|218:150|127:106,1,193.75
356,10,205702,6,0,B|242:58|316:200|399:146,1,193.75
264,191,205874,2,0,B|259:69|152:40|82:149,1,193.75
319,224,206045,2,0,B|365:240|422:222|443:146|394:98,1,193.75
119,20,206217,2,0,B|11:68|89:212|183:149,1,193.75
461,63,206388,6,0,B|428:19|340:10|302:105|346:156,1,232.5
437,270,206731,2,0,B|484:243|488:192|517:136|461:63,1,232.5
131,64,207074,6,0,B|87:71|87:71|92:109|76:145|41:161|41:161|58:210,1,193.75
163,251,207245,2,0,B|207:244|207:244|202:206|218:170|253:154|253:154|236:105,1,193.75
11,87,207417,6,0,B|-40:111|-40:169|-40:169|10:318,1,232.500008869171
285,228,207588,2,0,B|336:204|336:146|336:146|286:-3,1,232.500008869171
36,160,207760,6,0,B|78:285|78:285|95:331|171:348,1,193.75
295,313,207931,2,0,P|383:258|419:130,1,193.75
32,35,208102,6,0,B|74:59|63:107|63:107|141:342,1,232.500008869171
426,242,208274,2,0,B|457:195|450:129|450:129|405:-1,1,232.500008869171
198,53,208445,6,0,B|188:82|177:129|196:206|243:177|234:282,1,193.75
476,203,208617,2,0,L|398:-20,1,193.75
169,293,208788,2,0,B|212:338|276:310|276:310|330:263|301:194,1,232.500008869171
343,41,208960,2,0,B|272:23|234:94|246:152|304:161|308:224,1,232.500008869171
257,335,209131,6,0,B|204:358|103:310|111:177,1,232.5
167,39,209474,6,0,P|168:68|129:121,1,77.5
182,92,209645,2,0,P|144:124|91:120,1,77.5
0,99,209817,6,0,B|29:37|119:10|190:48,1,193.75
250,156,209988,2,0,P|158:186|81:112,1,193.75
259,57,210160,6,0,P|332:97|314:233,1,232.500008869171
148,303,210331,2,0,P|60:236|89:130,1,232.500008869171
435,171,210502,6,0,P|364:300|292:330,1,193.75
21,73,210674,2,0,B|74:6|226:44|163:216,1,193.75
235,256,210845,6,0,P|137:301|56:219,1,232.500008869171
173,106,211017,2,0,P|299:88|345:169,1,232.500008869171
338,273,211188,6,0,P|233:255|299:156,1,193.75
496,84,211360,2,0,B|499:173|447:180|450:271,1,193.75
128,207,211531,2,0,B|141:98|246:5|361:139,1,232.500008869171
389,353,211702,2,0,P|320:386|157:312,1,232.500008869171
142,222,211874,6,0,P|74:264|55:324,1,116.250004434586
87,338,212045,1,0,0:0:0:0:
80,301,212131,1,0,0:0:0:0:
8,239,212217,1,0,0:0:0:0:
38,157,212302,1,0,0:0:0:0:
121,120,212388,1,0,0:0:0:0:
205,146,212474,1,0,0:0:0:0:
249,218,212560,6,0,L|55:293,1,193.75
189,348,212731,2,0,L|412:262,1,193.75
291,96,212902,2,0,B|205:54|121:111|121:111|150:149|191:152,1,232.500008869171
331,192,213074,2,0,B|421:160|440:61|440:61|393:54|362:81,1,232.500008869171
238,187,213245,2,0,B|195:273|253:357|253:357|291:328|294:287,1,232.500008869171
463,202,213417,2,0,B|520:129|566:13|459:-30,1,232.500008869171
147,13,213588,2,0,B|50:43|-24:129|37:208,1,232.500008869171
87,347,213760,2,0,B|46:317|70:280|52:256|94:268|109:227|100:189|68:165|34:165|11:184,1,232.500008869171
169,124,213931,6,0,B|161:169|190:192|224:201|249:204|247:164|279:156|349:187|339:239|329:269,1,232.500008869171
491,281,214102,2,0,B|490:328|460:374|420:407|345:396|325:358|325:285|367:258|432:303,1,232.500008869171
169,124,214274,2,0,B|195:161|231:157|262:139|282:123|252:96|269:68|340:41|370:84|385:112,1,232.500008869171
333,232,214445,2,0,B|306:194|270:198|239:216|219:232|249:259|232:287|190:249|134:273|177:393,1,232.500008869171
175,347,214617,1,0,0:0:0:0:
68,227,214788,5,0,0:0:0:0:
88,219,214874,1,0,0:0:0:0:
86,245,214960,1,0,0:0:0:0:
22,156,215045,2,0,P|45:155|65:164,1,38.75
46,68,215131,2,0,P|74:82|90:104,1,38.75
122,13,215217,2,0,P|138:37|143:65,1,38.75
225,28,215302,6,0,B|304:72|270:205|155:142|205:289,1,232.500008869171
208,348,215474,2,0,B|269:354|319:314|319:233|319:233|269:277,1,232.500008869171
116,189,215645,2,0,B|55:183|5:223|5:304|5:304|55:260,1,232.500008869171
319,232,215817,2,0,B|382:253|432:223|458:154|426:109|358:122|361:189,1,232.500008869171
116,189,215988,2,0,B|56:218|42:275|72:342|127:351|166:294|116:249,1,232.500008869171
319,232,216160,2,0,B|340:169|310:119|241:93|196:125|209:193|276:190,1,232.500008869171
364,322,216331,2,0,B|399:359|448:360|448:360|455:368|455:368|455:354|455:354|461:362|461:362|506:361|545:308|486:253,1,232.500008869171
319,232,216502,2,0,B|269:243|243:285|243:285|233:287|233:287|245:294|245:294|235:295|235:295|213:334|239:395|317:372,1,232.500008869171
422,238,216674,6,0,B|461:180|478:103|414:44|365:99,1,232.500008869171
215,235,216845,2,0,B|175:292|158:369|222:428|271:373,1,232.500008869171
445,226,217017,6,0,B|474:162|476:83|403:36|364:98,1,232.500008869171
191,246,217188,2,0,B|162:309|159:388|232:435|271:372,1,232.500008869171
466,210,217360,6,0,B|483:142|472:64|392:30|365:98,1,232.500008869171
334,252,217702,2,0,B|321:288|333:332|367:353|418:343|407:275,1,155
273,21,218045,6,0,L|214:167,1,155
150,59,218217,2,0,L|117:213,1,155
263,354,218388,2,0,B|310:354|367:336|403:280|403:202|403:202|361:258,1,271.250002586842
438,63,218560,2,0,B|391:63|334:81|298:137|298:215|298:215|340:159,1,271.250002586842
477,214,218731,6,0,P|472:168|420:124,1,77.5
226,186,218902,2,0,P|223:237|268:288,1,116.250004434586
314,29,219074,2,0,B|258:11|174:51|228:164|39:193,1,271.250002586842
26,147,219245,2,0,B|10:145|10:145|38:139|38:139|4:208|61:284|115:214|141:321,1,271.250002586842
230,359,219417,6,0,B|217:344|203:260|255:298|254:218|226:186|226:186|254:218|288:205|321:247,1,271.250002586842
414,229,219588,2,0,B|420:247|400:330|367:275|336:349|350:389|350:389|336:349|300:348|286:296,1,271.250002586842
314,29,219760,2,0,B|347:78|378:211|323:285|279:238,1,271.250002586842
163,234,219931,2,0,B|92:178|86:7|253:32|223:156,1,271.250002586842
229,181,220102,1,0,0:0:0:0:
85,338,220445,6,0,P|59:305|55:264,1,77.5
50,178,220617,2,0,P|91:182|123:209,1,77.5
155,301,220788,6,0,P|210:271|246:174,1,155
327,157,220960,2,0,L|478:34,1,155
492,347,221131,2,0,P|479:287|246:156,1,271.250002586842
245,188,221302,2,0,P|98:220|42:371,1,271.250002586842
147,384,221474,6,0,P|123:320|269:191,1,271.250002586842
325,191,221645,2,0,P|414:241|408:395,1,271.250002586842
278,380,221817,2,0,B|233:368|204:319|236:210|344:318|321:158,1,271.250002586842
278,0,221988,2,0,B|233:12|204:61|236:170|344:62|321:222,1,271.250002586842
195,338,222160,6,0,B|188:297|209:255|233:218|301:244|288:207|281:153|281:153|287:192|268:212,1,271.250002586842
94,3,222331,2,0,B|56:17|33:61|46:86|73:133|105:125|136:107|149:85|178:119|128:142|200:169,1,271.250002586842
392,169,222502,2,0,B|352:160|354:218|361:240|411:235|431:261|385:348|359:357|302:340|255:305,1,271.250002586842
17,227,222674,2,0,B|19:178|58:157|102:172|139:208|119:246|55:283|89:326|83:386,1,271.250002586842
288,324,222845,6,0,B|239:287|163:326|183:407,2,155
472,285,223188,2,0,P|449:205|364:166,1,155
265,143,223531,2,0,B|255:253|341:171|374:309|340:411|223:406|145:376|122:266|208:210,1,465.000017738343
266,131,223874,2,0,B|265:78|202:38|140:50|103:117|119:135|119:135|103:117|48:162|50:228|99:290|17:356,2,480.500003665924
191,141,224731,1,0,0:0:0:0:
150,213,224902,2,0,B|145:299|222:338|296:318|316:271|317:260|317:260|316:271|350:334|442:328|426:226|545:289,2,480.500003665924
237,224,225760,1,0,0:0:0:0:
372,79,225931,2,0,B|325:31|254:88|306:149|235:225,1,240.250001832962
19,135,226274,6,0,B|51:78|130:106|156:166|73:218|87:293|87:293|73:218|178:152|257:218|264:307,2,480.500003665924
167,285,227131,1,0,0:0:0:0:
429,104,227645,6,0,B|445:69|425:2|355:12|355:12|374:92|326:158|400:218|400:218|326:158|289:205,2,480.500003665924
269,288,228674,2,0,B|298:273|298:273|418:337,1,120.125000916481
374,325,228845,2,0,B|359:296|359:296|423:176,1,120.125000916481
62,307,267417,6,0,B|71:327|103:337|132:325|148:276|134:227|108:160|133:58|133:58|145:188|209:197|218:328|218:328|240:258|209:197|206:119|252:57|290:69|290:69|336:85|421:66|470:86|470:86|413:70|377:81|377:81|333:176|390:266|358:344,1,1441.49995600891
