osu file format v14

[General]
AudioFilename: papafiot - Breakdown.mp3
AudioLeadIn: 0
PreviewTime: -1
Countdown: 1
SampleSet: Normal
StackLeniency: 0.7
Mode: 0
LetterboxInBreaks: 1
StoryFireInFront: 0
WidescreenStoryboard: 1

[Editor]
DistanceSpacing: 1
BeatDivisor: 6
GridSize: 8
TimelineZoom: 1

[Metadata]
Title:Breakdown
TitleUnicode:Breakdown
Artist:Papafiot
ArtistUnicode:Papafiot
Creator:-BadMuffin-
Version:Baka-Muffy
Source:
Tags:Breakdown, Papafiot, Baka, Muffy
BeatmapID:426278
BeatmapSetID:151185

[Difficulty]
HPDrainRate:5.3
CircleSize:4.2
OverallDifficulty:5.5
ApproachRate:9
SliderMultiplier:2
SliderTickRate:2

[Events]
//Background and Video events
0,0,"leaf-2560x1600.jpg",0,0
//Break Periods
2,72164,73989
2,80415,81114
2,114164,121239
//Storyboard Layer 0 (Background)
//Storyboard Layer 1 (Fail)
//Storyboard Layer 2 (Pass)
//Storyboard Layer 3 (Foreground)
//Storyboard Sound Samples

[TimingPoints]
10840,375,4,1,0,100,1,0

[Colours]
Combo1 : 255,0,128
Combo2 : 0,128,255
Combo3 : 255,255,255
Combo4 : 128,0,255

[HitObjects]
128,216,11215,5,0,0:0:0:0:
168,248,11402,1,0,0:0:0:0:
256,160,11590,1,0,0:0:0:0:
288,80,11965,1,0,0:0:0:0:
432,80,12340,1,0,0:0:0:0:
440,304,12715,5,0,0:0:0:0:
72,200,13089,1,0,0:0:0:0:
112,224,13276,1,0,0:0:0:0:
112,176,13464,1,0,0:0:0:0:
216,200,13651,5,0,0:0:0:0:
80,96,14215,1,0,0:0:0:0:
328,256,14590,1,0,0:0:0:0:
328,256,14777,1,0,0:0:0:0:
328,256,14965,1,0,0:0:0:0:
88,72,15340,1,0,0:0:0:0:
88,72,16089,1,0,0:0:0:0:
192,72,16464,1,0,0:0:0:0:
192,296,16839,1,0,0:0:0:0:
344,72,17214,2,0,L|448:72,2,100,0|0|0,0:0|0:0|0:0,0:0:0:0:
80,80,17964,5,0,0:0:0:0:
80,80,18339,1,0,0:0:0:0:
424,304,18714,1,0,0:0:0:0:
424,304,19089,1,0,0:0:0:0:
80,80,19464,1,0,0:0:0:0:
176,80,19839,5,0,0:0:0:0:
216,104,20026,1,0,0:0:0:0:
256,80,20215,1,0,0:0:0:0:
296,104,20589,1,0,0:0:0:0:
328,72,20776,1,0,0:0:0:0:
360,104,20964,1,0,0:0:0:0:
64,192,21339,1,0,0:0:0:0:
432,192,22089,1,0,0:0:0:0:
64,192,22464,1,0,0:0:0:0:
72,72,23214,1,0,0:0:0:0:
72,72,23589,1,0,0:0:0:0:
48,192,23965,5,0,0:0:0:0:
56,80,24151,1,0,0:0:0:0:
160,40,24339,1,0,0:0:0:0:
248,160,24714,5,0,0:0:0:0:
304,40,25089,1,0,0:0:0:0:
416,104,25276,1,0,0:0:0:0:
376,224,25464,1,0,0:0:0:0:
256,192,25839,12,0,28464,0:0:0:0:
80,64,29214,5,0,0:0:0:0:
440,64,29589,1,0,0:0:0:0:
176,64,29964,1,0,0:0:0:0:
248,192,30151,1,0,0:0:0:0:
312,64,30339,1,0,0:0:0:0:
160,160,30714,5,0,0:0:0:0:
160,160,31089,2,0,P|232:256|344:152,2,300,0|0|0,0:0|0:0|0:0,0:0:0:0:
48,192,32589,5,0,0:0:0:0:
200,192,32776,1,0,0:0:0:0:
136,64,32964,1,0,0:0:0:0:
224,64,33339,1,0,0:0:0:0:
232,280,33714,1,0,0:0:0:0:
48,192,34089,1,0,0:0:0:0:
456,192,34464,1,0,0:0:0:0:
256,192,34839,1,0,0:0:0:0:
192,152,35214,2,0,P|288:96|320:176,2,200,0|0|0,0:0|0:0|0:0,0:0:0:0:
80,64,36339,5,0,0:0:0:0:
496,328,36714,1,0,0:0:0:0:
416,280,36901,1,0,0:0:0:0:
336,216,37090,1,0,0:0:0:0:
160,40,37464,1,0,0:0:0:0:
224,104,37651,1,0,0:0:0:0:
288,168,37839,1,0,0:0:0:0:
416,64,38214,1,0,0:0:0:0:
424,176,38589,1,0,0:0:0:0:
424,208,38776,1,0,0:0:0:0:
424,240,38964,1,0,0:0:0:0:
256,192,39339,1,0,0:0:0:0:
48,184,40089,5,0,0:0:0:0:
424,184,40464,1,0,0:0:0:0:
256,320,40839,1,0,0:0:0:0:
256,96,41214,5,0,0:0:0:0:
376,208,41401,1,0,0:0:0:0:
480,312,41589,1,0,0:0:0:0:
512,184,41964,1,0,0:0:0:0:
66,184,42339,2,0,L|181:185,2,100,0|0|0,0:0|0:0|0:0,0:0:0:0:
256,96,43089,5,0,0:0:0:0:
256,256,43464,1,0,0:0:0:0:
144,176,43839,1,0,0:0:0:0:
256,88,44026,1,0,0:0:0:0:
360,184,44214,1,0,0:0:0:0:
160,224,44589,1,0,0:0:0:0:
256,312,44776,1,0,0:0:0:0:
352,224,44964,1,0,0:0:0:0:
72,64,45339,5,0,0:0:0:0:
256,56,46089,1,0,0:0:0:0:
256,304,46464,1,0,0:0:0:0:
256,304,46839,2,0,P|296:208|352:264,3,200,0|0|0|0,0:0|0:0|0:0|0:0,0:0:0:0:
96,184,48714,2,0,P|200:104|416:224,2,400,0|0|0,0:0|0:0|0:0,0:0:0:0:
256,192,50964,12,0,53589,0:0:0:0:
128,64,54339,5,0,0:0:0:0:
240,64,54714,1,0,0:0:0:0:
360,64,55089,1,0,0:0:0:0:
241,165,55464,1,0,0:0:0:0:
362,165,55839,1,0,0:0:0:0:
362,165,56215,2,0,L|488:320,3,200
192,136,57714,5,0,0:0:0:0:
312,248,58089,1,0,0:0:0:0:
280,136,58464,1,0,0:0:0:0:
224,248,58839,1,0,0:0:0:0:
424,120,59214,1,0,0:0:0:0:
64,200,59589,1,0,0:0:0:0:
408,232,59964,1,0,0:0:0:0:
96,112,60339,1,0,0:0:0:0:
344,320,60714,1,0,0:0:0:0:
184,72,61089,1,0,0:0:0:0:
303,69,61464,1,0,0:0:0:0:
303,69,61839,2,0,P|405:57|446:158,3,200,0|0|0|0,0:0|0:0|0:0|0:0,0:0:0:0:
256,192,63339,12,0,65964,0:0:0:0:
152,80,66339,5,0,0:0:0:0:
256,232,66714,1,0,0:0:0:0:
352,80,67089,1,0,0:0:0:0:
480,280,67464,1,0,0:0:0:0:
96,296,67839,1,0,0:0:0:0:
456,48,68214,1,0,0:0:0:0:
131,198,68589,2,0,P|147:304|240:293,2,200,0|0|0,0:0|0:0|0:0,0:0:0:0:
277,89,69714,2,0,P|361:94|359:190,2,200,0|0|0,0:0|0:0|0:0,0:0:0:0:
117,150,70839,5,0,0:0:0:0:
117,150,71214,2,0,B|267:196|276:78,2,200,0|0|0,0:0|0:0|0:0,0:0:0:0:
176,240,74589,5,0,0:0:0:0:
264,88,74964,1,0,0:0:0:0:
352,240,75339,1,0,0:0:0:0:
112,232,75714,1,0,0:0:0:0:
256,48,76089,1,0,0:0:0:0:
384,232,76464,1,0,0:0:0:0:
170,73,76839,2,0,P|98:70|171:94,2,200,0|0|0,0:0|0:0|0:0,0:0:0:0:
256,192,77964,12,0,80215,0:0:0:0:
147,193,81714,5,0,0:0:0:0:
258,91,82089,5,0,0:0:0:0:
368,190,82464,5,0,0:0:0:0:
255,284,82839,5,0,0:0:0:0:
258,91,83214,1,0,0:0:0:0:
143,194,83589,1,0,0:0:0:0:
368,190,83964,1,0,0:0:0:0:
54,171,84339,2,0,L|216:294,3,200,0|0|0|0,0:0|0:0|0:0|0:0,0:0:0:0:
138,120,85839,2,0,P|216:47|281:112,3,200,0|0|0|0,0:0|0:0|0:0|0:0,0:0:0:0:
390,80,87339,1,0,0:0:0:0:
392,304,87714,1,0,0:0:0:0:
390,80,88089,1,0,0:0:0:0:
392,304,88464,1,0,0:0:0:0:
50,95,88839,2,0,P|125:84|107:189,2,200,0|0|0,0:0|0:0|0:0,0:0:0:0:
168,96,89964,5,0,0:0:0:0:
200,136,90151,1,0,0:0:0:0:
216,88,90339,1,0,0:0:0:0:
400,168,90714,1,0,0:0:0:0:
352,184,90901,1,0,0:0:0:0:
392,216,91089,1,0,0:0:0:0:
208,328,91464,1,0,0:0:0:0:
240,296,91651,1,0,0:0:0:0:
192,288,91839,1,0,0:0:0:0:
176,272,92214,2,0,P|328:272|376:320,2,200,0|0|0,0:0|0:0|0:0,0:0:0:0:
80,80,93339,2,0,P|232:120|240:160,3,200,0|0|0|0,0:0|0:0|0:0|0:0,0:0:0:0:
80,80,94839,5,0,0:0:0:0:
176,80,95214,1,0,0:0:0:0:
176,80,95589,1,0,0:0:0:0:
176,80,95964,1,0,0:0:0:0:
272,256,96339,2,0,P|304:232|208:184,2,200,0|0|0,0:0|0:0|0:0,0:0:0:0:
200,72,97839,5,0,0:0:0:0:
304,72,98026,1,0,0:0:0:0:
256,160,98214,1,0,0:0:0:0:
256,160,98589,2,0,L|256:272,2,100,0|0|0,0:0|0:0|0:0,0:0:0:0:
256,160,99339,2,0,L|384:160,2,100,0|0|0,0:0|0:0|0:0,0:0:0:0:
64,72,100089,1,0,0:0:0:0:
64,72,100464,5,0,0:0:0:0:
64,72,100651,1,0,0:0:0:0:
64,72,100839,1,0,0:0:0:0:
184,168,101214,1,0,0:0:0:0:
216,152,101401,1,0,0:0:0:0:
248,136,101589,1,0,0:0:0:0:
144,152,101964,2,0,P|288:304|376:176,2,400,0|0|0,0:0|0:0|0:0,0:0:0:0:
376,80,103839,5,0,0:0:0:0:
376,80,104026,1,0,0:0:0:0:
376,80,104214,1,0,0:0:0:0:
80,80,104589,1,0,0:0:0:0:
80,312,104964,1,0,0:0:0:0:
376,192,105339,1,0,0:0:0:0:
256,192,105714,2,0,L|344:96,2,100,0|0|0,0:0|0:0|0:0,0:0:0:0:
256,192,106464,2,0,L|184:272,2,100,0|0|0,0:0|0:0|0:0,0:0:0:0:
96,88,107214,5,0,0:0:0:0:
184,88,107589,1,0,0:0:0:0:
272,88,107964,1,0,0:0:0:0:
272,88,108339,2,0,L|272:200,2,100,0|0|0,0:0|0:0|0:0,0:0:0:0:
256,192,109089,12,0,113964,0:0:0:0:
144,96,121839,5,0,0:0:0:0:
144,96,122214,2,0,L|368:96,3,200,0|0|0|0,0:0|0:0|0:0|0:0,0:0:0:0:
208,120,123714,1,0,0:0:0:0:
296,120,124089,1,0,0:0:0:0:
128,120,124464,1,0,0:0:0:0:
376,120,124839,5,0,0:0:0:0:
56,120,125214,1,0,0:0:0:0:
448,120,125589,1,0,0:0:0:0:
352,120,125964,5,0,0:0:0:0:
144,120,126339,1,0,0:0:0:0:
248,120,126714,1,0,0:0:0:0:
248,120,127089,1,0,0:0:0:0:
256,192,127465,12,0,128027,0:0:0:0:
256,192,128215,12,0,128715,0:0:0:0:
256,192,128965,12,0,129528,0:0:0:0:
112,152,130464,5,0,0:0:0:0:
224,48,130651,1,0,0:0:0:0:
341,157,130839,1,0,0:0:0:0:
341,157,131215,1,0,0:0:0:0:
224,48,131401,1,0,0:0:0:0:
112,152,131589,1,0,0:0:0:0:
384,128,131964,1,0,0:0:0:0:
384,176,132151,1,0,0:0:0:0:
384,224,132339,1,0,0:0:0:0:
64,224,132714,5,0,0:0:0:0:
64,176,132901,1,0,0:0:0:0:
64,128,133089,1,0,0:0:0:0:
176,136,133464,2,0,L|256:64,2,100,0|0|0,0:0|0:0|0:0,0:0:0:0:
360,192,134214,2,0,L|272:272,2,100,0|0|0,0:0|0:0|0:0,0:0:0:0:
128,88,134964,5,0,0:0:0:0:
256,320,135339,1,0,0:0:0:0:
456,200,135527,1,0,0:0:0:0:
248,64,135715,1,0,0:0:0:0:
192,184,136089,2,0,P|320:112|392:128,3,200,0|0|0|0,0:0|0:0|0:0|0:0,0:0:0:0:
256,192,137589,12,0,139839,0:0:0:0:
256,192,140214,5,0,0:0:0:0:
336,192,140589,1,0,0:0:0:0:
176,192,140964,1,0,0:0:0:0:
408,192,141339,1,0,0:0:0:0:
104,192,141714,1,0,0:0:0:0:
480,192,142089,1,0,0:0:0:0:
32,192,142465,1,0,0:0:0:0:
56,120,142839,6,0,P|160:40|248:64,3,200,0|0|0|0,0:0|0:0|0:0|0:0,0:0:0:0:
128,192,144339,2,0,L|128:64,2,100,0|0|0,0:0|0:0|0:0,0:0:0:0:
128,192,145089,2,0,L|232:192,2,100,0|0|0,0:0|0:0|0:0,0:0:0:0:
112,88,145839,5,0,0:0:0:0:
232,88,146214,1,0,0:0:0:0:
280,248,146589,1,0,0:0:0:0:
392,248,146964,1,0,0:0:0:0:
176,248,147339,1,0,0:0:0:0:
232,88,147527,1,0,0:0:0:0:
176,248,147715,1,0,0:0:0:0:
344,256,147902,1,0,0:0:0:0:
248,112,148090,1,0,0:0:0:0:
336,304,148465,2,0,L|424:248,4,100
336,304,149590,1,0,0:0:0:0:
144,288,149964,5,0,0:0:0:0:
376,288,150339,1,0,0:0:0:0:
256,80,150714,1,0,0:0:0:0:
88,200,151089,2,0,L|168:112,2,100,0|0|0,0:0|0:0|0:0,0:0:0:0:
128,272,151839,5,0,0:0:0:0:
400,120,152214,1,0,0:0:0:0:
224,328,152589,1,0,0:0:0:0:
320,48,152964,1,0,0:0:0:0:
328,328,153339,1,0,0:0:0:0:
208,56,153714,1,0,0:0:0:0:
416,272,154089,1,0,0:0:0:0:
136,120,154464,1,0,0:0:0:0:
416,176,154839,1,0,0:0:0:0:
120,216,155214,1,0,0:0:0:0:
192,144,155589,2,0,P|320:40|416:208,2,400,0|0|0,0:0|0:0|0:0,0:0:0:0:
240,80,157464,5,0,0:0:0:0:
400,192,157839,1,0,0:0:0:0:
248,192,158214,6,0,P|160:224|96:152,3,200,0|0|0|0,0:0|0:0|0:0|0:0,0:0:0:0:
360,128,159715,1,0,0:0:0:0:
216,136,160090,1,0,0:0:0:0:
344,176,160465,1,0,0:0:0:0:
312,208,160840,1,0,0:0:0:0:
256,104,161215,1,0,0:0:0:0:
264,232,161590,1,0,0:0:0:0:
304,120,161965,1,0,0:0:0:0:
304,224,162340,1,0,0:0:0:0:
144,312,162715,5,0,0:0:0:0:
408,320,163090,1,0,0:0:0:0:
232,312,163465,1,0,0:0:0:0:
320,312,163840,1,0,0:0:0:0:
168,192,164215,2,0,P|240:72|392:120,2,300
168,192,165715,2,0,P|256:272|416:208,2,300
256,192,167215,5,0,0:0:0:0:
192,248,167590,1,0,0:0:0:0:
312,136,167965,1,0,0:0:0:0:
256,192,168340,1,0,0:0:0:0:
192,136,168715,1,0,0:0:0:0:
320,256,169090,1,0,0:0:0:0:
256,192,169465,5,0,0:0:0:0:
256,256,169840,1,0,0:0:0:0:
256,336,170215,1,0,0:0:0:0:
256,40,170590,1,0,0:0:0:0:
80,192,170965,1,0,0:0:0:0:
464,192,171152,1,0,0:0:0:0:
256,120,171340,1,0,0:0:0:0:
232,192,171715,2,0,L|336:136,2,100
360,312,172465,5,0,0:0:0:0:
352,72,172652,1,0,0:0:0:0:
152,72,172840,1,0,0:0:0:0:
152,320,173027,1,0,0:0:0:0:
152,320,173215,1,0,0:0:0:0:
152,72,173402,1,0,0:0:0:0:
352,72,173590,1,0,0:0:0:0:
200,288,173965,2,0,P|200:80|368:264,1,600
96,64,175465,2,0,L|152:64,1,33.3333333333333
248,192,175840,2,0,L|296:192,1,33.3333333333333
392,72,176215,2,0,L|432:72,1,33.3333333333333
456,304,176590,5,0,0:0:0:0:
72,304,176777,1,0,0:0:0:0:
72,64,176965,1,0,0:0:0:0:
456,64,177152,1,0,0:0:0:0:
256,288,177340,5,0,0:0:0:0:
256,112,177527,1,0,0:0:0:0:
200,272,177715,1,0,0:0:0:0:
320,128,177902,1,0,0:0:0:0:
176,216,178090,1,0,0:0:0:0:
344,192,178277,1,0,0:0:0:0:
176,144,178465,1,0,0:0:0:0:
320,256,178652,1,0,0:0:0:0:
240,120,178840,1,0,0:0:0:0:
264,272,179027,1,0,0:0:0:0:
424,192,179402,2,0,L|424:72,2,100
424,192,179965,2,0,L|424:304,2,100
320,304,180527,5,0,0:0:0:0:
272,288,180715,1,0,0:0:0:0:
224,320,180902,1,0,0:0:0:0:
176,328,181090,1,0,0:0:0:0:
120,304,181277,1,0,0:0:0:0:
112,248,181465,1,0,0:0:0:0:
168,208,181652,1,0,0:0:0:0:
216,72,182215,1,0,0:0:0:0:
272,72,182402,1,0,0:0:0:0:
320,72,182590,1,0,0:0:0:0:
256,192,182965,12,0,187090,0:0:0:0:
248,104,187840,6,4,B|360:0|496:168|248:328|248:328|0:168|144:0|256:112,1,850,4|0,0:0|0:0,0:0:0:0:
368,296,190840,1,0,0:0:0:0:
400,264,191027,1,0,0:0:0:0:
440,232,191215,1,0,0:0:0:0:
328,264,191590,1,0,0:0:0:0:
288,232,191778,1,0,0:0:0:0:
248,192,191965,1,0,0:0:0:0:
136,296,192340,5,0,0:0:0:0:
144,64,193090,1,0,0:0:0:0:
392,296,193465,1,0,0:0:0:0:
